osu file format v14

[General]
AudioFilename: audio.mp3
AudioLeadIn: 0
PreviewTime: 37313
Countdown: 0
SampleSet: Soft
StackLeniency: 0.3
Mode: 0
LetterboxInBreaks: 0
WidescreenStoryboard: 1

[Editor]
Bookmarks: 2081,6081,22081,36081,38081,44081,46081,52081,54081,62081,78081,92081,94081,100081,102081,108081,110081,114081,130081,132081,138081,140081,146081,148081,154081,156081,162081,164081,170081,173831
DistanceSpacing: 1
BeatDivisor: 6
GridSize: 8
TimelineZoom: 1.9

[Metadata]
Title:Pop
TitleUnicode:Pop
Artist:*NSYNC
ArtistUnicode:*NSYNC
Creator:Silverboxer
Version:Insane
Source:
Tags:nsync dirty celebrity english lance bass justin timberlake joey fatone chris kirkpatrick jc chasez teen-pop dance-pop N 'N Sync Aranel Sonnyc
BeatmapID:3238838
BeatmapSetID:1585695

[Difficulty]
HPDrainRate:4
CircleSize:3.5
OverallDifficulty:8
ApproachRate:8
SliderMultiplier:2.56
SliderTickRate:1

[Events]
//Background and Video events
0,0,"pop.jpg",0,0
//Break Periods
2,110071,113313
2,140263,141313
2,142263,143313
//Storyboard Layer 0 (Background)
//Storyboard Layer 1 (Fail)
//Storyboard Layer 2 (Pass)
//Storyboard Layer 3 (Foreground)
//Storyboard Layer 4 (Overlay)
//Storyboard Sound Samples

[TimingPoints]
63,500,4,2,0,70,1,0
9059,-200,4,2,0,70,0,0
10059,-100,4,2,0,70,0,0
13059,-200,4,2,0,70,0,0
14059,-100,4,2,0,70,0,0
20059,-400,4,2,0,70,0,0
22059,-80,4,2,0,70,0,0
25059,-160,4,2,0,70,0,0
26059,-80,4,2,0,70,0,0
29059,-160,4,2,0,70,0,0
30059,-80,4,2,0,70,0,0
33059,-160,4,2,0,70,0,0
34059,-80,4,2,0,70,0,0
37309,-200,4,2,0,70,0,0
38059,-66.6666666666667,4,2,0,70,0,0
44059,-400,4,2,0,70,0,0
45559,-200,4,2,0,70,0,0
46059,-66.6666666666667,4,2,0,70,0,0
52059,-100,4,2,0,70,0,0
52809,-200,4,2,0,70,0,0
54059,-100,4,2,0,70,0,0
59559,-400,4,2,0,70,0,0
60059,-100,4,2,0,70,0,0
60809,-250,4,2,0,70,0,0
62059,-100,4,2,0,70,0,0
77309,-200,4,2,0,70,0,0
78059,-80,4,2,0,70,0,0
85059,-200,4,2,0,70,0,0
86059,-80,4,2,0,70,0,0
89059,-200,4,2,0,70,0,0
90059,-80,4,2,0,70,0,0
92059,-66.6666666666667,4,2,0,70,0,0
92934,-166.666666666667,4,2,0,70,0,0
94059,-66.6666666666667,4,2,0,70,0,0
100059,-400,4,2,0,70,0,0
101559,-200,4,2,0,70,0,0
102059,-66.6666666666667,4,2,0,70,0,0
108059,-100,4,2,0,70,0,0
108809,-200,4,2,0,70,0,0
114059,-100,4,2,0,70,0,0
130059,-400,4,2,0,70,0,0
132059,-100,4,2,0,70,0,0
138059,-50,4,2,0,85,0,0
142059,-100,4,2,0,70,0,0
146059,-200,4,2,0,70,0,0
146559,-100,4,2,0,70,0,0
147059,-66.6666666666667,4,2,0,70,0,0
147559,-50,4,2,0,70,0,0
148063,-66.6666666666667,4,2,0,85,0,1
154063,-100,4,2,0,70,0,0
154809,-200,4,2,0,70,0,0
156063,-66.6666666666667,4,2,0,85,0,1
162063,-400,4,2,0,70,0,0
163559,-200,4,2,0,70,0,0
164063,-66.6666666666667,4,2,0,85,0,1
170063,-100,4,2,0,70,0,0
170809,-300.0300030003,4,2,0,70,0,0
173813,-300.0300030003,4,2,0,70,0,1
173938,-300.0300030003,4,2,0,70,0,0

[Colours]
Combo1 : 55,88,221
Combo2 : 255,208,23

[HitObjects]
80,304,6063,6,0,L|208:304,1,128,10|0,0:3|0:0,0:0:0:0:
336,304,6563,2,0,L|336:232,1,64,8|0,0:0|0:0,0:0:0:0:
336,176,6813,1,8,0:3:0:0:
208,176,7063,2,0,L|208:48,1,128,2|0,0:0|0:0,0:0:0:0:
272,48,7438,2,0,L|272:192,1,128,2|0,0:0|0:0,0:0:0:0:
272,240,7813,1,0,0:0:0:0:
272,368,8063,6,0,L|400:368,1,128,4|0,0:3|0:0,0:0:0:0:
464,368,8438,2,0,B|464:304|464:304|400:304,1,128,4|0,0:3|0:0,0:0:0:0:
336,240,8813,2,0,L|336:304,1,64,8|0,0:3|0:0,0:0:0:0:
400,240,9063,6,0,L|400:112,1,128,2|8,0:0|0:0,0:0:0:0:
400,112,10063,6,0,L|256:112,1,128,4|0,0:3|0:0,0:0:0:0:
272,176,10438,2,0,L|144:176,1,128,2|0,0:0|0:0,0:0:0:0:
144,112,10813,2,0,L|144:40,1,64,2|0,0:0|0:0,0:0:0:0:
208,48,11063,2,0,L|208:240,1,192
208,304,11563,1,8,0:0:0:0:
80,304,11813,1,0,0:0:0:0:
80,176,12063,6,0,L|80:48,1,128,4|0,0:3|0:0,0:0:0:0:
144,176,12438,2,0,L|144:40,1,128,4|0,0:3|0:0,0:0:0:0:
208,176,12813,2,0,L|208:112,1,64,8|0,0:3|0:0,0:0:0:0:
208,48,13063,6,0,L|336:48,1,128,2|8,0:0|0:0,0:0:0:0:
336,48,14063,5,4,0:3:0:0:
336,176,14313,1,0,0:0:0:0:
464,176,14563,2,0,L|400:176,1,64,8|0,0:0|0:0,0:0:0:0:
336,176,14813,2,0,L|336:240,1,64,4|0,0:3|0:0,0:0:0:0:
272,304,15063,2,0,L|272:176,1,128,2|0,0:0|0:0,0:0:0:0:
272,112,15438,2,0,B|272:48|272:48|208:48,1,128,2|0,0:0|0:0,0:0:0:0:
208,112,15813,1,0,0:0:0:0:
144,112,15938,1,0,0:0:0:0:
144,176,16063,5,4,0:3:0:0:
80,176,16188,1,0,0:0:0:0:
16,176,16313,1,0,0:0:0:0:
16,240,16438,2,0,L|144:240,1,128,4|0,0:3|0:0,0:0:0:0:
208,304,16813,2,0,L|208:240,1,64,8|0,0:3|0:0,0:0:0:0:
272,240,17063,2,0,L|272:376,2,128,2|2|8,0:0|0:3|0:0,0:0:0:0:
464,304,18063,5,4,0:3:0:0:
464,368,18188,2,0,L|464:240,1,128,2|0,0:0|0:0,0:0:0:0:
464,176,18563,2,0,L|392:176,1,64,8|0,0:0|0:0,0:0:0:0:
336,240,18813,2,0,L|400:240,1,64,2|0,3:3|0:0,0:0:0:0:
400,112,19063,2,0,L|272:112,1,128,2|0,0:0|0:0,0:0:0:0:
208,112,19438,2,0,L|208:48,1,64,2|8,0:0|0:0,0:0:0:0:
272,48,19688,1,0,0:0:0:0:
272,112,19813,1,0,0:0:0:0:
272,176,19938,1,0,0:0:0:0:
272,240,20063,6,0,L|272:304,3,64,8|4|4|4,3:0|0:3|0:3|0:3,0:0:0:0:
272,304,22063,6,0,B|32:304|32:304|32:224,1,320,4|8,3:0|0:1,0:0:0:0:
32,64,22813,1,2,0:0:0:0:
112,64,22938,1,2,0:0:0:0:
112,144,23063,2,0,L|112:304,1,160,2|4,0:0|3:0,0:0:0:0:
112,384,23438,2,0,L|272:384,1,160,2|4,0:0|3:0,0:0:0:0:
352,384,23813,1,0,0:0:0:0:
352,304,23938,1,0,0:0:0:0:
352,224,24063,6,0,L|192:224,1,160,4|0,3:0|0:0,0:0:0:0:
192,304,24438,2,0,L|352:304,1,160,4|0,3:0|0:0,0:0:0:0:
432,304,24813,1,4,3:0:0:0:
432,144,25063,6,0,L|432:304,1,160,2|8,0:0|0:1,0:0:0:0:
512,144,26063,6,0,B|512:64|512:64|352:64|352:64|352:144,1,320,4|8,3:0|0:1,0:0:0:0:
352,224,26688,1,0,0:0:0:0:
272,224,26813,1,0,0:0:0:0:
272,144,26938,1,0,0:0:0:0:
192,144,27063,2,0,L|32:144,1,160,2|4,0:0|3:0,0:0:0:0:
32,64,27438,2,0,L|272:64,1,240,2|2,0:0|0:0,0:0:0:0:
272,224,28063,6,0,L|192:224,1,80,4|0,3:0|0:0,0:0:0:0:
112,224,28313,1,0,0:0:0:0:
112,304,28438,2,0,L|272:304,1,160,4|0,3:0|0:0,0:0:0:0:
352,304,28813,1,4,3:0:0:0:
512,304,29063,6,0,L|352:304,1,160,2|8,0:0|0:1,0:0:0:0:
352,304,30063,6,0,B|352:384|352:384|432:384|432:384|432:224,1,320,4|8,3:0|0:1,0:0:0:0:
432,64,30813,1,0,0:0:0:0:
352,64,30938,1,2,0:0:0:0:
272,64,31063,2,0,L|112:64,1,160,2|4,0:0|3:0,0:0:0:0:
112,144,31438,2,0,L|272:144,1,160,2|4,0:0|3:0,0:0:0:0:
352,144,31813,2,0,L|352:224,1,80,2|0,0:0|0:0,0:0:0:0:
432,224,32063,5,4,3:0:0:0:
272,224,32313,1,2,0:0:0:0:
272,304,32438,1,4,0:3:0:0:
32,304,32813,1,4,0:3:0:0:
32,144,33063,6,0,L|32:312,1,160,2|8,0:0|0:1,0:0:0:0:
32,304,34063,6,0,B|32:384|32:384|112:384|112:384|112:304|112:304|192:304,1,320,4|8,3:0|0:1,0:0:0:0:
352,304,34813,5,2,3:0:0:0:
352,224,34938,1,2,0:0:0:0:
272,224,35063,2,0,L|272:392,2,160,2|4|8,0:1|3:0|0:1,0:0:0:0:
272,64,35813,2,0,L|192:64,1,80,2|2,0:0|0:0,0:0:0:0:
112,64,36063,5,4,3:0:0:0:
112,144,36188,1,4,0:3:0:0:
32,144,36313,1,4,0:3:0:0:
32,224,36438,1,4,0:3:0:0:
112,224,36563,2,0,L|192:224,1,80,8|4,0:1|0:3,0:0:0:0:
272,224,36813,1,4,0:3:0:0:
352,224,36938,2,0,L|512:224,1,160,2|0,0:0|0:0,0:0:0:0:
448,88,37313,6,0,L|384:88,2,64,2|8|2,0:0|0:1|0:0,0:0:0:0:
384,0,38063,6,0,L|288:0,1,96.0000036621095,4|0,1:2|0:0,0:0:0:0:
192,0,38313,1,2,1:2:0:0:
96,0,38438,2,0,L|96:192,1,192.000007324219,2|0,1:2|0:0,0:0:0:0:
192,288,38813,2,0,L|288:288,1,96.0000036621095,4|0,3:0|0:0,0:0:0:0:
96,288,39063,2,0,L|0:288,1,96.0000036621095,2|0,1:0|0:0,0:0:0:0:
192,384,39313,1,0,1:0:0:0:
192,192,39563,1,8,1:0:0:0:
384,192,39813,2,0,L|384:304,1,96.0000036621095,4|0,3:0|0:0,0:0:0:0:
384,384,40063,6,0,L|384:288,1,96.0000036621095,4|0,1:3|0:0,0:0:0:0:
480,288,40313,1,2,1:2:0:0:
480,192,40438,2,0,B|480:96|480:96|384:96,1,192.000007324219,2|0,1:2|0:0,0:0:0:0:
288,192,40813,2,0,L|192:192,1,96.0000036621095,2|0,0:0|0:0,0:0:0:0:
192,96,41063,1,2,1:0:0:0:
192,288,41313,1,4,3:0:0:0:
0,288,41563,1,8,1:0:0:0:
0,192,41688,1,4,3:0:0:0:
0,96,41813,1,2,1:2:0:0:
96,192,42063,6,0,L|192:192,1,96.0000036621095,4|0,1:2|0:0,0:0:0:0:
288,192,42313,1,2,1:2:0:0:
288,288,42438,2,0,L|96:288,1,192.000007324219,2|0,1:2|0:0,0:0:0:0:
192,192,42813,2,0,L|288:192,1,96.0000036621095,4|0,3:0|0:0,0:0:0:0:
384,288,43063,1,2,1:0:0:0:
192,288,43313,1,0,1:2:0:0:
192,96,43563,1,8,1:0:0:0:
384,96,43813,1,4,3:0:0:0:
384,192,43938,1,8,3:0:0:0:
384,288,44063,6,0,L|384:352,2,64,8|8|8,1:3|1:0|1:3,0:0:0:0:
480,192,45563,2,0,L|384:192,1,96,4|0,1:2|0:0,0:0:0:0:
288,192,46063,5,4,1:2:0:0:
288,288,46188,1,0,0:0:0:0:
192,288,46313,1,2,1:2:0:0:
96,288,46438,2,0,L|96:96,1,192.000007324219,2|0,1:2|0:0,0:0:0:0:
0,192,46813,2,0,L|0:288,1,96.0000036621095,4|0,3:0|0:0,0:0:0:0:
96,384,47063,6,0,L|288:384,1,192.000007324219,2|0,1:0|0:0,0:0:0:0:
384,288,47438,2,0,L|384:384,1,96.0000036621095,2|8,1:2|1:0,0:0:0:0:
480,288,47688,1,2,0:0:0:0:
480,192,47813,2,0,L|480:96,1,96.0000036621095,4|4,3:0|3:0,0:0:0:0:
480,0,48063,6,0,B|384:0|384:0|384:96|384:96|288:96,1,288.000010986329,4|2,1:3|0:3,0:0:0:0:
96,0,48563,2,0,L|288:0,2,192.000007324219,8|2|2,1:0|0:0|1:0,0:0:0:0:
96,192,49313,1,4,3:0:0:0:
192,192,49438,1,2,1:2:0:0:
192,96,49563,1,8,1:0:0:0:
96,96,49688,1,4,3:0:0:0:
0,96,49813,1,2,0:0:0:0:
0,192,49938,1,2,0:0:0:0:
0,288,50063,6,0,L|192:288,1,192.000007324219,4|0,3:0|0:0,0:0:0:0:
288,288,50438,1,2,0:0:0:0:
192,384,50563,2,0,L|96:384,1,96.0000036621095,8|0,1:0|0:0,0:0:0:0:
384,192,50813,2,0,L|384:288,1,96.0000036621095,4|0,3:0|0:0,0:0:0:0:
288,384,51063,2,0,L|288:192,2,192.000007324219,2|2|8,1:0|1:2|1:0,0:0:0:0:
288,192,51813,1,2,0:0:0:0:
192,192,51938,1,4,0:3:0:0:
64,192,52063,6,0,L|192:192,1,128,10|0,1:3|0:0,0:0:0:0:
64,112,52438,2,0,L|192:112,1,128,10|0,1:3|0:0,0:0:0:0:
64,32,52813,2,0,L|256:32,1,192,10|8,1:3|0:1,0:0:0:0:
256,32,54063,6,0,L|256:96,1,64,8|0,3:0|0:0,0:0:0:0:
256,160,54313,1,2,0:0:0:0:
320,160,54438,1,2,0:0:0:0:
384,160,54563,1,8,0:1:0:0:
384,288,54813,1,4,0:3:0:0:
256,288,55063,2,0,L|128:288,1,128,2|2,0:3|0:3,0:0:0:0:
64,288,55438,2,0,L|64:224,1,64,2|8,0:0|0:1,0:0:0:0:
64,96,55813,1,2,0:0:0:0:
64,160,55938,1,2,0:0:0:0:
64,224,56063,6,0,L|64:288,1,64,4|0,0:3|0:0,0:0:0:0:
64,224,56438,2,0,L|64:288,1,64,2|8,0:0|0:1,0:0:0:0:
64,352,56688,1,2,0:0:0:0:
128,352,56813,2,0,L|256:352,1,128,4|2,0:3|0:3,0:0:0:0:
256,160,57563,1,8,0:1:0:0:
256,160,58063,5,8,3:3:0:0:
320,160,58188,1,2,0:0:0:0:
320,224,58313,1,2,0:0:0:0:
384,224,58438,1,2,0:0:0:0:
448,224,58563,2,0,L|448:160,1,64,8|0,0:1|0:0,0:0:0:0:
448,96,58813,1,4,0:3:0:0:
448,288,59063,2,0,L|320:288,1,128,2|0,3:3|0:0,0:0:0:0:
256,288,59438,1,2,0:3:0:0:
192,288,59563,6,2,L|144:288,1,48,2|0,3:1|0:0,0:1:0:0:
64,208,60063,6,0,L|192:208,1,128,6|0,0:3|0:0,0:0:0:0:
64,120,60438,2,0,L|192:120,1,128,6|0,0:3|0:0,0:0:0:0:
64,32,60813,2,0,L|192:32,1,128,6|0,0:3|0:0,0:0:0:0:
256,32,61563,1,2,0:0:0:0:
256,32,62063,5,10,3:0:0:0:
320,32,62188,1,0,0:0:0:0:
384,32,62313,1,2,0:0:0:0:
448,32,62438,1,0,0:0:0:0:
512,32,62563,2,0,L|512:160,1,128,8|8,0:1|0:3,0:0:0:0:
512,224,62938,1,0,0:0:0:0:
448,224,63063,2,0,L|448:96,1,128,2|2,0:0|0:3,0:0:0:0:
384,96,63438,2,0,B|384:288|384:288|448:288,1,256
448,352,64063,6,0,L|320:352,1,128,10|0,0:3|0:0,0:0:0:0:
256,352,64438,2,0,L|256:208,1,128,2|0,3:3|0:0,0:0:0:0:
192,224,64813,2,0,L|192:288,1,64,2|0,0:3|0:0,0:0:0:0:
192,160,65063,1,2,0:0:0:0:
192,32,65313,1,4,0:3:0:0:
64,32,65563,1,12,0:2:0:0:
64,32,66063,6,0,L|128:32,1,64,8|0,0:3|0:0,0:0:0:0:
192,32,66313,2,0,L|192:160,1,128,2|8,0:0|0:1,0:0:0:0:
64,160,66813,1,4,0:3:0:0:
64,224,66938,1,0,0:0:0:0:
64,288,67063,6,0,B|64:352|64:352|128:352,1,128,2|0,0:0|0:0,0:0:0:0:
192,352,67438,2,0,L|336:352,1,128,2|0,0:0|0:0,0:0:0:0:
384,352,67813,1,0,0:0:0:0:
384,288,67938,1,0,0:0:0:0:
384,224,68063,5,10,0:3:0:0:
256,224,68313,1,2,0:0:0:0:
192,224,68438,1,10,0:3:0:0:
192,32,68813,1,10,0:3:0:0:
64,32,69063,2,0,L|0:32,1,64,2|0,0:3|0:0,0:0:0:0:
0,96,69313,2,0,L|64:96,1,64,2|0,0:3|0:0,0:0:0:0:
128,96,69563,2,0,L|320:96,1,192,8|0,0:1|0:0,0:0:0:0:
384,96,70063,6,0,L|384:224,1,128,8|0,0:3|0:0,0:0:0:0:
384,288,70438,2,0,L|256:288,1,128,2|0,0:2|0:0,0:0:0:0:
192,352,70813,2,0,L|192:288,1,64,8|0,0:3|0:0,0:0:0:0:
256,352,71063,2,0,L|384:352,1,128,2|0,0:0|0:0,0:0:0:0:
448,288,71438,2,0,L|320:288,1,128,2|0,0:0|0:0,0:0:0:0:
256,288,71813,1,2,0:0:0:0:
256,160,72063,6,0,L|256:16,1,128,8|0,0:3|0:0,0:0:0:0:
192,160,72438,2,0,L|192:16,1,128,2|0,0:0|0:0,0:0:0:0:
192,224,72813,1,2,0:0:0:0:
64,224,73063,1,2,0:0:0:0:
192,224,73313,2,0,L|352:224,1,128,8|8,0:3|0:1,0:0:0:0:
320,224,73938,5,2,0:0:0:0:
384,224,74063,1,4,0:3:0:0:
384,160,74188,1,0,0:0:0:0:
448,160,74313,2,0,L|448:96,1,64
448,32,74563,2,0,L|384:32,1,64,8|0,0:1|0:0,0:0:0:0:
320,32,74813,1,2,3:1:0:0:
256,32,74938,2,0,L|256:160,1,128,2|2,0:3|0:3,0:0:0:0:
256,224,75313,1,2,1:3:0:0:
256,352,75563,2,0,L|256:224,1,128,12|0,0:2|0:0,0:0:0:0:
192,224,75938,5,2,0:0:0:0:
128,224,76063,1,8,0:3:0:0:
0,224,76313,1,2,0:3:0:0:
0,160,76438,2,0,L|128:160,1,128,8|0,0:3|0:0,0:0:0:0:
128,96,76813,1,8,0:3:0:0:
256,96,77063,1,2,0:0:0:0:
432,144,77313,6,0,L|432:80,2,64,2|2|2,0:0|0:0|0:0,0:0:0:0:
432,144,78063,6,0,B|432:224|432:224|352:224|352:224|352:384,1,320,8|8,3:0|0:1,0:0:0:0:
192,384,78813,1,2,0:0:0:0:
112,384,78938,1,2,3:0:0:0:
112,304,79063,2,0,L|112:224,1,80,2|0,0:0|0:0,0:0:0:0:
192,304,79313,1,8,0:3:0:0:
192,224,79438,2,0,L|192:64,1,160,2|8,0:0|0:3,0:0:0:0:
272,64,79813,5,2,0:0:0:0:
272,144,79938,1,2,0:0:0:0:
352,144,80063,1,10,0:3:0:0:
512,144,80313,1,2,0:0:0:0:
512,224,80438,2,0,L|352:224,1,160,8|0,0:3|0:0,0:0:0:0:
352,304,80813,2,0,L|512:304,2,160,8|2|0,0:3|0:0|0:0,0:0:0:0:
352,144,81563,1,8,0:1:0:0:
192,144,81813,1,2,0:0:0:0:
192,304,82063,6,0,B|112:304|112:304|112:224|112:224|24:224,1,240,8|0,3:0|0:0,0:0:0:0:
32,304,82563,1,8,0:1:0:0:
32,144,82813,1,2,0:0:0:0:
32,64,82938,1,2,3:0:0:0:
112,64,83063,2,0,L|272:64,1,160,2|10,0:0|0:3,0:0:0:0:
112,144,83438,2,0,L|272:144,1,160,2|8,0:0|0:3,0:0:0:0:
272,224,83813,2,0,L|272:304,1,80,2|0,3:0|0:0,0:0:0:0:
272,384,84063,5,10,0:3:0:0:
432,384,84313,1,2,0:0:0:0:
512,384,84438,1,8,0:3:0:0:
512,144,84813,1,8,0:3:0:0:
384,144,85063,6,0,L|512:144,1,128,2|8,0:0|0:1,0:0:0:0:
512,144,86063,6,0,B|512:224|512:224|432:224|432:224|432:384,1,320,8|8,3:0|0:1,0:0:0:0:
272,384,86813,1,2,0:0:0:0:
272,304,86938,1,2,3:0:0:0:
352,304,87063,2,0,L|512:304,2,160,2|8|8,0:0|0:3|0:1,0:0:0:0:
352,144,87813,2,0,L|272:144,1,80,2|2,0:3|0:3,0:0:0:0:
192,144,88063,5,8,0:3:0:0:
192,304,88313,1,2,0:0:0:0:
272,304,88438,1,8,0:3:0:0:
272,64,88813,1,8,0:3:0:0:
400,64,89063,6,0,L|272:64,1,128,2|8,0:0|0:1,0:0:0:0:
272,64,90063,6,0,B|272:144|272:144|432:144|432:144|432:224,1,320,10|8,3:0|0:1,0:0:0:0:
272,224,90813,1,2,0:0:0:0:
272,304,90938,1,2,3:0:0:0:
192,304,91063,2,0,L|192:144,1,160,4|8,0:3|0:3,0:0:0:0:
32,144,91563,2,0,L|32:224,1,80,8|8,0:1|0:3,0:0:0:0:
32,288,91813,1,2,3:2:0:0:
32,352,91938,1,2,3:2:0:0:
128,352,92063,5,10,3:0:0:0:
224,352,92188,1,8,0:3:0:0:
224,256,92313,1,8,0:3:0:0:
320,256,92438,1,8,0:3:0:0:
320,352,92563,2,0,L|512:352,1,192.000007324219,8|0,0:1|0:0,0:0:0:0:
512,256,92938,6,0,L|320:256,1,191.999994140625,8|4,0:3|0:2,0:0:0:0:
320,256,94063,6,0,L|320:160,1,96.0000036621095,10|0,1:3|0:0,0:0:0:0:
320,64,94313,1,2,1:2:0:0:
416,64,94438,2,0,L|416:256,1,192.000007324219,2|0,0:0|0:0,0:0:0:0:
224,160,94813,2,0,L|224:64,1,96.0000036621095,4|0,3:0|0:0,0:0:0:0:
224,256,95063,1,2,1:0:0:0:
32,256,95313,1,0,1:0:0:0:
32,64,95563,2,0,L|32:160,1,96.0000036621095,8|0,1:0|0:0,0:0:0:0:
128,160,95813,2,0,L|128:64,1,96.0000036621095,8|0,3:0|0:3,0:0:0:0:
224,256,96063,6,0,L|128:256,1,96.0000036621095,8|0,3:0|0:0,0:0:0:0:
32,256,96312,1,2,1:2:0:0:
32,352,96438,2,0,B|224:352,1,192.000007324219,2|0,0:0|0:0,0:0:0:0:
416,352,96813,2,0,L|320:352,1,96.0000036621095,2|0,1:2|0:0,0:0:0:0:
224,352,97063,2,0,L|224:160,1,192.000007324219,2|8,1:0|3:0,0:0:0:0:
416,160,97563,1,8,1:0:0:0:
416,256,97688,1,8,3:0:0:0:
320,256,97813,2,0,L|320:160,1,96.0000036621095,2|0,1:2|0:0,0:0:0:0:
320,64,98063,6,0,L|416:64,1,96.0000036621095,10|0,3:0|0:0,0:0:0:0:
512,64,98313,1,2,1:2:0:0:
512,160,98438,2,0,L|512:360,1,192.000007324219,2|0,3:0|0:0,0:0:0:0:
320,160,98813,2,0,L|416:160,1,96.0000036621095,8|0,3:0|0:0,0:0:0:0:
416,256,99063,2,0,L|224:256,1,192.000007324219,2|2,1:0|1:3,0:0:0:0:
224,64,99563,1,8,1:0:0:0:
32,64,99813,1,8,3:0:0:0:
32,160,99938,1,8,3:0:0:0:
32,256,100063,6,0,L|32:320,2,64,8|8|10,3:0|1:0|0:3,0:0:0:0:
128,352,101563,2,0,L|128:256,1,96,12|0,1:2|0:0,0:0:0:0:
128,160,102063,5,10,1:3:0:0:
224,160,102188,1,0,0:0:0:0:
224,256,102313,1,2,1:2:0:0:
320,256,102438,2,0,L|320:64,1,192.000007324219,2|0,1:2|0:0,0:0:0:0:
416,160,102813,2,0,L|512:160,1,96.0000036621095,4|0,3:0|0:0,0:0:0:0:
320,256,103063,2,0,L|128:256,1,192.000007324219,2|0,1:0|0:0,0:0:0:0:
128,352,103438,1,2,1:2:0:0:
224,352,103563,2,0,L|320:352,1,96.0000036621095,8|0,1:0|0:2,1:2:0:0:
416,352,103813,1,8,3:0:0:0:
512,352,103938,1,8,0:3:0:0:
512,256,104063,6,0,L|512:64,1,192.000007324219,10|2,1:3|1:2,0:0:0:0:
416,64,104438,1,2,1:3:0:0:
320,64,104563,2,0,L|320:160,1,96.0000036621095,8|0,1:0|0:0,0:0:0:0:
416,256,104813,2,0,L|416:160,1,96.0000036621095,2|0,1:2|0:0,0:0:0:0:
320,160,105063,2,0,L|128:160,1,192.000007324219,2|8,1:0|3:0,0:0:0:0:
128,352,105563,2,0,L|224:352,1,96.0000036621095,8|8,1:0|3:0,0:0:0:0:
224,256,105813,1,2,1:2:0:0:
128,256,105938,1,2,1:2:0:0:
128,352,106063,6,0,L|320:352,1,192.000007324219,10|0,3:0|0:0,0:0:0:0:
320,160,106438,2,0,L|320:352,1,192.000007324219,2|0,1:2|0:0,0:0:0:0:
224,256,106813,2,0,L|224:160,1,96.0000036621095,4|0,3:0|0:0,0:0:0:0:
416,64,107063,2,0,L|320:64,1,96.0000036621095,2|0,1:0|0:0,0:0:0:0:
224,64,107313,5,2,1:2:0:0:
128,64,107438,1,2,1:2:0:0:
32,64,107563,1,10,1:2:0:0:
32,160,107688,2,0,B|128:160|128:160|128:64,1,192.000007324219,2|0,1:2|0:0,0:0:0:0:
224,64,108063,6,0,L|224:192,1,128,10|0,1:3|0:0,0:0:0:0:
304,64,108438,2,0,L|304:192,1,128,10|0,1:3|0:0,0:0:0:0:
384,64,108813,2,0,L|384:256,1,192,10|2,1:3|0:1,0:0:0:0:
256,192,114063,6,0,L|408:192,1,128,6|4,1:0|0:3,0:0:0:0:
192,192,114563,2,0,B|192:128|192:128|256:128|256:128|256:64,2,192,8|2|10,0:1|0:3|0:3,0:0:0:0:
192,320,115563,1,8,0:0:0:0:
192,320,116063,5,8,0:3:0:0:
64,320,116313,1,8,0:3:0:0:
64,192,116563,1,8,0:1:0:0:
64,128,116688,1,4,0:3:0:0:
192,128,116938,2,0,B|192:192|192:192|328:192,1,192,2|2,0:3|3:0,0:0:0:0:
448,192,117563,1,8,0:2:0:0:
448,64,117813,2,0,L|448:136,1,64,4|0,1:0|0:0,0:0:0:0:
448,192,118063,6,0,L|448:264,1,64,4|0,1:0|0:0,0:0:0:0:
448,320,118313,1,4,0:3:0:0:
320,320,118563,1,8,0:1:0:0:
320,256,118688,1,4,0:3:0:0:
192,256,118938,2,0,L|64:256,2,128,2|2|2,0:3|0:3|0:3,0:0:0:0:
256,256,119563,1,8,0:1:0:0:
256,256,120063,6,0,L|256:128,1,128,10|0,3:0|0:0,0:0:0:0:
320,256,120438,2,0,L|320:128,1,128,10|0,3:0|0:0,0:0:0:0:
384,256,120813,2,0,L|384:192,1,64,10|0,3:0|0:0,0:0:0:0:
384,128,121063,5,2,1:3:0:0:
384,64,121188,1,2,1:3:0:0:
320,64,121313,1,2,1:3:0:0:
256,64,121438,1,2,1:3:0:0:
256,128,121563,1,2,1:0:0:0:
256,192,121688,1,2,1:3:0:0:
320,192,121813,1,2,1:3:0:0:
320,128,121938,1,2,1:3:0:0:
256,128,122063,6,0,L|192:128,1,64,6|0,1:0|0:0,0:0:0:0:
64,192,122313,2,0,L|128:192,1,64,8|0,0:3|0:0,0:0:0:0:
192,192,122563,1,8,0:1:0:0:
192,256,122688,2,0,B|192:320|192:320|256:320,2,128,4|2|2,0:3|0:3|0:3,0:0:0:0:
192,192,123313,2,0,L|192:128,1,64,4|0,0:3|0:0,0:0:0:0:
192,64,123563,1,8,0:1:0:0:
64,64,123813,1,2,0:0:0:0:
64,64,124063,6,0,L|64:128,1,64,10|0,3:0|0:0,0:0:0:0:
0,128,124313,2,0,L|0:192,1,64,8|0,3:0|0:0,0:0:0:0:
64,192,124563,2,0,L|64:328,1,128,8|0,0:1|0:0,0:0:0:0:
192,320,125063,6,0,B|256:320|256:320|320:320,1,128,2|4,0:0|0:3,0:0:0:0:
384,320,125438,1,0,0:0:0:0:
384,256,125563,2,0,L|288:256,2,85.3333333333333,0|0|0,1:0|1:0|1:0,0:0:0:0:
448,192,126063,6,0,L|448:120,1,64,10|0,1:3|0:0,0:0:0:0:
448,64,126313,2,0,L|448:-8,1,64,8|0,3:3|0:0,0:0:0:0:
384,0,126563,1,8,0:1:0:0:
320,0,126688,2,0,L|192:0,2,128,4|6|6,0:3|1:3|1:3,0:0:0:0:
320,64,127313,2,0,L|320:128,1,64,2|0,1:2|0:0,0:0:0:0:
320,192,127563,1,8,0:1:0:0:
256,192,127688,1,2,0:0:0:0:
192,192,127813,1,2,0:0:0:0:
192,128,127938,1,2,0:0:0:0:
256,128,128063,6,0,L|384:128,1,128,10|4,3:0|1:3,0:0:0:0:
192,192,128438,2,0,L|384:192,1,192,2|4,1:3|1:3,0:0:0:0:
128,256,128938,2,2,L|328:256,1,192,2|4,1:3|1:3,0:1:0:0:
64,320,129438,2,0,L|264:320,1,192,2|2,1:3|1:2,0:0:0:0:
512,320,130063,6,0,L|416:320,2,96,12|2|8,1:2|0:0|0:1,0:0:0:0:
512,320,132063,5,10,1:3:0:0:
512,256,132188,1,2,0:3:0:0:
512,192,132313,2,0,L|448:192,1,64,2|0,0:3|0:0,0:0:0:0:
384,192,132563,1,8,0:1:0:0:
384,256,132688,2,0,L|256:256,2,128,8|2|2,0:3|0:3|0:3,0:0:0:0:
384,192,133313,2,0,L|384:120,1,64,2|0,3:1|0:0,0:0:0:0:
384,64,133563,1,8,0:1:0:0:
384,64,134063,5,10,3:0:0:0:
320,64,134188,1,2,0:3:0:0:
256,64,134313,1,2,0:3:0:0:
256,128,134438,1,10,3:0:0:0:
192,128,134563,1,8,1:0:0:0:
128,128,134688,1,2,0:3:0:0:
128,64,134813,1,10,3:0:0:0:
64,64,134938,1,2,0:3:0:0:
0,64,135063,1,2,0:3:0:0:
0,128,135188,1,2,0:3:0:0:
64,128,135313,1,2,0:3:0:0:
128,128,135438,1,2,0:3:0:0:
128,64,135563,1,8,1:0:0:0:
192,64,135688,1,2,0:3:0:0:
256,64,135813,1,2,0:3:0:0:
256,128,135938,1,2,0:3:0:0:
256,192,136063,6,2,B|256:256|256:256|384:256|384:256|384:384|384:384|320:384,1,384,2|4,1:0|0:3,0:1:0:0:
128,384,137063,6,0,L|-8:384,1,128,4|0,1:0|0:0,0:0:0:0:
128,288,137563,2,0,L|0:288,1,128,4|0,1:0|0:0,0:0:0:0:
0,192,138063,6,0,L|512:192,2,512,6|6|6,1:0|1:0|1:0,0:0:0:0:
256,0,139563,5,2,0:0:0:0:
256,192,139813,1,2,0:0:0:0:
256,384,140063,1,4,1:0:0:0:
0,128,142063,5,4,1:0:0:0:
512,128,144063,5,4,1:3:0:0:
384,128,144313,1,6,0:3:0:0:
384,0,144563,1,4,1:3:0:0:
256,0,144813,1,6,0:3:0:0:
256,128,145063,1,4,1:3:0:0:
256,256,145313,1,6,0:3:0:0:
128,256,145563,1,4,1:3:0:0:
128,128,145813,1,6,0:3:0:0:
0,128,146063,6,0,L|0:192,1,64,0|0,1:0|0:0,0:0:0:0:
128,128,146563,2,0,L|128:264,1,128,4|0,1:0|0:0,0:0:0:0:
256,128,147063,2,0,L|256:320,1,192.000007324219,6|0,0:1|0:0,0:0:0:0:
384,128,147563,2,0,L|384:384,1,256,6|0,1:0|0:0,0:0:0:0:
384,384,148063,6,0,L|480:384,1,96.0000036621095,6|0,1:0|0:0,0:0:0:0:
288,288,148313,1,2,1:2:0:0:
192,288,148438,2,0,L|192:88,1,192.000007324219,2|0,1:2|0:0,0:0:0:0:
192,0,148813,5,4,3:0:0:0:
96,0,148938,1,2,0:0:0:0:
96,96,149063,2,0,L|288:96,1,192.000007324219,2|0,1:0|0:0,0:0:0:0:
384,96,149438,2,0,L|384:0,1,96.0000036621095,2|8,1:2|1:0,0:0:0:0:
384,192,149688,1,0,0:0:0:0:
384,288,149813,2,0,L|384:384,1,96.0000036621095,4|4,1:3|3:0,0:0:0:0:
480,288,150063,6,0,L|288:288,1,192.000007324219,8|2,1:3|1:2,0:0:0:0:
192,288,150438,2,0,L|192:96,1,192.000007324219,2|0,0:0|0:0,0:0:0:0:
96,96,150813,1,2,1:2:0:0:
0,96,150938,1,2,1:2:0:0:
0,192,151063,2,0,L|192:192,1,192.000007324219,2|4,1:0|3:0,0:0:0:0:
384,192,151563,2,0,L|384:288,1,96.0000036621095,8|4,1:0|3:0,0:0:0:0:
288,288,151813,1,2,1:2:0:0:
288,384,151938,1,2,1:2:0:0:
192,384,152063,6,0,L|192:280,1,96.0000036621095,8|0,1:3|0:0,0:0:0:0:
192,192,152313,1,2,1:2:0:0:
288,192,152438,2,0,L|288:384,1,192.000007324219,2|0,1:2|0:0,0:0:0:0:
192,192,152813,2,0,L|192:96,1,96.0000036621095,8|0,3:0|0:0,0:0:0:0:
288,96,153063,2,0,L|384:96,1,96.0000036621095,2|0,1:0|0:0,0:0:0:0:
96,96,153313,1,2,1:0:0:0:
0,96,153438,1,2,1:2:0:0:
0,0,153563,2,0,L|96:0,1,96.0000036621095,8|2,1:0|1:2,0:0:0:0:
0,192,153813,2,2,L|0:96,1,96.0000036621095,2|2,1:2|1:2,1:2:0:0:
96,96,154063,6,0,L|224:96,1,128,10|0,1:3|0:0,0:0:0:0:
96,176,154438,2,0,L|224:176,1,128,10|0,1:3|0:0,0:0:0:0:
96,256,154813,2,0,L|296:256,1,192,10|8,1:3|0:1,0:0:0:0:
288,256,156063,5,6,1:0:0:0:
192,256,156188,1,0,0:0:0:0:
192,352,156313,1,2,1:2:0:0:
288,352,156438,2,0,L|480:352,1,192.000007324219,2|0,1:2|0:0,0:0:0:0:
384,256,156813,2,0,L|384:160,1,96.0000036621095,4|0,3:0|0:0,0:0:0:0:
480,64,157063,2,0,L|480:256,2,192.000007324219,2|2|8,1:0|1:2|1:0,0:0:0:0:
288,64,157813,1,4,1:3:0:0:
192,64,157938,1,4,3:0:0:0:
192,160,158063,6,0,L|296:160,1,96.0000036621095,8|0,1:3|0:0,0:0:0:0:
96,64,158313,1,2,1:2:0:0:
96,160,158438,2,0,L|96:352,1,192.000007324219,2|0,1:2|0:0,0:0:0:0:
192,256,158813,2,0,L|192:160,1,96.0000036621095,2|0,1:2|0:0,0:0:0:0:
192,64,159063,1,2,1:0:0:0:
384,64,159313,2,0,L|480:64,1,96.0000036621095,8|0,3:0|0:0,0:0:0:0:
480,160,159563,1,8,1:0:0:0:
384,160,159688,1,8,3:0:0:0:
288,160,159813,2,0,L|192:160,1,96.0000036621095,2|0,1:2|0:0,0:0:0:0:
96,64,160063,6,0,L|96:160,1,96.0000036621095,8|0,1:3|0:0,0:0:0:0:
192,64,160313,1,2,1:2:0:0:
192,160,160438,2,0,L|192:352,1,192.000007324219,2|0,1:2|0:0,0:0:0:0:
288,352,160813,2,0,L|192:352,1,96.0000036621095,8|0,3:0|0:0,0:0:0:0:
96,352,161063,1,2,1:2:0:0:
96,160,161313,1,2,1:2:0:0:
288,160,161563,1,8,1:0:0:0:
480,160,161813,1,8,1:3:0:0:
480,256,161938,1,8,0:3:0:0:
384,256,162063,6,0,L|320:256,2,64,6|4|4,1:0|1:0|1:0,0:0:0:0:
480,160,163563,2,0,L|384:160,1,96,2|0,1:0|0:0,0:0:0:0:
288,160,164063,5,12,1:2:0:0:
288,64,164188,1,0,0:0:0:0:
384,64,164313,1,2,1:2:0:0:
384,160,164438,2,0,L|384:256,1,96.0000036621095,2|8,1:2|1:0,0:0:0:0:
288,256,164688,1,2,1:2:0:0:
192,256,164813,2,0,L|192:160,1,96.0000036621095,4|0,3:0|0:0,0:0:0:0:
192,352,165063,2,0,L|0:352,1,192.000007324219,2|2,1:0|1:2,0:0:0:0:
96,256,165438,2,0,L|192:256,1,96.0000036621095,0|8,0:0|1:0,0:0:0:0:
384,352,165688,1,2,1:2:0:0:
288,352,165813,2,0,L|192:352,1,96.0000036621095,8|8,1:3|0:3,0:0:0:0:
384,256,166063,6,0,L|480:256,1,96.0000036621095,8|0,1:3|0:0,0:0:0:0:
288,256,166313,1,2,1:2:0:0:
288,160,166438,2,0,L|480:160,1,192.000007324219,2|0,1:2|0:0,0:0:0:0:
480,64,166813,2,0,L|384:64,1,96.0000036621095,2|2,1:2|1:2,0:0:0:0:
192,64,167063,2,0,L|384:64,1,192.000007324219,2|8,1:0|3:0,0:0:0:0:
96,160,167563,2,0,L|96:64,1,96.0000036621095,8|8,1:0|3:0,0:0:0:0:
0,160,167813,1,2,1:2:0:0:
0,256,167938,1,2,1:2:0:0:
96,256,168063,6,0,L|296:256,1,192.000007324219,4|0,1:2|0:0,0:0:0:0:
96,352,168438,2,0,L|288:352,1,192.000007324219,4|0,1:2|0:0,0:0:0:0:
96,160,168813,2,0,L|296:160,2,192.000007324219,4|2|2,1:2|1:0|1:2,0:0:0:0:
384,160,169563,2,0,L|384:256,1,96.0000036621095,8|0,1:0|0:0,0:0:0:0:
288,64,169813,1,2,1:2:0:0:
288,160,169938,1,2,1:2:0:0:
288,256,170063,6,0,L|288:384,1,128,10|0,1:3|0:0,0:0:0:0:
208,256,170438,2,0,L|208:384,1,128,10|0,1:3|0:0,0:0:0:0:
128,256,170813,2,0,L|128:384,1,128,10|2,1:3|0:1,0:0:0:0:
256,192,171688,12,6,173813,1:0:0:0:
