osu file format v14

[General]
AudioFilename: audio.ogg
AudioLeadIn: 0
PreviewTime: 113802
Countdown: 0
SampleSet: Soft
StackLeniency: 0.2
Mode: 0
LetterboxInBreaks: 0
WidescreenStoryboard: 1

[Editor]
Bookmarks: 1764,16755,25322,42456,59590,72440,79936,81007,98140,115274,128124,136691,145258,153825,158108,166675,170959,175242,179525,183809,194517
DistanceSpacing: 1
BeatDivisor: 4
GridSize: 16
TimelineZoom: 1.8

[Metadata]
Title:I Want You Back
TitleUnicode:I Want You Back
Artist:*NSYNC
ArtistUnicode:*NSYNC
Creator:Aranel
Version:Bloxi's Normal
Source:
Tags:Lance Bass Justin Timberlake Joey Fatone Chris Kirkpatrick JC Chasez teen-pop dance-pop pop english 'N Sync flux3on fluxie bloxi boy band boyband
BeatmapID:3557184
BeatmapSetID:1737620

[Difficulty]
HPDrainRate:3
CircleSize:4.5
OverallDifficulty:5
ApproachRate:5
SliderMultiplier:0.96
SliderTickRate:1

[Events]
//Background and Video events
0,0,"backsync (1).jpg",0,0
//Break Periods
2,72644,79811
2,128328,135495
2,145462,152629
//Storyboard Layer 0 (Background)
//Storyboard Layer 1 (Fail)
//Storyboard Layer 2 (Pass)
//Storyboard Layer 3 (Foreground)
//Storyboard Layer 4 (Overlay)
//Storyboard Sound Samples

[TimingPoints]
1768,535.427449580582,4,2,1,70,1,0
12476,-100,4,2,1,20,0,0
12878,-100,4,2,1,5,0,0
13011,-100,4,2,1,30,0,0
13413,-100,4,2,1,5,0,0
13547,-100,4,2,1,40,0,0
13948,-100,4,2,1,5,0,0
14082,-100,4,2,1,50,0,0
14484,-100,4,2,1,5,0,0
14618,-100,4,2,1,60,0,0
15019,-100,4,2,1,5,0,0
15153,-100,4,2,1,60,0,0
16759,-100,4,2,1,70,0,0
20708,-100,4,2,1,5,0,0
20775,-100,4,2,1,70,0,0
24992,-100,4,2,1,5,0,0
25059,-100,4,2,1,70,0,0
25326,-100,4,2,1,60,0,0
29476,-100,4,2,1,5,0,0
29543,-100,4,2,1,60,0,0
42326,-100,4,2,1,5,0,0
42460,-100,4,2,1,60,0,0
46610,-100,4,2,1,5,0,0
46744,-100,4,2,1,60,0,0
55176,-100,4,2,1,5,0,0
55310,-100,4,2,1,60,0,0
57452,-100,4,2,1,60,0,0
59594,-100,4,2,1,90,0,1
72310,-100,4,2,1,5,0,1
72444,-100,4,2,1,75,0,0
79940,-100,4,2,1,75,0,0
113136,-100,4,2,1,75,0,0
115278,-100,4,2,1,90,0,1
127994,-100,4,2,1,5,0,1
128128,-100,4,2,1,75,0,0
145262,-100,4,2,1,75,0,0
158112,-100,4,2,1,85,0,1
170963,-100,4,2,1,90,0,1
183813,-100,4,2,1,80,0,1
194521,-100,4,2,1,75,0,0

[Colours]
Combo1 : 121,129,166
Combo2 : 216,216,216
Combo3 : 4,52,140
Combo4 : 128,128,128

[HitObjects]
304,352,16759,6,0,L|352:352,1,48,6|0,3:2|0:0,0:0:0:0:
400,352,17295,1,8,1:0:0:0:
448,352,17563,1,2,3:0:0:0:
496,352,17830,2,0,L|496:160,1,192,2|0,3:0|3:0,0:0:0:0:
400,160,19437,1,8,1:0:0:0:
304,160,19972,1,0,3:0:0:0:
256,160,20240,1,2,3:3:0:0:
208,160,20507,1,8,1:0:0:0:
112,160,21043,6,0,L|64:160,1,48,2|0,3:0|0:0,0:0:0:0:
16,160,21579,1,8,1:0:0:0:
16,112,21847,1,2,3:0:0:0:
16,64,22114,2,0,L|112:64,1,96,2|8,3:0|1:0,0:0:0:0:
208,64,23185,1,0,3:0:0:0:
304,64,23721,1,8,1:0:0:0:
400,64,24256,1,0,3:0:0:0:
448,64,24524,1,2,3:0:0:0:
496,64,24791,2,0,L|496:112,1,48,10|2,1:0|0:0,0:0:0:0:
496,160,25326,6,0,L|400:160,1,96,6|8,3:1|1:0,0:0:0:0:
304,160,26397,2,0,L|304:224,1,48,2|2,3:0|0:0,0:0:0:0:
304,256,26933,2,0,L|304:320,1,48,10|2,1:0|3:2,0:0:0:0:
304,352,27468,2,0,L|208:352,1,96,2|10,3:0|1:0,0:0:0:0:
112,352,28539,1,2,3:0:0:0:
112,304,28807,1,2,3:0:0:0:
112,256,29074,2,0,L|16:256,1,96,10|2,1:0|3:0,0:0:0:0:
16,160,30145,5,8,1:0:0:0:
16,64,30681,2,0,L|112:64,1,96,2|10,3:0|1:0,0:0:0:0:
160,64,31484,1,2,3:2:0:0:
208,64,31751,2,0,L|256:64,1,48,2|0,3:0|0:0,0:0:0:0:
256,112,32287,1,10,1:0:0:0:
256,208,32822,2,0,L|256:304,1,96,2|10,3:0|1:0,0:0:0:0:
304,304,33625,2,0,L|448:304,1,144,2|8,0:0|1:0,0:0:0:0:
448,208,34964,6,0,L|448:144,1,48,2|2,3:0|0:0,0:0:0:0:
448,112,35499,1,10,1:0:0:0:
448,64,35767,2,0,L|304:64,1,144,2|10,3:2|1:0,0:0:0:0:
256,64,36838,2,0,L|208:64,1,48,2|0,3:2|3:0,0:0:0:0:
160,64,37373,1,2,3:0:0:0:
112,64,37641,1,10,1:0:0:0:
16,64,38177,6,0,L|16:272,2,192,2|2|2,3:0|3:0|3:0,0:0:0:0:
112,64,40854,1,8,1:0:0:0:
112,160,41389,2,0,L|112:272,2,96,2|8|6,3:0|1:0|3:2,0:0:0:0:
208,160,42995,1,8,1:0:0:0:
208,256,43531,6,0,L|208:304,1,48,2|2,3:0|0:0,0:0:0:0:
208,352,44066,2,0,L|256:352,1,48,10|2,1:0|3:2,0:0:0:0:
304,352,44602,2,0,L|416:352,2,96,2|10|2,3:0|1:0|3:0,0:0:0:0:
304,304,45940,1,2,3:0:0:0:
304,256,46208,1,10,1:0:0:0:
304,160,46743,6,0,L|400:160,1,96,2|8,3:0|1:0,0:0:0:0:
448,160,47547,1,2,3:2:0:0:
496,160,47814,2,0,L|496:112,1,48,2|2,3:0|0:0,0:0:0:0:
496,64,48350,2,0,L|432:64,1,48,10|2,1:0|3:2,0:0:0:0:
400,64,48885,2,0,L|288:64,1,96,2|10,3:0|1:0,0:0:0:0:
208,64,49956,1,2,3:0:0:0:
160,64,50224,1,2,3:0:0:0:
112,64,50491,2,0,L|48:64,1,48,10|2,1:0|0:0,0:0:0:0:
16,64,51027,6,0,L|16:208,1,144,2|0,3:0|3:2,0:0:0:0:
16,256,52098,2,0,L|16:320,1,48,2|2,3:0|0:0,0:0:0:0:
16,352,52633,1,8,1:0:0:0:
64,352,52901,2,0,L|160:352,1,96,2|2,3:2|0:0,0:0:0:0:
256,352,53972,2,0,L|256:256,2,96,2|2|2,3:2|3:0|0:0,0:0:0:0:
304,352,55310,6,0,L|400:352,1,96,2|8,3:0|1:0,0:0:0:0:
448,352,56113,1,2,3:2:0:0:
496,352,56381,2,0,L|496:256,1,96,2|8,3:0|1:0,0:0:0:0:
400,256,57452,2,0,L|304:256,1,96,2|8,3:0|1:0,0:0:0:0:
256,256,58255,1,2,3:2:0:0:
256,208,58523,2,0,L|256:160,1,48,6|2,3:2|3:0,0:0:0:0:
256,112,59058,2,0,L|192:112,1,48,10|10,1:0|0:3,0:0:0:0:
160,112,59594,6,0,L|160:208,2,96,4|10|0,3:2|1:0|3:0,0:0:0:0:
160,64,60932,1,2,0:0:0:0:
160,16,61200,1,8,1:0:0:0:
256,16,61735,2,0,L|368:16,1,96,0|8,3:0|1:0,0:0:0:0:
400,16,62539,1,2,3:2:0:0:
448,16,62806,6,0,L|496:16,1,48,2|2,3:0|3:0,0:0:0:0:
496,64,63342,2,0,L|496:112,1,48,10|2,1:0|3:2,0:0:0:0:
496,160,63877,2,0,L|496:256,2,96,6|10|0,3:2|1:0|3:0,0:0:0:0:
448,160,65216,1,0,0:0:0:0:
400,160,65483,2,0,L|352:160,1,48,10|2,1:0|3:2,0:0:0:0:
304,160,66019,1,6,3:0:0:0:
208,160,66554,1,8,1:0:0:0:
160,160,66822,1,6,0:3:0:0:
112,160,67090,6,0,L|112:224,1,48,2|6,3:0|3:3,0:0:0:0:
112,256,67625,2,0,L|48:256,1,48,10|2,1:0|3:3,0:0:0:0:
16,256,68161,2,0,L|16:352,2,96,6|10|0,3:2|1:0|3:0,0:0:0:0:
16,208,69499,1,4,0:3:0:0:
16,160,69767,2,0,L|16:112,1,48,10|2,1:0|3:3,0:0:0:0:
16,64,70302,5,6,3:2:0:0:
256,64,71373,1,6,3:3:0:0:
496,64,72444,1,6,3:2:0:0:
112,304,81011,6,0,L|208:304,1,96,4|8,3:1|1:0,0:0:0:0:
304,304,82082,1,2,3:0:0:0:
352,304,82349,1,2,0:0:0:0:
400,304,82617,2,0,L|400:208,1,96,10|6,1:0|3:2,0:0:0:0:
400,112,83688,1,10,1:0:0:0:
304,112,84223,1,2,3:0:0:0:
256,112,84491,1,2,3:0:0:0:
208,112,84759,1,10,1:0:0:0:
112,112,85294,6,0,L|16:112,1,96,6|8,3:2|1:0,0:0:0:0:
16,64,86097,1,2,3:2:0:0:
16,16,86365,2,0,L|64:16,1,48,2|2,3:0|0:0,0:0:0:0:
112,16,86900,2,0,L|160:16,1,48,10|2,1:0|3:2,0:0:0:0:
208,16,87436,2,0,L|304:16,1,96,6|10,3:2|1:0,0:0:0:0:
400,16,88507,1,2,3:0:0:0:
448,16,88774,1,2,3:0:0:0:
496,16,89042,1,10,1:0:0:0:
496,112,89578,6,0,L|496:208,1,96,6|8,3:2|1:0,0:0:0:0:
496,304,90648,2,0,L|448:304,1,48,2|2,3:0|0:0,0:0:0:0:
400,304,91184,1,10,1:0:0:0:
352,304,91452,2,0,L|208:304,1,144,2|10,3:2|1:0,0:0:0:0:
208,256,92522,2,0,L|208:192,1,48,2|2,3:2|3:0,0:0:0:0:
208,160,93058,1,2,3:0:0:0:
208,112,93326,1,10,1:0:0:0:
112,112,93861,6,0,L|112:304,2,192,6|2|6,3:2|3:2|3:2,0:0:0:0:
208,112,96538,1,8,1:0:0:0:
304,112,97073,2,0,L|304:224,2,96,6|8|6,3:2|1:0|3:2,0:0:0:0:
400,112,98680,1,8,1:0:0:0:
496,112,99215,6,0,L|496:160,1,48,2|2,3:0|0:0,0:0:0:0:
496,208,99750,2,0,L|448:208,1,48,10|2,1:0|3:2,0:0:0:0:
400,208,100286,2,0,L|400:320,2,96,6|10|2,3:2|1:0|3:0,0:0:0:0:
352,208,101624,1,2,3:0:0:0:
304,208,101892,1,10,1:0:0:0:
208,208,102427,6,0,L|208:304,1,96,6|8,3:2|1:0,0:0:0:0:
208,352,103231,1,2,3:2:0:0:
160,352,103498,2,0,L|112:352,1,48,2|2,3:0|0:0,0:0:0:0:
64,352,104034,2,0,L|64:304,1,48,10|2,1:0|3:2,0:0:0:0:
64,256,104569,2,0,L|64:160,1,96,6|10,3:2|1:0,0:0:0:0:
160,160,105640,1,2,3:0:0:0:
208,160,105908,1,2,3:0:0:0:
256,160,106175,2,0,L|304:160,1,48,10|2,1:0|0:0,0:0:0:0:
352,160,106711,6,0,L|352:16,1,144,6|0,3:2|3:0,0:0:0:0:
304,16,107782,2,0,L|256:16,1,48,2|2,3:0|0:0,0:0:0:0:
208,16,108317,1,8,1:0:0:0:
160,16,108585,2,0,L|160:112,1,96,2|2,3:2|0:0,0:0:0:0:
160,208,109656,2,0,L|64:208,2,96,2|2|2,3:2|3:0|0:0,0:0:0:0:
208,208,110994,6,0,L|304:208,1,96,6|8,3:2|1:0,0:0:0:0:
352,208,111797,1,2,3:2:0:0:
352,256,112065,2,0,L|352:352,1,96,2|8,3:0|1:0,0:0:0:0:
256,352,113136,2,0,L|160:352,1,96,6|8,3:2|1:0,0:0:0:0:
112,352,113939,1,2,3:2:0:0:
64,352,114207,6,0,L|64:304,1,48,6|2,3:2|3:0,0:0:0:0:
64,256,114742,2,0,L|112:256,1,48,10|10,1:0|0:3,0:0:0:0:
160,256,115278,6,0,L|160:160,2,96,6|10|0,3:2|1:0|3:0,0:0:0:0:
208,256,116616,1,2,0:0:0:0:
256,256,116884,1,8,1:0:0:0:
304,256,117152,2,0,L|416:256,1,96,2|2,3:2|3:2,0:0:0:0:
496,256,118223,1,2,3:2:0:0:
496,208,118490,6,0,L|496:160,1,48,2|2,3:0|3:0,0:0:0:0:
448,160,119026,2,0,L|384:160,1,48,10|2,1:0|3:2,0:0:0:0:
352,160,119561,2,0,L|352:64,2,96,6|10|0,3:2|1:0|3:0,0:0:0:0:
352,208,120900,1,0,0:0:0:0:
304,208,121167,2,0,L|256:208,1,48,10|2,1:0|3:2,0:0:0:0:
208,208,121703,1,6,3:0:0:0:
112,208,122238,1,8,1:0:0:0:
64,208,122506,1,6,0:3:0:0:
16,208,122774,6,0,L|16:144,1,48,2|6,3:0|3:3,0:0:0:0:
16,112,123309,2,0,L|80:112,1,48,10|2,1:0|3:3,0:0:0:0:
112,112,123845,2,0,L|112:16,2,96,6|10|0,3:2|1:0|3:0,0:0:0:0:
112,160,125183,1,4,0:3:0:0:
112,208,125451,2,0,L|64:208,1,48,10|2,1:0|3:3,0:0:0:0:
16,208,125986,5,6,3:2:0:0:
256,208,127057,1,6,3:3:0:0:
496,208,128128,1,6,3:2:0:0:
400,320,136695,6,0,L|304:320,1,96,6|10,3:2|1:0,0:0:0:0:
256,320,137498,1,2,3:0:0:0:
208,320,137766,2,0,L|208:224,1,96,2|10,3:0|1:1,0:0:0:0:
208,128,138837,2,0,L|96:128,1,96,2|8,3:2|1:0,0:0:0:0:
16,128,139908,1,0,3:0:0:0:
16,80,140175,1,2,3:3:0:0:
16,32,140443,1,8,1:0:0:0:
112,32,140979,6,0,L|208:32,1,96,6|8,3:2|1:0,0:0:0:0:
256,32,141782,1,2,3:0:0:0:
304,32,142049,2,0,L|304:96,1,48,2|0,3:0|0:0,0:0:0:0:
304,128,142585,2,0,L|416:128,1,96,8|4,1:0|3:2,0:0:0:0:
496,128,143656,1,8,1:0:0:0:
496,224,144191,1,2,3:2:0:0:
400,224,144727,1,10,1:0:0:0:
400,320,145262,1,4,3:2:0:0:
448,192,153829,5,6,3:1:0:0:
448,48,154632,1,2,3:2:0:0:
448,0,154900,1,0,3:2:0:0:
304,0,155703,1,2,3:2:0:0:
256,0,155971,1,4,3:2:0:0:
160,0,156506,1,2,3:2:0:0:
64,0,157041,1,2,3:2:0:0:
64,192,158112,6,0,L|112:192,1,48,6|0,3:2|0:0,0:0:0:0:
160,192,158648,2,0,L|160:240,1,48,8|6,1:0|3:3,0:0:0:0:
160,288,159183,2,0,L|256:288,1,96,0|8,3:0|1:0,0:0:0:0:
256,240,159986,1,6,3:3:0:0:
256,192,160254,2,0,L|304:192,1,48,4|2,3:2|0:0,0:0:0:0:
352,192,160789,1,8,1:0:0:0:
400,192,161057,2,0,L|400:336,1,144,6|12,3:3|1:2,0:0:0:0:
496,336,162396,6,0,L|496:224,1,96,4|8,3:2|1:0,0:0:0:0:
496,192,163199,1,6,3:3:0:0:
496,144,163467,2,0,L|496:32,1,96,0|8,3:0|1:0,0:0:0:0:
448,48,164270,1,6,3:3:0:0:
352,48,164805,2,0,L|240:48,1,96,2|6,0:0|3:3,0:0:0:0:
208,48,165608,1,0,3:0:0:0:
160,48,165876,1,0,3:2:0:0:
112,48,166144,1,8,1:0:0:0:
16,48,166679,6,0,L|16:144,1,96,6|10,3:2|1:0,0:0:0:0:
16,192,167482,1,6,3:3:0:0:
112,192,168018,2,0,L|176:192,1,48,2|10,3:2|1:1,0:0:0:0:
208,192,168553,2,0,L|208:288,1,96,6|0,3:3|3:0,0:0:0:0:
208,336,169356,1,8,1:0:0:0:
304,336,169892,2,0,L|304:288,1,48,6|2,3:2|3:2,0:0:0:0:
304,240,170427,2,0,L|368:240,1,48,10|6,1:0|3:3,0:0:0:0:
400,240,170963,6,0,L|400:144,2,96,6|10|0,3:2|1:0|3:0,0:0:0:0:
448,240,172301,1,2,0:0:0:0:
496,240,172569,1,8,1:0:0:0:
496,288,172837,2,0,L|496:400,1,96,2|2,3:2|0:2,0:0:0:0:
400,384,173908,1,2,3:2:0:0:
352,384,174175,6,0,L|304:384,1,48,2|2,3:0|3:0,0:0:0:0:
256,384,174711,2,0,L|256:320,1,48,10|2,1:0|3:2,0:0:0:0:
256,288,175246,2,0,L|256:192,2,96,4|10|0,3:2|1:0|3:0,0:0:0:0:
208,288,176585,1,2,0:0:0:0:
160,288,176852,2,0,L|160:336,1,48,8|2,1:0|3:2,0:0:0:0:
160,384,177388,1,4,3:0:0:0:
64,384,177923,1,8,1:0:0:0:
16,384,178191,1,6,0:3:0:0:
16,336,178459,6,0,L|16:272,1,48,2|6,3:0|3:3,0:0:0:0:
16,240,178994,2,0,L|80:240,1,48,14|2,1:2|3:3,0:0:0:0:
64,192,179530,2,0,L|64:96,2,96,6|10|0,3:2|1:0|3:0,0:0:0:0:
112,192,180868,1,6,0:3:0:0:
160,192,181136,2,0,L|208:192,1,48,10|2,1:0|3:3,0:0:0:0:
256,192,181671,5,6,3:2:0:0:
448,192,182742,1,6,3:3:0:0:
448,0,183813,1,6,3:2:0:0:
256,0,184884,6,0,L|256:48,1,48,2|2,3:0|0:0,0:0:0:0:
256,96,185419,2,0,L|192:96,1,48,10|2,1:0|3:2,0:0:0:0:
160,96,185955,2,0,L|160:192,1,96,2|10,3:0|1:0,0:0:0:0:
160,288,187025,1,2,3:0:0:0:
112,288,187293,1,2,3:0:0:0:
64,288,187561,1,10,1:0:0:0:
64,192,188096,6,0,L|64:96,1,96,6|8,3:2|1:0,0:0:0:0:
160,96,189167,2,0,L|224:96,1,48,2|2,3:0|0:0,0:0:0:0:
256,96,189703,2,0,L|256:144,1,48,10|2,1:0|3:2,0:0:0:0:
256,192,190238,2,0,L|352:192,2,96,6|10|2,3:0|1:0|3:0,0:0:0:0:
256,240,191577,1,6,3:3:0:0:
256,288,191844,1,10,1:0:0:0:
256,384,192380,6,0,L|352:384,1,96,6|10,3:2|1:0,0:0:0:0:
448,384,193451,1,0,3:0:0:0:
448,336,193718,1,4,0:3:0:0:
448,288,193986,2,0,L|448:224,1,48,10|2,1:0|3:3,0:0:0:0:
448,192,194521,5,6,3:1:0:0:
256,192,195592,1,6,0:2:0:0:
64,192,196663,1,6,0:2:0:0:
