osu file format v14

[General]
AudioFilename: audio.ogg
AudioLeadIn: 0
PreviewTime: 113802
Countdown: 0
SampleSet: Soft
StackLeniency: 0.2
Mode: 0
LetterboxInBreaks: 0
WidescreenStoryboard: 1

[Editor]
Bookmarks: 1764,16755,25322,42456,59590,72440,79936,81007,98140,115274,128124,136691,145258,153825,158108,166675,170959,175242,179525,183809,194517
DistanceSpacing: 1
BeatDivisor: 4
GridSize: 32
TimelineZoom: 1.8

[Metadata]
Title:I Want You Back
TitleUnicode:I Want You Back
Artist:*NSYNC
ArtistUnicode:*NSYNC
Creator:Aranel
Version:Apology
Source:
Tags:Lance Bass Justin Timberlake Joey Fatone Chris Kirkpatrick JC Chasez teen-pop dance-pop pop english 'N Sync flux3on fluxie bloxi boy band boyband
BeatmapID:3551511
BeatmapSetID:1737620

[Difficulty]
HPDrainRate:5
CircleSize:3.5
OverallDifficulty:8
ApproachRate:8
SliderMultiplier:2.56
SliderTickRate:1

[Events]
//Background and Video events
0,0,"backsync (1).jpg",0,0
//Break Periods
2,72644,79190
2,145462,153079
//Storyboard Layer 0 (Background)
//Storyboard Layer 1 (Fail)
//Storyboard Layer 2 (Pass)
//Storyboard Layer 3 (Foreground)
//Storyboard Layer 4 (Overlay)
//Storyboard Sound Samples

[TimingPoints]
1768,535.427449580582,4,2,1,70,1,0
12476,-100,4,2,1,20,0,0
12878,-100,4,2,1,5,0,0
13011,-100,4,2,1,30,0,0
13413,-100,4,2,1,5,0,0
13547,-100,4,2,1,40,0,0
13948,-100,4,2,1,5,0,0
14082,-100,4,2,1,50,0,0
14484,-100,4,2,1,5,0,0
14618,-100,4,2,1,60,0,0
15019,-100,4,2,1,5,0,0
15153,-100,4,2,1,60,0,0
16759,-80,4,2,1,70,0,0
20708,-80,4,2,1,5,0,0
20775,-80,4,2,1,70,0,0
24992,-80,4,2,1,5,0,0
25059,-80,4,2,1,70,0,0
25326,-100,4,2,1,60,0,0
29476,-100,4,2,1,5,0,0
29543,-100,4,2,1,60,0,0
42326,-100,4,2,1,5,0,0
42460,-100,4,2,1,60,0,0
46610,-100,4,2,1,5,0,0
46744,-100,4,2,1,60,0,0
55176,-100,4,2,1,5,0,0
55310,-100,4,2,1,60,0,0
57452,-80,4,2,1,60,0,0
59594,-80,4,2,1,90,0,1
72310,-80,4,2,1,5,0,1
72444,-100,4,2,1,75,0,0
79940,-100,4,2,1,75,0,0
113136,-80,4,2,1,75,0,0
115278,-80,4,2,1,90,0,1
127994,-80,4,2,1,5,0,1
128128,-100,4,2,1,75,0,0
145262,-200,4,2,1,75,0,0
158112,-80,4,2,1,85,0,1
170963,-80,4,2,1,90,0,1
183813,-80,4,2,1,80,0,1
194521,-80,4,2,1,75,0,0

[Colours]
Combo1 : 121,129,166
Combo2 : 216,216,216
Combo3 : 4,52,140
Combo4 : 128,128,128

[HitObjects]
256,192,12476,12,2,14618,0:0:0:0:
0,192,15153,5,2,0:0:0:0:
256,192,15689,1,2,0:0:0:0:
512,192,16224,1,2,0:0:0:0:
256,192,16759,6,0,L|256:16,1,160,6|0,3:2|0:0,0:0:0:0:
336,32,17161,1,2,0:0:0:0:
416,32,17295,2,0,L|416:128,1,80,8|0,1:0|0:0,0:0:0:0:
416,192,17563,2,0,L|336:192,1,80,2|0,3:0|0:0,0:0:0:0:
256,192,17830,2,0,B|96:192,1,160,2|0,3:0|0:0,0:0:0:0:
96,32,18366,6,0,L|96:112,1,80,8|0,1:0|0:0,0:0:0:0:
176,112,18633,2,0,L|176:32,1,80,0|0,3:0|0:0,0:0:0:0:
256,32,18901,2,0,L|256:224,1,160,0|0,3:0|0:0,0:0:0:0:
256,272,19303,1,0,0:0:0:0:
336,272,19437,1,8,1:0:0:0:
496,272,19704,6,0,L|416:272,1,80,0|0,3:0|0:0,0:0:0:0:
336,192,19972,2,0,L|416:192,1,80,0|0,3:0|0:0,0:0:0:0:
496,192,20240,1,2,3:3:0:0:
496,352,20507,1,8,1:0:0:0:
336,352,20775,1,0,0:0:0:0:
176,352,21043,6,0,B|96:352|96:352|96:272,1,160,2|0,3:0|0:0,0:0:0:0:
96,192,21444,1,2,0:0:0:0:
96,112,21578,2,0,L|192:112,1,80,8|0,1:0|0:0,0:0:0:0:
256,112,21846,2,0,L|256:192,1,80,2|0,3:0|0:0,0:0:0:0:
256,272,22114,2,0,B|336:272|336:272|336:192,1,160,2|0,3:0|0:0,0:0:0:0:
176,192,22649,6,0,L|176:272,1,80,8|0,1:0|0:0,0:0:0:0:
176,352,22916,2,0,L|256:352,1,80,0|0,3:0|0:0,0:0:0:0:
336,352,23185,2,0,B|416:352|416:352|416:272,1,160,0|0,3:0|0:0,0:0:0:0:
416,192,23586,1,0,0:0:0:0:
336,192,23720,1,8,1:0:0:0:
176,192,23988,6,0,L|96:192,1,80,0|0,3:0|0:0,0:0:0:0:
96,272,24255,1,0,3:0:0:0:
256,272,24523,1,2,3:0:0:0:
416,272,24791,1,10,1:0:0:0:
256,272,25059,1,2,0:0:0:0:
256,64,25326,6,0,L|32:64,1,192,6|0,3:1|0:0,0:0:0:0:
0,64,25862,1,8,1:0:0:0:
0,192,26129,1,2,3:2:0:0:
128,192,26397,2,0,L|128:320,1,128,2|2,3:0|0:0,0:0:0:0:
128,384,26799,1,0,0:0:0:0:
192,384,26933,1,10,1:0:0:0:
320,384,27200,1,2,3:2:0:0:
320,256,27468,6,0,L|176:256,1,128,2|0,3:0|0:0,0:0:0:0:
192,192,27870,1,0,0:0:0:0:
192,192,28003,2,0,L|320:192,1,128,10|2,1:0|3:2,0:0:0:0:
384,192,28405,1,0,0:0:0:0:
448,192,28539,1,2,3:0:0:0:
448,64,28807,1,2,3:0:0:0:
320,64,29074,1,10,1:0:0:0:
64,64,29610,6,0,L|64:208,1,128,2|0,3:0|0:0,0:0:0:0:
64,256,30011,1,0,0:0:0:0:
128,256,30145,1,8,1:0:0:0:
256,256,30413,1,2,3:2:0:0:
256,128,30681,2,0,L|384:128,1,128,2|2,3:0|0:0,0:0:0:0:
448,128,31083,1,0,0:0:0:0:
512,128,31217,1,10,1:0:0:0:
512,256,31484,1,2,3:2:0:0:
384,256,31752,6,0,B|320:256|320:256|320:320|320:320|256:320,1,192,2|0,3:0|0:0,0:0:0:0:
192,320,32287,2,0,B|192:256|192:256|256:256,1,128,10|0,1:0|3:2,0:0:0:0:
320,256,32689,1,0,0:0:0:0:
320,256,32823,1,2,3:0:0:0:
320,128,33091,1,2,3:0:0:0:
192,128,33358,1,10,1:0:0:0:
192,0,33625,1,2,0:0:0:0:
320,0,33893,6,0,B|320:128|320:128|192:128|192:128|192:256,1,384,0|2,3:0|3:2,0:0:0:0:
192,320,34830,1,0,0:0:0:0:
192,384,34964,1,2,3:0:0:0:
320,384,35232,1,2,0:0:0:0:
320,320,35366,1,0,0:0:0:0:
320,256,35499,2,0,L|176:256,1,128,10|2,1:0|3:2,0:0:0:0:
128,256,35901,1,0,0:0:0:0:
128,256,36035,6,0,B|128:192|128:192|256:192,1,192,0|0,3:0|0:0,0:0:0:0:
320,192,36570,2,0,B|384:192|384:192|384:256,1,128,10|2,1:0|3:2,0:0:0:0:
384,320,36972,1,0,0:0:0:0:
384,320,37106,1,0,3:0:0:0:
256,320,37373,1,2,3:0:0:0:
128,320,37641,1,10,1:0:0:0:
256,64,38177,1,2,3:0:0:0:
256,192,38310,12,8,39783,1:0:0:0:
0,192,40318,5,2,3:0:0:0:
512,192,40854,1,8,1:0:0:0:
256,64,41389,1,2,3:0:0:0:
256,192,41657,1,2,3:0:0:0:
256,320,41925,1,8,1:0:0:0:
256,320,42460,6,0,B|384:320|384:320|384:256,1,192,6|0,3:2|0:0,0:0:0:0:
384,192,42996,1,8,1:0:0:0:
384,64,43263,1,2,3:2:0:0:
256,64,43531,2,0,L|128:64,1,128,2|2,3:0|0:0,0:0:0:0:
64,64,43933,1,0,0:0:0:0:
64,128,44067,1,10,1:0:0:0:
192,128,44334,1,2,3:2:0:0:
192,256,44602,6,0,L|32:256,1,128,2|0,3:0|0:0,0:0:0:0:
0,256,45004,1,0,0:0:0:0:
0,320,45137,2,0,L|128:320,1,128,10|2,1:0|3:2,0:0:0:0:
192,320,45539,1,0,0:0:0:0:
256,320,45673,1,2,3:0:0:0:
256,192,45941,1,2,3:0:0:0:
256,64,46208,1,10,1:0:0:0:
256,320,46744,6,0,L|384:320,1,128,2|0,3:0|0:0,0:0:0:0:
448,320,47145,1,0,0:0:0:0:
448,256,47279,1,8,1:0:0:0:
448,128,47547,2,0,L|352:128,1,64,2|0,3:2|0:0,0:0:0:0:
320,128,47815,2,0,L|320:288,1,128,2|2,3:0|0:0,0:0:0:0:
256,256,48216,1,0,0:0:0:0:
256,256,48351,1,10,1:0:0:0:
256,128,48618,1,2,3:2:0:0:
128,128,48886,6,0,B|64:128|0:128|0:128|0:192,1,192,2|0,3:0|0:0,0:0:0:0:
0,256,49421,2,0,B|64:256|64:256|64:192,1,128,10|0,1:0|3:2,0:0:0:0:
64,128,49823,1,0,0:0:0:0:
64,64,49957,1,2,3:0:0:0:
192,64,50225,1,2,3:0:0:0:
192,192,50492,1,10,1:0:0:0:
320,192,50759,1,2,0:0:0:0:
320,64,51027,6,0,B|448:64|448:64|448:192|448:192|304:192,1,384,2|0,3:0|3:2,0:0:0:0:
256,192,51964,1,0,0:0:0:0:
192,192,52098,1,2,3:0:0:0:
192,64,52366,1,2,0:0:0:0:
320,64,52633,1,8,1:0:0:0:
320,192,52901,1,2,3:2:0:0:
320,256,53035,1,0,0:0:0:0:
320,320,53169,5,2,3:0:0:0:
192,320,53436,1,2,0:0:0:0:
192,192,53704,2,0,B|192:48,1,128,10|2,1:0|3:2,0:0:0:0:
128,64,54106,1,0,0:0:0:0:
128,64,54240,1,2,3:0:0:0:
256,64,54507,1,2,3:0:0:0:
384,64,54775,1,10,1:0:0:0:
256,320,55311,1,2,3:0:0:0:
256,192,55444,12,8,56917,1:0:0:0:
176,32,57452,6,0,B|256:32|256:32|256:352|256:352|352:352,1,480,2|2,3:0|3:2,0:0:0:0:
416,352,58389,1,2,0:0:0:0:
416,352,58523,1,6,3:2:0:0:
416,192,58791,1,2,3:0:0:0:
256,192,59058,1,10,1:0:0:0:
96,192,59326,1,10,0:3:0:0:
96,32,59594,6,0,L|272:32,1,160,4|0,3:2|0:0,0:0:0:0:
336,32,59995,1,0,0:0:0:0:
256,192,60129,2,0,L|256:112,1,80,10|0,1:0|0:0,0:0:0:0:
336,112,60397,2,0,L|336:192,1,80,2|0,3:2|0:0,0:0:0:0:
416,272,60665,2,0,L|256:272,1,160,0|2,3:0|0:0,0:0:0:0:
176,272,61066,1,0,0:0:0:0:
176,192,61200,1,8,1:0:0:0:
96,192,61334,2,0,L|96:0,1,160,4|0,0:3|3:0,0:0:0:0:
16,192,61735,6,0,B|16:272|16:272|96:272|96:272,1,160,0|0,3:0|0:0,0:0:0:0:
176,272,62137,1,0,0:0:0:0:
176,192,62271,2,0,L|96:192,1,80,8|0,1:0|0:0,0:0:0:0:
16,192,62539,1,2,3:2:0:0:
16,112,62672,1,0,0:0:0:0:
16,32,62806,6,0,L|96:32,1,80,2|0,3:0|0:0,0:0:0:0:
256,32,63074,2,0,L|176:32,1,80,2|0,3:0|0:0,0:0:0:0:
256,192,63342,2,0,L|176:192,1,80,10|4,1:0|0:3,0:0:0:0:
16,192,63610,2,0,L|96:192,1,80,2|0,3:2|0:0,0:0:0:0:
16,352,63877,6,0,L|208:352,1,160,6|0,3:2|0:0,0:0:0:0:
256,352,64279,1,0,0:0:0:0:
96,272,64413,2,0,L|176:272,1,80,10|0,1:0|0:0,0:0:0:0:
256,192,64680,2,0,L|256:272,1,80,2|0,3:2|0:0,0:0:0:0:
336,352,64948,2,0,L|336:176,1,160,0|0,3:0|0:0,0:0:0:0:
336,112,65350,1,0,0:0:0:0:
416,272,65483,2,0,L|416:192,1,80,10|4,1:0|0:3,0:0:0:0:
416,32,65751,2,0,L|416:112,1,80,2|0,3:2|3:2,0:0:0:0:
496,272,66019,6,0,B|496:352|496:352|416:352,1,160,6|0,3:0|0:0,0:0:0:0:
336,352,66420,1,4,0:3:0:0:
336,272,66554,2,0,L|432:272,1,80,8|0,1:0|0:0,0:0:0:0:
496,272,66822,1,6,0:3:0:0:
496,192,66956,1,0,3:0:0:0:
416,192,67090,6,0,L|336:192,1,80,2|0,3:0|0:0,0:0:0:0:
336,32,67357,2,0,L|336:112,1,80,6|0,3:3|0:0,0:0:0:0:
176,112,67625,2,0,L|256:112,1,80,10|4,1:0|3:0,0:0:0:0:
256,272,67892,2,0,L|256:176,1,80,2|0,3:3|0:0,0:0:0:0:
256,32,68161,6,0,L|96:32,1,160,6|0,3:2|0:0,0:0:0:0:
16,32,68562,1,4,0:3:0:0:
16,112,68696,2,0,L|176:112,1,160,10|6,1:0|3:3,0:0:0:0:
256,112,69098,1,0,0:0:0:0:
256,192,69231,2,0,B|96:192,1,160,0|4,3:0|0:3,0:0:0:0:
16,192,69633,1,0,0:0:0:0:
16,272,69767,2,0,L|96:272,1,80,10|0,1:0|0:0,0:0:0:0:
96,352,70034,2,0,L|16:352,1,80,2|0,3:3|0:0,0:0:0:0:
176,272,70302,6,0,B|256:272|256:272|256:352|256:352|176:352,1,240,6|4,3:2|0:3,0:0:0:0:
96,352,70838,1,8,1:0:0:0:
96,192,71105,1,4,0:3:0:0:
176,192,71239,1,0,0:0:0:0:
256,192,71373,1,6,3:3:0:0:
416,192,71641,1,8,3:3:0:0:
416,352,71909,1,8,1:0:0:0:
96,352,72444,1,6,3:2:0:0:
128,192,79940,5,0,3:0:0:0:
256,192,80208,1,2,3:0:0:0:
384,192,80475,1,10,1:0:0:0:
384,192,81011,6,0,B|384:128|384:128|320:128|320:128|320:48,1,192,4|0,3:1|0:0,0:0:0:0:
320,0,81547,1,8,1:0:0:0:
192,0,81814,1,0,3:2:0:0:
128,0,81948,1,0,0:0:0:0:
64,0,82082,1,2,3:0:0:0:
64,128,82349,1,2,0:0:0:0:
192,128,82618,1,10,1:0:0:0:
192,256,82885,1,2,0:0:0:0:
128,256,83019,1,0,0:0:0:0:
64,256,83153,6,0,B|64:384|64:384|128:384,1,192,6|0,3:2|0:0,0:0:0:0:
192,384,83688,2,0,B|256:384|256:384|256:304,1,128,10|2,1:0|3:2,0:0:0:0:
256,256,84090,1,0,0:0:0:0:
192,256,84224,1,2,3:0:0:0:
64,256,84491,1,2,3:0:0:0:
64,128,84759,1,10,1:0:0:0:
448,128,85295,6,0,L|448:272,1,128,6|0,3:2|0:0,0:0:0:0:
448,320,85696,1,0,0:0:0:0:
448,384,85830,1,8,1:0:0:0:
320,384,86097,1,2,3:2:0:0:
320,256,86365,1,2,3:0:0:0:
192,256,86633,1,2,0:0:0:0:
192,384,86900,1,10,1:0:0:0:
64,384,87168,1,2,3:2:0:0:
64,320,87302,1,0,0:0:0:0:
64,256,87436,6,0,B|64:128|64:128|144:128,1,192,6|0,3:2|0:0,0:0:0:0:
192,128,87972,2,0,B|320:128,1,128,10|2,1:0|3:2,0:0:0:0:
384,128,88374,1,0,0:0:0:0:
448,128,88508,1,2,3:0:0:0:
448,256,88774,1,2,3:0:0:0:
320,256,89043,1,10,1:0:0:0:
192,256,89310,1,2,0:0:0:0:
192,128,89578,6,0,B|192:0|192:0|320:0|320:0|320:128,1,384,6|2,3:2|3:2,0:0:0:0:
448,128,90649,1,2,3:0:0:0:
448,256,90917,1,2,0:0:0:0:
448,320,91051,1,0,0:0:0:0:
384,320,91184,2,0,L|384:192,1,128,10|2,1:0|3:2,0:0:0:0:
384,128,91586,1,0,0:0:0:0:
320,128,91720,6,0,B|256:128|256:128|256:192|256:192|176:192,1,192,6|0,3:2|0:0,0:0:0:0:
128,192,92255,2,0,L|128:48,1,128,10|2,1:0|3:2,0:0:0:0:
64,64,92657,1,0,0:0:0:0:
64,64,92791,1,2,3:0:0:0:
64,192,93058,1,2,3:0:0:0:
64,320,93326,1,10,1:0:0:0:
448,192,93861,1,6,3:2:0:0:
256,192,93995,12,8,95468,1:0:0:0:
512,192,96003,5,6,3:2:0:0:
0,192,96539,1,8,1:0:0:0:
256,320,97074,1,6,3:2:0:0:
256,192,97342,1,2,3:0:0:0:
256,64,97610,1,8,1:0:0:0:
256,64,98145,6,0,B|48:64,1,192,6|0,3:2|0:0,0:0:0:0:
0,64,98681,1,8,1:0:0:0:
0,192,98948,1,2,3:2:0:0:
128,192,99216,2,0,L|256:192,1,128,2|2,3:0|0:0,0:0:0:0:
320,192,99618,1,0,0:0:0:0:
320,256,99751,2,0,L|192:256,1,128,10|2,1:0|3:2,0:0:0:0:
192,128,100287,6,0,L|192:0,1,128,6|0,3:2|0:0,0:0:0:0:
256,0,100689,1,0,0:0:0:0:
320,0,100822,2,0,L|320:128,1,128,10|2,1:0|0:0,0:0:0:0:
320,192,101224,1,0,0:0:0:0:
384,192,101358,1,2,3:0:0:0:
256,192,101626,1,2,3:0:0:0:
128,192,101892,1,10,1:0:0:0:
384,192,102429,6,0,L|384:320,1,128,6|0,3:2|0:0,0:0:0:0:
384,384,102830,1,0,0:0:0:0:
320,384,102964,1,8,1:0:0:0:
192,384,103231,2,0,L|192:288,1,64,2|0,3:2|0:0,0:0:0:0:
192,256,103499,1,2,3:0:0:0:
64,256,103766,1,2,0:0:0:0:
64,128,104034,1,10,1:0:0:0:
192,128,104302,1,2,3:2:0:0:
192,64,104436,1,0,0:0:0:0:
192,0,104571,6,0,B|128:0|64:0|64:0|64:64,1,192,6|0,3:2|0:0,0:0:0:0:
64,128,105106,2,0,B|224:128,1,128,10|0,1:0|3:0,0:0:0:0:
256,128,105508,1,2,0:0:0:0:
320,128,105640,1,2,3:0:0:0:
448,128,105908,1,2,3:0:0:0:
448,0,106177,1,10,1:0:0:0:
320,0,106444,1,2,0:0:0:0:
192,128,106711,1,6,3:2:0:0:
320,128,106979,1,2,0:0:0:0:
192,0,107247,1,8,1:0:0:0:
192,256,107648,5,2,0:0:0:0:
192,256,107782,2,0,L|64:256,1,128,2|2,3:0|0:0,0:0:0:0:
0,256,108184,1,0,0:0:0:0:
0,256,108318,1,8,1:0:0:0:
0,384,108586,1,2,3:2:0:0:
64,384,108719,1,0,0:0:0:0:
128,384,108854,5,6,3:2:0:0:
256,384,109121,1,2,0:0:0:0:
256,256,109388,2,0,L|384:256,1,128,10|2,1:0|3:2,0:0:0:0:
448,256,109790,1,0,0:0:0:0:
448,320,109924,1,2,3:0:0:0:
448,192,110191,1,2,3:0:0:0:
448,64,110459,1,10,1:0:0:0:
64,192,110994,1,6,3:2:0:0:
256,192,111129,12,8,112602,1:0:0:0:
336,32,113136,6,0,B|336:192|336:192|176:192|176:192|176:352,1,480,6|2,3:2|3:2,0:0:0:0:
96,352,114073,1,0,0:0:0:0:
96,352,114207,1,6,3:2:0:0:
256,352,114475,1,2,3:0:0:0:
256,192,114743,1,10,1:0:0:0:
256,32,115010,1,10,0:3:0:0:
416,32,115278,6,0,B|496:32|496:32|496:112,1,160,6|0,3:2|0:0,0:0:0:0:
416,112,115679,1,0,0:0:0:0:
336,32,115813,2,0,L|256:32,1,80,10|0,1:0|0:0,0:0:0:0:
256,112,116081,2,0,L|336:112,1,80,2|0,3:2|0:0,0:0:0:0:
176,32,116349,2,0,L|16:32,2,160,0|2|8,3:0|0:0|1:0,0:0:0:0:
176,112,117018,1,4,0:3:0:0:
96,112,117152,6,0,B|16:112|16:112|16:192,1,160,2|4,3:2|3:2,0:0:0:0:
96,192,117554,1,0,0:0:0:0:
176,192,117688,1,2,3:2:0:0:
176,272,117821,1,0,3:2:0:0:
96,272,117955,2,0,L|16:272,1,80,8|0,1:0|0:0,0:0:0:0:
16,352,118223,1,2,3:2:0:0:
96,352,118356,1,0,0:0:0:0:
176,352,118490,6,0,L|256:352,1,80,2|0,3:0|0:0,0:0:0:0:
416,352,118758,2,0,L|336:352,1,80,2|0,3:0|0:0,0:0:0:0:
416,192,119026,2,0,L|336:192,1,80,10|4,1:0|0:3,0:0:0:0:
176,192,119294,2,0,L|256:192,1,80,2|0,3:2|0:0,0:0:0:0:
176,32,119561,6,0,B|256:32|256:32|256:112,1,160,6|0,3:2|0:0,0:0:0:0:
256,192,119963,1,0,0:0:0:0:
96,112,120097,2,0,L|176:112,1,80,10|0,1:0|0:0,0:0:0:0:
176,192,120364,2,0,L|80:192,1,80,2|0,3:2|0:0,0:0:0:0:
16,352,120632,2,0,L|16:192,1,160,0|0,3:0|0:0,0:0:0:0:
96,192,121034,1,0,0:0:0:0:
96,272,121168,1,10,1:0:0:0:
96,352,121302,1,4,0:3:0:0:
176,352,121435,2,0,L|176:272,1,80,2|0,3:2|3:2,0:0:0:0:
96,112,121703,6,0,B|176:112|176:112|176:192,1,160,6|0,3:0|0:0,0:0:0:0:
176,272,122104,1,4,0:3:0:0:
336,192,122238,2,0,L|256:192,1,80,8|0,1:0|0:0,0:0:0:0:
256,272,122506,1,6,0:3:0:0:
336,272,122640,1,0,3:0:0:0:
416,272,122774,6,0,L|416:368,1,80,2|0,3:0|0:0,0:0:0:0:
256,352,123041,2,0,L|336:352,1,80,6|0,3:3|0:0,0:0:0:0:
336,192,123309,2,0,L|336:272,1,80,10|4,1:0|3:0,0:0:0:0:
176,272,123577,2,0,L|256:272,1,80,2|0,3:3|0:0,0:0:0:0:
256,32,123845,6,0,L|256:192,1,160,6|0,3:2|0:0,0:0:0:0:
256,272,124246,1,4,0:3:0:0:
176,272,124380,2,0,B|96:272|96:272|96:192,1,160,10|6,1:0|3:3,0:0:0:0:
96,112,124782,1,0,0:0:0:0:
96,32,124915,2,0,B|256:32,1,160,0|4,3:0|0:3,0:0:0:0:
336,32,125317,1,0,0:0:0:0:
336,112,125451,2,0,L|336:192,1,80,10|0,1:0|0:0,0:0:0:0:
256,192,125718,2,0,L|256:112,1,80,2|0,3:3|0:0,0:0:0:0:
416,32,125986,6,0,B|496:32|496:32|496:112|496:112|416:112,1,240,6|4,3:2|0:3,0:0:0:0:
336,112,126522,1,8,1:0:0:0:
176,112,126790,1,4,0:3:0:0:
96,112,126924,1,0,0:0:0:0:
96,32,127057,1,6,3:3:0:0:
256,32,127325,1,8,3:3:0:0:
416,32,127593,1,8,1:0:0:0:
256,384,128128,6,0,L|256:176,1,192,6|2,3:2|0:0,0:0:0:0:
256,128,128664,1,8,1:0:0:0:
256,0,128932,1,2,3:0:0:0:
128,0,129199,2,0,L|128:128,1,128,2|0,3:0|0:0,0:0:0:0:
128,192,129601,1,0,0:0:0:0:
128,192,129735,2,0,B|128:256|128:256|48:256,1,128,8|0,1:0|3:0,0:0:0:0:
0,256,130136,1,0,0:0:0:0:
0,192,130270,2,0,B|0:64|0:64|64:64,1,192,0|0,3:0|0:0,0:0:0:0:
128,64,130806,5,8,1:0:0:0:
256,64,131073,1,0,3:0:0:0:
256,192,131341,1,0,3:0:0:0:
256,320,131609,1,2,3:3:0:0:
384,320,131876,1,8,1:0:0:0:
384,320,132412,6,0,L|384:112,1,192,6|2,3:2|0:0,0:0:0:0:
384,64,132948,1,8,1:0:0:0:
512,64,133216,1,2,3:0:0:0:
512,192,133483,2,0,L|368:192,1,128,2|0,3:0|0:0,0:0:0:0:
320,192,133885,1,0,0:0:0:0:
256,192,134019,2,0,L|256:336,1,128,8|0,1:0|3:0,0:0:0:0:
256,384,134420,1,0,0:0:0:0:
320,384,134554,2,0,B|384:384|384:384|384:240,1,192,0|0,3:0|0:0,0:0:0:0:
384,192,135090,5,8,1:0:0:0:
384,64,135357,1,0,3:0:0:0:
256,64,135624,1,0,3:0:0:0:
256,192,135892,1,2,3:0:0:0:
256,320,136159,1,8,1:0:0:0:
128,320,136428,1,0,3:0:0:0:
128,192,136695,6,0,B|0:192|0:192|0:128,1,192,6|2,3:2|0:0,0:0:0:0:
0,64,137231,1,10,1:0:0:0:
128,64,137498,1,2,3:0:0:0:
128,192,137766,2,0,L|128:320,1,128,2|2,3:0|0:0,0:0:0:0:
128,384,138168,1,0,0:0:0:0:
192,384,138301,1,10,1:1:0:0:
320,384,138569,1,2,3:2:0:0:
384,384,138703,1,0,0:0:0:0:
384,320,138837,6,0,L|384:192,1,128,2|2,3:2|0:2,0:0:0:0:
384,128,139238,1,0,0:0:0:0:
384,64,139372,1,8,1:0:0:0:
256,64,139640,1,0,3:0:0:0:
256,192,139907,1,0,3:0:0:0:
256,320,140175,1,2,3:3:0:0:
128,320,140442,1,8,1:0:0:0:
128,320,140979,6,0,L|128:112,1,192,6|2,3:2|0:0,0:0:0:0:
128,64,141515,1,8,1:0:0:0:
0,64,141783,1,2,3:0:0:0:
0,192,142050,2,0,L|128:192,1,128,2|0,3:0|0:0,0:0:0:0:
192,192,142452,1,0,0:0:0:0:
256,192,142585,1,8,1:0:0:0:
384,192,142853,1,0,3:0:0:0:
512,192,143120,5,4,3:2:0:0:
384,192,143656,1,8,1:0:0:0:
256,192,144191,1,2,3:2:0:0:
128,192,144727,1,10,1:0:0:0:
0,192,145262,1,4,3:2:0:0:
16,192,153829,5,6,3:1:0:0:
256,192,154632,1,2,3:2:0:0:
256,192,154900,1,0,3:2:0:0:
496,192,155703,1,2,3:2:0:0:
496,192,155971,5,4,3:2:0:0:
256,192,156506,1,2,3:2:0:0:
16,192,157041,1,2,3:2:0:0:
256,192,158112,6,0,L|256:32,1,160,6|0,3:2|0:0,0:0:0:0:
336,32,158513,1,0,3:2:0:0:
336,112,158647,2,0,L|336:192,1,80,8|0,1:0|0:0,0:0:0:0:
336,272,158915,1,6,3:3:0:0:
256,272,159049,1,0,3:2:0:0:
176,272,159183,2,0,L|176:192,1,80,0|0,3:0|0:0,0:0:0:0:
96,192,159451,2,0,L|96:272,1,80,2|0,0:0|0:0,0:0:0:0:
96,352,159719,1,8,1:0:0:0:
256,352,159986,5,6,3:3:0:0:
336,352,160120,1,0,0:0:0:0:
416,352,160254,2,0,L|416:272,1,80,4|0,3:2|0:0,0:0:0:0:
416,192,160522,1,2,0:0:0:0:
336,192,160656,1,0,0:0:0:0:
256,192,160790,2,0,L|144:192,1,80,8|0,1:0|0:0,0:0:0:0:
96,192,161057,1,6,3:3:0:0:
96,112,161191,1,0,3:0:0:0:
96,32,161325,5,0,3:0:0:0:
256,32,161593,1,0,3:0:0:0:
416,32,161860,2,0,L|336:32,1,80,12|0,1:2|0:0,0:0:0:0:
256,32,162128,1,4,3:3:0:0:
256,192,162396,6,0,L|256:304,1,80,4|0,3:2|0:0,0:0:0:0:
256,352,162663,1,0,0:0:0:0:
176,352,162797,1,0,0:0:0:0:
176,272,162931,1,8,1:0:0:0:
336,272,163199,1,6,3:3:0:0:
336,352,163333,1,0,3:2:0:0:
416,352,163467,2,0,L|416:272,1,80,0|0,3:0|0:0,0:0:0:0:
496,272,163735,2,0,L|496:352,1,80,2|0,0:3|0:0,0:0:0:0:
336,352,164003,1,8,1:0:0:0:
336,192,164270,5,6,3:3:0:0:
336,112,164404,1,0,3:2:0:0:
336,32,164538,2,0,L|256:32,1,80,4|0,3:2|0:0,0:0:0:0:
176,32,164806,1,2,0:0:0:0:
176,112,164940,1,0,0:0:0:0:
176,192,165074,2,0,L|176:288,1,80,8|0,1:0|0:0,0:0:0:0:
176,352,165341,1,6,3:3:0:0:
96,352,165475,1,0,3:2:0:0:
16,352,165608,5,0,3:0:0:0:
256,352,165876,1,0,3:2:0:0:
496,352,166144,2,0,L|384:352,1,80,8|0,1:0|0:0,0:0:0:0:
336,352,166411,1,4,3:3:0:0:
336,272,166545,1,0,3:0:0:0:
416,272,166679,6,0,B|496:272|496:272|496:192,1,160,6|0,3:2|3:0,0:0:0:0:
496,112,167081,1,0,3:0:0:0:
416,112,167215,2,0,L|416:208,1,80,10|0,1:0|0:0,0:0:0:0:
416,272,167482,2,0,L|256:272,1,160,6|0,3:3|3:0,0:0:0:0:
96,272,168018,5,2,3:2:0:0:
176,272,168152,1,0,3:2:0:0:
176,192,168285,2,0,L|96:192,1,80,10|0,1:1|0:0,0:0:0:0:
16,192,168553,1,6,3:3:0:0:
16,272,168687,1,0,0:0:0:0:
16,352,168821,2,0,L|192:352,1,160,6|0,3:2|3:0,0:0:0:0:
176,272,169222,1,0,0:0:0:0:
96,272,169356,1,8,1:0:0:0:
96,32,169624,5,6,3:3:0:0:
96,32,169758,1,0,0:0:0:0:
96,32,169892,2,0,L|96:128,1,80,6|0,3:2|0:0,0:0:0:0:
96,272,170159,2,0,L|96:192,1,80,2|0,3:2|0:0,0:0:0:0:
256,272,170427,2,0,L|256:192,1,80,10|0,1:0|0:0,0:0:0:0:
256,32,170695,2,0,L|256:112,1,80,6|0,3:3|0:0,0:0:0:0:
416,32,170963,6,0,L|416:208,1,160,6|0,3:2|0:0,0:0:0:0:
416,272,171364,1,0,0:0:0:0:
256,192,171498,2,0,L|352:192,1,80,10|0,1:0|0:0,0:0:0:0:
336,272,171766,2,0,L|256:272,1,80,2|0,3:2|0:0,0:0:0:0:
176,112,172034,2,0,L|176:272,1,160,0|2,3:0|0:0,0:0:0:0:
176,352,172435,1,0,0:0:0:0:
96,352,172569,1,8,1:0:0:0:
96,272,172703,1,4,0:3:0:0:
96,192,172837,2,0,B|96:104,1,80,2|0,3:2|3:0,0:0:0:0:
16,272,173104,6,0,B|16:352|16:352|96:351,1,160,4|2,3:2|0:2,0:0:0:0:
176,352,173506,1,0,0:0:0:0:
176,272,173640,2,0,L|176:192,1,80,8|0,1:0|0:0,0:0:0:0:
176,112,173908,1,2,3:2:0:0:
256,112,174041,1,0,0:0:0:0:
336,112,174175,6,0,L|416:112,1,80,2|0,3:0|0:0,0:0:0:0:
416,272,174443,2,0,L|336:272,1,80,2|0,3:0|0:0,0:0:0:0:
176,272,174711,2,0,L|256:272,1,80,10|4,1:0|0:3,0:0:0:0:
256,112,174979,2,0,L|176:112,1,80,2|0,3:2|0:0,0:0:0:0:
16,112,175246,6,0,L|16:304,1,160,4|0,3:2|0:2,0:0:0:0:
16,352,175648,1,0,0:0:0:0:
176,352,175782,2,0,L|96:352,1,80,10|0,1:0|0:0,0:0:0:0:
96,192,176049,2,0,L|96:272,1,80,2|0,3:2|0:0,0:0:0:0:
256,272,176317,2,0,P|176:272|176:272,1,80,0|0,3:0|0:2,0:0:0:0:
176,112,176585,2,0,L|176:192,1,80,2|0,0:0|0:0,0:0:0:0:
336,192,176852,2,0,P|256:192|256:192,1,80,8|4,1:0|0:3,0:0:0:0:
256,32,177120,2,0,L|256:112,1,80,2|0,3:2|0:0,0:0:0:0:
416,192,177388,6,0,B|416:112|416:112|336:112,1,160,4|2,3:0|0:2,0:0:0:0:
256,112,177789,1,4,0:3:0:0:
176,112,177923,2,0,L|80:112,1,80,8|0,1:0|0:0,0:0:0:0:
16,112,178191,1,6,0:3:0:0:
16,192,178325,1,0,3:0:0:0:
16,272,178459,6,0,L|96:272,1,80,2|0,3:0|0:0,0:0:0:0:
256,192,178726,2,0,L|176:192,1,80,6|0,3:3|0:0,0:0:0:0:
176,352,178994,2,0,L|176:272,1,80,14|4,1:2|3:0,0:0:0:0:
96,112,179261,2,0,L|96:192,1,80,2|0,3:3|0:0,0:0:0:0:
256,352,179529,6,0,L|416:352,1,160,6|0,3:2|0:0,0:0:0:0:
496,352,179930,1,4,0:3:0:0:
496,272,180064,2,0,L|336:272,1,160,10|6,1:0|3:3,0:0:0:0:
256,272,180466,1,0,0:0:0:0:
256,192,180599,2,0,B|416:192,1,160,0|6,3:0|0:3,0:0:0:0:
496,192,181001,1,0,0:0:0:0:
496,112,181135,2,0,L|416:112,1,80,10|0,1:0|0:0,0:0:0:0:
416,32,181402,2,0,L|496:32,1,80,2|0,3:3|0:0,0:0:0:0:
336,112,181670,6,0,B|256:112|256:112|256:32|256:32|336:32,1,240,6|4,3:2|0:3,0:0:0:0:
416,32,182206,1,8,1:0:0:0:
416,192,182473,1,4,0:3:0:0:
336,192,182607,1,0,0:0:0:0:
256,192,182741,1,6,3:3:0:0:
96,192,183009,1,10,3:3:0:0:
96,32,183277,1,10,1:0:0:0:
256,32,183545,1,2,3:2:0:0:
416,32,183813,6,0,L|416:192,1,160,6|0,3:2|0:0,0:0:0:0:
416,192,184214,1,2,0:0:0:0:
336,192,184348,2,0,L|336:32,1,160,8|2,1:0|3:2,0:0:0:0:
496,32,184884,2,0,L|496:192,1,160,2|2,3:0|0:0,0:0:0:0:
336,272,185419,2,0,L|544:272,1,160,10|2,1:0|3:2,0:0:0:0:
496,352,185821,1,0,0:0:0:0:
416,352,185955,6,0,B|160:352,1,240,2|2,3:0|0:0,0:0:0:0:
96,352,186490,1,10,1:0:0:0:
96,192,186758,1,2,3:2:0:0:
96,112,186892,1,0,0:0:0:0:
176,112,187025,2,0,L|288:112,1,80,2|0,3:0|0:0,0:0:0:0:
336,272,187293,2,0,L|256:272,1,80,2|0,3:0|0:0,0:0:0:0:
336,112,187561,2,0,L|336:192,1,80,10|4,1:0|0:3,0:0:0:0:
176,272,187829,2,0,L|176:192,1,80,2|0,3:2|0:0,0:0:0:0:
96,32,188096,6,0,L|96:192,1,160,6|0,3:2|0:0,0:0:0:0:
96,192,188497,1,2,0:0:0:0:
176,192,188631,2,0,L|176:32,1,160,8|2,1:0|3:2,0:0:0:0:
16,32,189167,2,0,L|16:192,1,160,2|2,3:0|0:0,0:0:0:0:
176,272,189702,2,0,L|-32:272,1,160,10|2,1:0|3:2,0:0:0:0:
16,352,190104,1,0,0:0:0:0:
96,352,190238,6,0,B|384:352,1,240,6|4,3:0|0:3,0:0:0:0:
416,352,190773,1,10,1:0:0:0:
416,192,191041,1,6,0:3:0:0:
416,112,191175,1,0,0:0:0:0:
336,112,191308,2,0,L|224:112,1,80,2|0,3:0|0:0,0:0:0:0:
176,272,191576,2,0,L|256:272,1,80,6|0,3:3|0:0,0:0:0:0:
176,112,191844,2,0,L|176:192,1,80,10|4,1:0|3:0,0:0:0:0:
336,272,192112,2,0,L|336:192,1,80,2|0,3:3|0:0,0:0:0:0:
336,32,192380,6,0,B|144:32,1,160,6|0,3:2|0:0,0:0:0:0:
176,32,192781,1,4,0:3:0:0:
176,112,192915,2,0,L|336:112,1,160,10|6,1:0|3:3,0:0:0:0:
336,112,193317,1,0,0:0:0:0:
336,192,193450,2,0,B|176:192,1,160,0|4,3:0|0:3,0:0:0:0:
176,192,193852,1,0,0:0:0:0:
176,272,193986,2,0,L|176:368,1,80,10|0,1:0|0:0,0:0:0:0:
336,352,194254,2,0,L|336:272,1,80,2|0,3:3|0:0,0:0:0:0:
496,192,194521,5,6,3:1:0:0:
16,192,195592,1,6,0:2:0:0:
256,192,196663,5,6,0:2:0:0:
