osu file format v14

[General]
AudioFilename: audio.mp3
AudioLeadIn: 0
PreviewTime: 83000
Countdown: 0
SampleSet: Soft
StackLeniency: 0.7
Mode: 3
LetterboxInBreaks: 0
SpecialStyle: 0
WidescreenStoryboard: 0

[Editor]
DistanceSpacing: 0.8
BeatDivisor: 4
GridSize: 32
TimelineZoom: 1

[Metadata]
Title:Infinite Galaxy
TitleUnicode:Infinite Galaxy
Artist:NS-Factory
ArtistUnicode:NS-Factory
Creator:UndineKuro
Version:Basic--
Source:BOF2012
Tags:BOF2012 NS-Factory Deadblue238 Trident
BeatmapID:959241
BeatmapSetID:446679

[Difficulty]
HPDrainRate:5
CircleSize:4
OverallDifficulty:8
ApproachRate:5
SliderMultiplier:1.4
SliderTickRate:4

[Events]
//Background and Video events
0,0,"title.png",0,0
Video,0,"Infinite Galaxy [BGA].flv"
//Break Periods
//Storyboard Layer 0 (Background)
//Storyboard Layer 1 (Fail)
//Storyboard Layer 2 (Pass)
//Storyboard Layer 3 (Foreground)
//Storyboard Sound Samples

[TimingPoints]
0,400,4,2,0,70,1,0
3000,-400,4,2,0,70,0,0
3300,400,4,2,0,70,1,0
3300,-100,4,2,0,70,0,0
28100,-400,4,2,0,70,0,0
28900,-100,4,2,0,70,0,0
54100,-400,4,2,0,70,0,0
54500,-200,4,2,0,70,0,0
66900,-400,4,2,0,70,0,0
67300,-100,4,2,0,70,0,0

[HitObjects]
153,192,100,128,0,3000:0:0:0:1:
460,192,3000,1,0,0:0:0:1:
358,192,3300,1,0,0:0:0:1:
358,192,3600,1,0,0:0:0:1:
358,192,3900,1,0,0:0:0:1:
51,192,4100,1,0,0:0:0:1:
358,192,4200,1,0,0:0:0:1:
358,192,4500,1,0,0:0:0:1:
358,192,4900,1,0,0:0:0:1:
358,192,5200,1,0,0:0:0:1:
358,192,5500,1,0,0:0:0:1:
51,192,5700,1,0,0:0:0:1:
358,192,5800,1,0,0:0:0:1:
460,192,6100,1,0,0:0:0:1:
153,192,6300,1,0,0:0:0:1:
358,192,6500,1,0,0:0:0:1:
358,192,6800,1,0,0:0:0:1:
358,192,7100,1,0,0:0:0:1:
51,192,7300,1,0,0:0:0:1:
358,192,7400,1,0,0:0:0:1:
358,192,7700,1,0,0:0:0:1:
358,192,8100,1,0,0:0:0:1:
358,192,8400,1,0,0:0:0:1:
358,192,8700,1,0,0:0:0:1:
51,192,8900,1,0,0:0:0:1:
358,192,9000,1,0,0:0:0:1:
460,192,9300,1,0,0:0:0:1:
153,192,9500,1,0,0:0:0:1:
358,192,9700,1,0,0:0:0:1:
358,192,10000,1,0,0:0:0:1:
358,192,10300,1,0,0:0:0:1:
51,192,10500,1,0,0:0:0:1:
358,192,10600,1,0,0:0:0:1:
358,192,10900,1,0,0:0:0:1:
358,192,11300,1,0,0:0:0:1:
358,192,11600,1,0,0:0:0:1:
358,192,11900,1,0,0:0:0:1:
51,192,12100,1,0,0:0:0:1:
358,192,12200,1,0,0:0:0:1:
460,192,12500,1,0,0:0:0:1:
153,192,12700,1,0,0:0:0:1:
358,192,12900,1,0,0:0:0:1:
358,192,13200,1,0,0:0:0:1:
358,192,13500,1,0,0:0:0:1:
51,192,13700,1,0,0:0:0:1:
358,192,13800,1,0,0:0:0:1:
358,192,14100,1,0,0:0:0:1:
358,192,14500,1,0,0:0:0:1:
358,192,14800,1,0,0:0:0:1:
358,192,15100,1,0,0:0:0:1:
51,192,15300,1,0,0:0:0:1:
358,192,15400,1,0,0:0:0:1:
460,192,15700,1,0,0:0:0:1:
153,192,15900,1,0,0:0:0:1:
51,192,16100,1,0,0:0:0:1:
51,192,16500,1,0,0:0:0:1:
51,192,16900,1,0,0:0:0:1:
51,192,17300,1,0,0:0:0:1:
153,192,17700,1,0,0:0:0:1:
153,192,18100,1,0,0:0:0:1:
153,192,18500,1,0,0:0:0:1:
153,192,18900,1,0,0:0:0:1:
358,192,19300,1,0,0:0:0:1:
358,192,19700,1,0,0:0:0:1:
358,192,20100,1,0,0:0:0:1:
358,192,20500,1,0,0:0:0:1:
460,192,20900,1,0,0:0:0:1:
460,192,21300,1,0,0:0:0:1:
460,192,21700,1,0,0:0:0:1:
460,192,22100,1,0,0:0:0:1:
51,192,22500,1,0,0:0:0:1:
358,192,22700,1,0,0:0:0:1:
51,192,22900,1,0,0:0:0:1:
358,192,23100,1,0,0:0:0:1:
51,192,23300,1,0,0:0:0:1:
358,192,23500,1,0,0:0:0:1:
51,192,23700,1,0,0:0:0:1:
358,192,23900,1,0,0:0:0:1:
153,192,24100,1,0,0:0:0:1:
460,192,24300,1,0,0:0:0:1:
153,192,24500,1,0,0:0:0:1:
460,192,24700,1,0,0:0:0:1:
153,192,24900,1,0,0:0:0:1:
460,192,25100,1,0,0:0:0:1:
153,192,25300,1,0,0:0:0:1:
460,192,25500,1,0,0:0:0:1:
358,192,25700,1,0,0:0:0:1:
460,192,25900,1,0,0:0:0:1:
153,192,26100,1,0,0:0:0:1:
51,192,26300,1,0,0:0:0:1:
358,192,26500,1,0,0:0:0:1:
460,192,26700,1,0,0:0:0:1:
153,192,26900,1,0,0:0:0:1:
51,192,27100,1,0,0:0:0:1:
358,192,27300,1,0,0:0:0:1:
153,192,27600,1,0,0:0:0:1:
358,192,27900,1,0,0:0:0:1:
460,192,28100,128,0,28900:0:0:0:1:
358,192,28900,1,0,0:0:0:1:
51,192,29200,1,0,0:0:0:1:
358,192,29500,1,0,0:0:0:1:
51,192,29800,1,0,0:0:0:1:
358,192,30100,1,0,0:0:0:1:
358,192,30500,1,0,0:0:0:1:
51,192,30800,1,0,0:0:0:1:
358,192,31100,1,0,0:0:0:1:
51,192,31400,1,0,0:0:0:1:
153,192,31700,1,0,0:0:0:1:
358,192,31900,1,0,0:0:0:1:
460,192,32200,1,0,0:0:0:1:
153,192,32500,1,0,0:0:0:1:
460,192,32800,1,0,0:0:0:1:
358,192,33100,1,0,0:0:0:1:
153,192,33400,1,0,0:0:0:1:
51,192,33700,1,0,0:0:0:1:
358,192,34000,1,0,0:0:0:1:
51,192,34300,1,0,0:0:0:1:
460,192,34600,1,0,0:0:0:1:
358,192,34900,1,0,0:0:0:1:
153,192,35100,1,0,0:0:0:1:
358,192,35300,1,0,0:0:0:1:
51,192,35600,1,0,0:0:0:1:
358,192,35900,1,0,0:0:0:1:
51,192,36200,1,0,0:0:0:1:
358,192,36500,1,0,0:0:0:1:
358,192,36900,1,0,0:0:0:1:
51,192,37200,1,0,0:0:0:1:
358,192,37500,1,0,0:0:0:1:
153,192,37800,1,0,0:0:0:1:
358,192,38100,1,0,0:0:0:1:
460,192,38300,1,0,0:0:0:1:
358,192,38600,1,0,0:0:0:1:
153,192,38900,1,0,0:0:0:1:
460,192,39200,1,0,0:0:0:1:
358,192,39500,1,0,0:0:0:1:
153,192,39800,1,0,0:0:0:1:
51,192,40100,1,0,0:0:0:1:
358,192,40400,1,0,0:0:0:1:
51,192,40700,1,0,0:0:0:1:
460,192,41000,1,0,0:0:0:1:
358,192,41300,1,0,0:0:0:1:
153,192,41500,1,0,0:0:0:1:
51,192,41700,1,0,0:0:0:1:
51,192,42100,1,0,0:0:0:1:
51,192,42500,1,0,0:0:0:1:
51,192,42900,1,0,0:0:0:1:
153,192,43300,1,0,0:0:0:1:
153,192,43700,1,0,0:0:0:1:
153,192,44100,1,0,0:0:0:1:
153,192,44500,1,0,0:0:0:1:
358,192,44900,1,0,0:0:0:1:
358,192,45300,1,0,0:0:0:1:
358,192,45700,1,0,0:0:0:1:
358,192,46100,1,0,0:0:0:1:
460,192,46500,1,0,0:0:0:1:
460,192,46900,1,0,0:0:0:1:
460,192,47300,1,0,0:0:0:1:
460,192,47700,1,0,0:0:0:1:
51,192,48100,1,0,0:0:0:1:
51,192,48700,1,0,0:0:0:1:
358,192,48900,1,0,0:0:0:1:
51,192,49700,1,0,0:0:0:1:
51,192,50000,1,0,0:0:0:1:
51,192,50300,1,0,0:0:0:1:
358,192,50500,1,0,0:0:0:1:
51,192,50900,1,0,0:0:0:1:
51,192,51300,1,0,0:0:0:1:
51,192,51900,1,0,0:0:0:1:
358,192,52100,1,0,0:0:0:1:
51,192,52900,1,0,0:0:0:1:
51,192,53200,1,0,0:0:0:1:
51,192,53500,1,0,0:0:0:1:
460,192,53700,128,0,54100:0:0:0:1:
153,192,54500,128,0,55100:0:0:0:1:
51,192,55100,1,0,0:0:0:1:
358,192,55300,1,0,0:0:0:1:
153,192,55700,1,0,0:0:0:1:
460,192,56100,1,0,0:0:0:1:
153,192,56400,1,0,0:0:0:1:
460,192,56700,1,0,0:0:0:1:
51,192,56900,128,0,57300:0:0:0:1:
358,192,57300,128,0,57700:0:0:0:1:
153,192,57700,128,0,58300:0:0:0:1:
51,192,58300,1,0,0:0:0:1:
358,192,58500,128,0,58900:0:0:0:1:
51,192,58900,128,0,59300:0:0:0:1:
153,192,59300,1,0,0:0:0:1:
358,192,59500,1,0,0:0:0:1:
153,192,59700,1,0,0:0:0:1:
358,192,59900,1,0,0:0:0:1:
51,192,60100,1,0,0:0:0:1:
153,192,60500,1,0,0:0:0:1:
153,192,60700,1,0,0:0:0:1:
51,192,60900,128,0,61700:0:0:0:1:
358,192,61700,1,0,0:0:0:1:
153,192,61833,1,0,0:0:0:1:
358,192,61966,1,0,0:0:0:1:
153,192,62100,128,0,62500:0:0:0:1:
358,192,62500,128,0,62900:0:0:0:1:
51,192,62900,1,0,0:0:0:1:
51,192,63100,1,0,0:0:0:1:
358,192,63300,128,0,63700:0:0:0:1:
460,192,63700,128,0,64100:0:0:0:1:
153,192,64100,128,0,64900:0:0:0:1:
358,192,64900,1,0,0:0:0:1:
358,192,65200,1,0,0:0:0:1:
358,192,65500,1,0,0:0:0:1:
51,192,65700,1,0,0:0:0:1:
358,192,65900,1,0,0:0:0:1:
460,192,66100,1,0,0:0:0:1:
51,192,66300,1,0,0:0:0:1:
153,192,66500,1,0,0:0:0:1:
358,192,66633,1,0,0:0:0:1:
460,192,66766,1,0,0:0:0:1:
51,192,66900,1,0,0:0:0:1:
153,192,67300,128,0,67900:0:0:0:1:
51,192,67900,1,0,0:0:0:1:
358,192,68100,1,0,0:0:0:1:
153,192,68500,128,0,68900:0:0:0:1:
460,192,68900,1,0,0:0:0:1:
153,192,69200,1,0,0:0:0:1:
460,192,69500,1,0,0:0:0:1:
51,192,69700,128,0,70100:0:0:0:1:
460,192,70100,128,0,70500:0:0:0:1:
153,192,70500,128,0,70900:0:0:0:1:
51,192,71100,1,0,0:0:0:1:
358,192,71300,128,0,71700:0:0:0:1:
51,192,71700,128,0,72100:0:0:0:1:
153,192,72100,1,0,0:0:0:1:
358,192,72300,1,0,0:0:0:1:
153,192,72500,1,0,0:0:0:1:
51,192,72700,1,0,0:0:0:1:
460,192,72900,1,0,0:0:0:1:
153,192,73300,1,0,0:0:0:1:
153,192,73500,1,0,0:0:0:1:
358,192,73700,1,0,0:0:0:1:
153,192,74000,1,0,0:0:0:1:
358,192,74300,1,0,0:0:0:1:
460,192,74500,1,0,0:0:0:1:
153,192,74800,1,0,0:0:0:1:
460,192,75100,1,0,0:0:0:1:
358,192,75300,1,0,0:0:0:1:
51,192,75600,1,0,0:0:0:1:
358,192,75900,1,0,0:0:0:1:
153,192,76100,1,0,0:0:0:1:
51,192,76400,1,0,0:0:0:1:
153,192,76700,1,0,0:0:0:1:
358,192,76900,1,0,0:0:0:1:
358,192,77200,1,0,0:0:0:1:
153,192,77500,1,0,0:0:0:1:
51,192,77700,1,0,0:0:0:1:
153,192,78000,1,0,0:0:0:1:
358,192,78300,1,0,0:0:0:1:
153,192,78500,1,0,0:0:0:1:
460,192,78800,1,0,0:0:0:1:
153,192,79100,1,0,0:0:0:1:
358,192,79300,1,0,0:0:0:1:
153,192,79600,1,0,0:0:0:1:
51,192,79900,1,0,0:0:0:1:
358,192,80100,1,0,0:0:0:1:
153,192,80400,1,0,0:0:0:1:
358,192,80700,1,0,0:0:0:1:
51,192,80900,1,0,0:0:0:1:
153,192,81200,1,0,0:0:0:1:
460,192,81500,1,0,0:0:0:1:
153,192,81900,1,0,0:0:0:1:
460,192,82200,1,0,0:0:0:1:
358,192,82500,1,0,0:0:0:1:
153,192,82800,1,0,0:0:0:1:
51,192,83100,1,0,0:0:0:1:
358,192,83300,1,0,0:0:0:1:
153,192,83600,1,0,0:0:0:1:
358,192,83900,1,0,0:0:0:1:
358,192,84100,1,0,0:0:0:1:
51,192,84400,1,0,0:0:0:1:
358,192,84700,1,0,0:0:0:1:
153,192,85100,1,0,0:0:0:1:
358,192,85400,1,0,0:0:0:1:
51,192,85700,1,0,0:0:0:1:
153,192,86000,1,0,0:0:0:1:
358,192,86300,1,0,0:0:0:1:
460,192,86500,1,0,0:0:0:1:
153,192,86800,1,0,0:0:0:1:
358,192,87100,1,0,0:0:0:1:
460,192,87300,1,0,0:0:0:1:
358,192,87600,1,0,0:0:0:1:
153,192,87900,1,0,0:0:0:1:
358,192,88300,1,0,0:0:0:1:
153,192,88600,1,0,0:0:0:1:
51,192,88900,1,0,0:0:0:1:
153,192,89200,1,0,0:0:0:1:
460,192,89500,1,0,0:0:0:1:
358,192,89700,1,0,0:0:0:1:
153,192,90000,1,0,0:0:0:1:
358,192,90300,1,0,0:0:0:1:
358,192,90500,1,0,0:0:0:1:
51,192,90800,1,0,0:0:0:1:
358,192,91100,1,0,0:0:0:1:
153,192,91500,1,0,0:0:0:1:
358,192,91800,1,0,0:0:0:1:
460,192,92100,1,0,0:0:0:1:
460,192,92400,1,0,0:0:0:1:
153,192,92700,1,0,0:0:0:1:
358,192,92900,1,0,0:0:0:1:
51,192,93200,1,0,0:0:0:1:
358,192,93500,1,0,0:0:0:1:
153,192,93700,1,0,0:0:0:1:
358,192,94000,1,0,0:0:0:1:
460,192,94300,1,0,0:0:0:1:
153,192,94700,1,0,0:0:0:1:
460,192,95000,1,0,0:0:0:1:
358,192,95300,1,0,0:0:0:1:
153,192,95600,1,0,0:0:0:1:
51,192,95900,1,0,0:0:0:1:
358,192,96100,1,0,0:0:0:1:
153,192,96400,1,0,0:0:0:1:
358,192,96700,1,0,0:0:0:1:
358,192,96900,1,0,0:0:0:1:
153,192,97200,1,0,0:0:0:1:
358,192,97500,1,0,0:0:0:1:
51,192,97900,1,0,0:0:0:1:
358,192,98200,1,0,0:0:0:1:
51,192,98500,1,0,0:0:0:1:
153,192,98800,1,0,0:0:0:1:
358,192,99100,1,0,0:0:0:1:
460,192,99300,1,0,0:0:0:1:
51,192,99600,1,0,0:0:0:1:
153,192,99900,1,0,0:0:0:1:
460,192,100100,1,0,0:0:0:1:
358,192,100400,1,0,0:0:0:1:
153,192,100700,1,0,0:0:0:1:
358,192,101100,1,0,0:0:0:1:
153,192,101400,1,0,0:0:0:1:
51,192,101700,1,0,0:0:0:1:
358,192,102000,1,0,0:0:0:1:
153,192,102300,1,0,0:0:0:1:
358,192,102500,1,0,0:0:0:1:
51,192,102800,1,0,0:0:0:1:
358,192,103100,1,0,0:0:0:1:
358,192,103300,1,0,0:0:0:1:
153,192,103600,1,0,0:0:0:1:
358,192,103900,1,0,0:0:0:1:
51,192,104100,1,0,0:0:0:1:
153,192,104200,1,0,0:0:0:1:
358,192,104300,1,0,0:0:0:1:
51,192,104600,1,0,0:0:0:1:
153,192,104900,1,0,0:0:0:1:
358,192,105200,1,0,0:0:0:1:
460,192,105500,1,0,0:0:0:1:
358,192,105700,1,0,0:0:0:1:
51,192,106000,1,0,0:0:0:1:
460,192,106100,1,0,0:0:0:1:
358,192,106300,1,0,0:0:0:1:
153,192,106500,1,0,0:0:0:1:
358,192,106800,1,0,0:0:0:1:
51,192,106900,1,0,0:0:0:1:
460,192,107100,1,0,0:0:0:1:
153,192,107500,1,0,0:0:0:1:
51,192,107700,1,0,0:0:0:1:
460,192,107800,1,0,0:0:0:1:
358,192,108100,1,0,0:0:0:1:
153,192,108400,1,0,0:0:0:1:
460,192,108500,1,0,0:0:0:1:
51,192,108700,1,0,0:0:0:1:
358,192,108900,1,0,0:0:0:1:
358,192,109200,1,0,0:0:0:1:
51,192,109300,1,0,0:0:0:1:
358,192,109500,1,0,0:0:0:1:
358,192,109700,1,0,0:0:0:1:
51,192,110000,1,0,0:0:0:1:
460,192,110100,1,0,0:0:0:1:
358,192,110300,1,0,0:0:0:1:
153,192,110700,1,0,0:0:0:1:
51,192,110900,1,0,0:0:0:1:
358,192,111000,1,0,0:0:0:1:
51,192,111300,1,0,0:0:0:1:
153,192,111600,1,0,0:0:0:1:
460,192,111700,1,0,0:0:0:1:
358,192,111900,1,0,0:0:0:1:
460,192,112100,1,0,0:0:0:1:
153,192,112400,1,0,0:0:0:1:
51,192,112500,1,0,0:0:0:1:
358,192,112700,1,0,0:0:0:1:
460,192,112900,1,0,0:0:0:1:
358,192,113200,1,0,0:0:0:1:
460,192,113300,1,0,0:0:0:1:
153,192,113500,1,0,0:0:0:1:
358,192,113900,1,0,0:0:0:1:
460,192,114100,1,0,0:0:0:1:
153,192,114200,1,0,0:0:0:1:
51,192,114500,1,0,0:0:0:1:
153,192,114800,1,0,0:0:0:1:
51,192,114900,1,0,0:0:0:1:
460,192,115100,1,0,0:0:0:1:
358,192,115300,1,0,0:0:0:1:
358,192,115600,1,0,0:0:0:1:
51,192,115700,1,0,0:0:0:1:
358,192,115900,1,0,0:0:0:1:
358,192,116100,1,0,0:0:0:1:
153,192,116400,1,0,0:0:0:1:
460,192,116500,1,0,0:0:0:1:
358,192,116700,1,0,0:0:0:1:
153,192,117100,1,0,0:0:0:1:
460,192,117300,1,0,0:0:0:1:
153,192,117400,1,0,0:0:0:1:
460,192,117700,1,0,0:0:0:1:
460,192,118000,1,0,0:0:0:1:
51,192,118100,1,0,0:0:0:1:
153,192,118300,1,0,0:0:0:1:
358,192,118500,1,0,0:0:0:1:
153,192,118800,1,0,0:0:0:1:
460,192,118900,1,0,0:0:0:1:
358,192,119100,1,0,0:0:0:1:
51,192,119300,1,0,0:0:0:1:
153,192,119600,1,0,0:0:0:1:
51,192,119700,1,0,0:0:0:1:
460,192,119900,1,0,0:0:0:1:
153,192,120300,1,0,0:0:0:1:
51,192,120500,1,0,0:0:0:1:
460,192,120600,1,0,0:0:0:1:
358,192,120900,1,0,0:0:0:1:
153,192,121200,1,0,0:0:0:1:
460,192,121300,1,0,0:0:0:1:
51,192,121500,1,0,0:0:0:1:
358,192,121700,1,0,0:0:0:1:
358,192,122000,1,0,0:0:0:1:
51,192,122100,1,0,0:0:0:1:
358,192,122300,1,0,0:0:0:1:
358,192,122500,1,0,0:0:0:1:
51,192,122800,1,0,0:0:0:1:
460,192,122900,1,0,0:0:0:1:
358,192,123100,1,0,0:0:0:1:
153,192,123500,1,0,0:0:0:1:
51,192,123700,1,0,0:0:0:1:
460,192,123800,1,0,0:0:0:1:
51,192,124100,1,0,0:0:0:1:
153,192,124400,1,0,0:0:0:1:
460,192,124500,1,0,0:0:0:1:
358,192,124700,1,0,0:0:0:1:
51,192,124900,1,0,0:0:0:1:
358,192,125100,1,0,0:0:0:1:
51,192,125300,1,0,0:0:0:1:
358,192,125500,1,0,0:0:0:1:
153,192,125700,1,0,0:0:0:1:
460,192,125900,1,0,0:0:0:1:
153,192,126100,1,0,0:0:0:1:
460,192,126300,1,0,0:0:0:1:
51,192,126500,1,0,0:0:0:1:
358,192,126700,1,0,0:0:0:1:
153,192,126900,1,0,0:0:0:1:
460,192,127100,1,0,0:0:0:1:
51,192,127300,1,0,0:0:0:1:
358,192,127500,1,0,0:0:0:1:
153,192,127700,1,0,0:0:0:1:
51,192,127900,1,0,0:0:0:1:
153,192,128000,1,0,0:0:0:1:
358,192,128100,1,0,0:0:0:1:
358,192,128400,1,0,0:0:0:1:
358,192,128700,1,0,0:0:0:1:
153,192,128900,1,0,0:0:0:1:
51,192,129200,1,0,0:0:0:1:
51,192,129500,1,0,0:0:0:1:
460,192,129900,1,0,0:0:0:1:
358,192,130200,1,0,0:0:0:1:
460,192,130500,1,0,0:0:0:1:
153,192,130800,1,0,0:0:0:1:
358,192,131100,1,0,0:0:0:1:
460,192,131300,1,0,0:0:0:1:
51,192,131300,1,0,0:0:0:1:
