osu file format v14

[General]
AudioFilename: audio.mp3
AudioLeadIn: 0
PreviewTime: 40137
Countdown: 0
SampleSet: Soft
StackLeniency: 0.3
Mode: 0
LetterboxInBreaks: 0
WidescreenStoryboard: 0

[Editor]
DistanceSpacing: 1
BeatDivisor: 4
GridSize: 32
TimelineZoom: 3.67

[Metadata]
Title:SLUG (feat. d0llywood1)
TitleUnicode:SLUG (feat. d0llywood1)
Artist:NOVAGANG
ArtistUnicode:NOVAGANG
Creator:Azinlen
Version:I DON'T GIVE A FUCK
Source:
Tags:prblm hiphop hip-hop hip hop english hyperpop glitchcore glitch revialink froskya flyzystyle flyzy
BeatmapID:3085629
BeatmapSetID:1401925

[Difficulty]
HPDrainRate:6
CircleSize:4
OverallDifficulty:9
ApproachRate:9.5
SliderMultiplier:2
SliderTickRate:1

[Events]
//Background and Video events
0,0,"michal-mancewicz-b_ZeDZJ6R2I-unsplash.jpg",0,0
//Break Periods
//Storyboard Layer 0 (Background)
//Storyboard Layer 1 (Fail)
//Storyboard Layer 2 (Pass)
//Storyboard Layer 3 (Foreground)
//Storyboard Layer 4 (Overlay)
//Storyboard Sound Samples

[TimingPoints]
12,300,4,2,1,70,1,0
12,-66.6666666666667,4,2,1,70,0,0
612,-83.3333333333333,4,2,1,70,0,0
4812,-66.6666666666667,4,2,1,70,0,0
6012,-83.3333333333333,4,2,1,70,0,0
8712,-125,4,2,1,70,0,0
9162,-83.3333333333333,4,2,1,70,0,0
9612,-66.6666666666667,4,2,1,70,0,0
12012,-83.3333333333333,4,2,1,70,0,0
15312,-83.3333333333333,4,2,1,5,0,0
16212,-83.3333333333333,4,2,1,70,0,0
21012,-50,4,2,1,70,0,0
21612,-83.3333333333333,4,2,1,70,0,0
24012,-66.6666666666667,4,2,1,70,0,0
25212,-83.3333333333333,4,2,1,70,0,0
28812,-66.6666666666667,4,2,1,70,0,0
29412,-100,4,2,1,70,0,0
33612,-66.6666666666667,4,2,1,70,0,0
36312,-100,4,2,1,70,0,0
36612,-66.6666666666667,4,2,1,70,0,0
38412,-200,4,2,1,70,0,0
40812,-66.6666666666667,4,2,1,70,0,0
43212,-66.6666666666667,4,2,1,70,0,0
48017,340.909090909091,4,2,1,70,1,0
48017,-50,4,2,1,70,0,0
48357,-66.6666666666667,4,2,1,70,0,0
50723,340.909090909091,4,2,1,70,1,0
50723,-66.6666666666667,4,2,1,70,0,0
50893,340.909090909091,4,2,1,70,1,0
51050,340.909090909091,4,2,1,70,1,0
51220,-83.3333333333333,4,2,1,70,0,0
52236,340.909090909091,4,2,1,70,1,0
52236,-83.3333333333333,4,2,1,70,0,0
53412,335.195530726257,4,2,1,70,1,0
53412,-66.6666666666667,4,2,1,70,0,0
56093,338.983050847458,4,2,1,70,1,0
56093,-83.3333333333333,4,2,1,70,0,0
57787,335.195530726257,4,2,1,70,1,0
58457,-125,4,2,1,70,0,0
58808,375,4,2,1,70,1,0
58808,-333.333333333333,4,2,1,70,0,0
61832,375,4,2,1,70,1,0
61832,-66.6666666666667,4,2,1,70,0,0
64849,375,4,2,1,70,1,0
64849,-66.6666666666667,4,2,1,70,0,0
65624,375,4,2,1,70,1,0
65624,-66.6666666666667,4,2,1,70,0,0

[Colours]
Combo1 : 207,210,211
Combo2 : 73,73,73
Combo3 : 213,231,234
Combo4 : 83,102,115

[HitObjects]
55,141,12,6,0,B|115:142|125:67|125:67|131:145|224:145,1,225.000008583069,4|0,3:2|0:0,0:0:0:0:
479,243,612,6,0,B|438:222|392:255|427:293|373:341|301:303,1,179.999994506836,2|0,3:2|0:0,0:0:0:0:
268,267,912,1,0,3:0:0:0:
396,230,1062,1,2,0:0:0:0:
230,345,1212,2,0,P|189:304|188:264,1,59.9999981689454,2|0,0:0|0:0,0:0:0:0:
200,227,1362,1,2,0:0:0:0:
332,313,1512,2,0,P|322:354|314:391,1,59.9999981689454,2|0,3:2|0:0,0:0:0:0:
396,230,1662,2,0,P|388:200|382:171,1,59.9999981689454,0|0,0:0|0:0,0:0:0:0:
287,121,1812,1,2,3:2:0:0:
398,55,1962,1,2,3:2:0:0:
266,103,2112,2,0,P|229:96|195:89,2,59.9999981689454,0|0|0,0:0|0:0|0:0,0:0:0:0:
408,165,2412,6,0,P|485:145|548:136,1,119.999996337891,2|2,3:2|0:0,0:0:0:0:
378,36,2712,1,2,0:0:0:0:
378,36,2787,1,0,0:0:0:0:
378,36,2862,1,2,0:0:0:0:
258,222,3012,2,0,P|176:212|72:202,1,179.999994506836,10|0,0:0|0:0,0:0:0:0:
27,257,3312,1,2,0:0:0:0:
159,89,3462,1,10,0:0:0:0:
328,257,3612,2,0,B|386:243|419:291|401:302|434:354|506:317,1,179.999994506836,2|0,0:0|0:0,0:0:0:0:
508,261,3912,6,0,P|488:183|466:53,1,179.999994506836,2|0,3:2|0:0,0:0:0:0:
455,74,4212,2,0,P|443:113|429:176,1,59.9999981689454,10|0,0:0|0:0,0:0:0:0:
381,183,4362,5,2,3:2:0:0:
381,183,4512,1,0,0:0:0:0:
298,26,4662,1,0,0:0:0:0:
223,162,4812,6,0,B|156:134|106:188|130:202|85:268|5:228,1,225.000008583069,2|0,3:2|0:0,0:0:0:0:
20,160,5112,6,0,B|75:128|120:194|96:208|146:262|213:234,1,225.000008583069,2|0,3:2|0:0,0:0:0:0:
271,288,5412,6,0,P|293:184|311:47,1,225.000008583069,10|0,3:2|0:0,0:0:0:0:
369,14,5712,1,2,3:2:0:0:
369,14,5787,1,0,0:0:0:0:
369,14,5862,1,10,0:0:0:0:
369,14,5937,1,0,0:0:0:0:
369,14,6012,6,0,P|384:125|401:220,1,179.999994506836,2|0,0:0|0:0,0:0:0:0:
502,275,6312,6,0,P|407:269|381:355,1,179.999994506836,2|0,3:2|0:0,0:0:0:0:
447,372,6612,1,10,3:2:0:0:
279,286,6762,1,2,3:2:0:0:
400,197,6912,1,0,0:0:0:0:
400,197,7062,1,0,0:0:0:0:
306,366,7212,6,0,B|254:388|214:348|235:334|202:300|125:323,1,179.999994506836,2|0,3:2|0:0,0:0:0:0:
74,366,7512,1,2,0:0:0:0:
74,366,7587,1,0,0:0:0:0:
74,366,7662,2,0,P|99:321|131:313,1,59.9999981689454,0|0,0:0|0:0,0:0:0:0:
37,105,7812,2,0,P|82:130|90:162,1,59.9999981689454,10|0,0:0|0:0,0:0:0:0:
276,207,7962,2,0,P|227:232|177:225,1,59.9999981689454,2|0,0:0|0:0,0:0:0:0:
29,242,8112,1,2,0:0:0:0:
29,242,8187,1,0,0:0:0:0:
29,242,8262,1,10,0:0:0:0:
29,242,8337,1,0,0:0:0:0:
29,242,8412,6,0,B|71:240|92:216|92:216|58:227|31:216,1,119.999996337891,2|8,0:0|0:0,0:0:0:0:
200,92,8712,2,0,P|182:40|189:89,1,160,2|10,3:2|0:0,0:0:0:0:
338,157,9162,2,0,B|509:147|509:147|453:176|458:228,1,239.999992675781,2|0,3:2|0:0,0:0:0:0:
484,320,9612,6,0,P|489:301|495:282,1,37.5000014305115,2|0,3:2|0:0,0:0:0:0:
359,284,10212,6,0,P|354:265|348:246,1,37.5000014305115,2|0,3:2|0:0,0:0:0:0:
201,340,10812,6,0,P|206:321|212:302,1,37.5000014305115,2|0,3:2|0:0,0:0:0:0:
85,255,11412,6,0,P|80:236|74:217,1,37.5000014305115,2|0,3:2|0:0,0:0:0:0:
211,62,11712,5,2,0:3:0:0:
211,62,11787,1,2,0:3:0:0:
211,62,11862,1,2,0:3:0:0:
211,62,11937,1,2,0:3:0:0:
211,62,12012,6,0,P|201:106|195:156,1,59.9999981689454,2|0,3:2|0:0,0:0:0:0:
313,254,12162,2,0,B|348:220|318:177|318:177|128:216,1,239.999992675781,0|2,0:0|0:0,0:0:0:0:
158,216,12537,1,2,0:0:0:0:
158,216,12612,2,0,P|163:246|173:310,1,59.9999981689454,10|0,0:0|0:0,0:0:0:0:
399,148,12762,2,0,P|403:118|408:88,1,59.9999981689454,2|0,0:0|0:0,0:0:0:0:
333,27,12912,1,2,0:0:0:0:
404,246,13062,2,0,P|460:225|469:206,1,59.9999981689454,10|0,0:0|0:0,0:0:0:0:
481,156,13212,1,2,0:0:0:0:
339,202,13362,1,10,0:0:0:0:
465,360,13512,6,0,B|474:337|499:315|499:315|287:351,1,239.999992675781,2|10,3:2|0:0,0:0:0:0:
34,256,13962,2,0,B|25:279|0:301|0:301|212:265,1,239.999992675781,2|0,3:2|0:0,0:0:0:0:
291,151,14412,5,2,3:2:0:0:
291,151,14487,1,0,0:0:0:0:
291,151,14562,2,0,P|294:121|304:73,1,59.9999981689454
204,12,14712,5,2,3:2:0:0:
204,12,14787,1,0,0:0:0:0:
204,12,14862,2,0,P|207:42|217:90,1,59.9999981689454,0|0,0:0|0:0,0:0:0:0:
286,243,15012,6,0,P|379:254|404:107,1,239.999992675781,10|2,3:2|0:0,0:0:0:0:
423,134,16212,6,0,P|411:172|424:216,1,59.9999981689454,10|0,3:2|0:0,0:0:0:0:
501,93,16362,2,0,B|437:62|387:108|404:131|346:188|256:144,1,239.999992675781,2|0,3:2|0:0,0:0:0:0:
55,88,16812,6,0,B|94:63|94:63|231:93,1,179.999994506836,2|0,3:2|0:0,0:0:0:0:
194,231,17112,1,0,0:0:0:0:
194,231,17187,1,0,0:0:0:0:
194,231,17262,2,0,L|183:163,1,59.9999981689454,2|2,0:0|0:0,0:0:0:0:
274,276,17412,2,0,L|264:335,1,59.9999981689454,10|0,0:0|0:0,0:0:0:0:
282,286,17562,2,0,L|272:345,1,59.9999981689454,2|0,0:0|0:0,0:0:0:0:
212,227,17712,2,0,L|202:168,1,59.9999981689454,2|0,0:0|0:0,0:0:0:0:
376,286,17862,1,10,0:0:0:0:
376,286,17937,1,0,0:0:0:0:
376,286,18012,5,2,0:0:0:0:
183,363,18162,1,10,0:0:0:0:
352,193,18312,2,0,B|410:174|446:208|425:225|466:270|528:238,1,179.999994506836,2|0,3:2|0:0,0:0:0:0:
510,244,18612,1,10,0:0:0:0:
285,81,18762,2,0,B|232:115|232:115|283:292,1,239.999992675781,2|0,3:2|0:0,0:0:0:0:
397,88,19212,6,0,L|409:17,1,59.9999981689454,2|0,3:2|0:0,0:0:0:0:
403,98,19512,6,0,L|415:27,1,59.9999981689454,2|0,0:0|0:0,0:0:0:0:
407,106,19812,6,0,L|419:35,1,59.9999981689454,10|0,0:0|0:0,0:0:0:0:
474,176,19962,1,2,0:0:0:0:
312,55,20112,6,0,P|303:12|296:-21,1,59.9999981689454,2|0,0:0|0:0,0:0:0:0:
368,214,20262,2,0,P|361:243|355:272,1,59.9999981689454,10|0,0:0|0:0,0:0:0:0:
511,61,20412,5,2,0:0:0:0:
511,61,20562,1,10,0:0:0:0:
271,150,20712,6,0,B|213:131|177:165|198:182|157:227|95:195,1,179.999994506836,2|0,3:2|0:0,0:0:0:0:
34,266,21012,2,0,B|11:271|-16:288|-16:288|-6:254|6:251,1,100,8|0,3:2|0:0,0:0:0:0:
43,127,21162,2,0,B|41:115|7:105|7:105|24:132|28:155,1,100,2|0,3:2|0:0,0:0:0:0:
106,334,21312,1,2,0:0:0:0:
106,334,21462,1,2,0:0:0:0:
106,334,21612,6,0,P|198:313|304:291,1,179.999994506836,2|0,3:2|0:0,0:0:0:0:
466,358,21912,1,2,0:0:0:0:
466,358,21987,1,0,0:0:0:0:
466,358,22062,2,0,P|418:347|369:337,1,59.9999981689454,0|0,0:0|0:0,0:0:0:0:
371,154,22212,1,10,0:0:0:0:
290,303,22362,2,0,P|301:255|311:206,1,59.9999981689454,2|0,0:0|0:0,0:0:0:0:
296,312,22512,2,0,P|307:264|317:215,1,59.9999981689454,2|0,0:0|0:0,0:0:0:0:
300,320,22662,2,0,P|311:272|321:223,1,59.9999981689454,10|0,0:0|0:0,0:0:0:0:
304,328,22812,6,0,P|315:280|325:231,1,59.9999981689454,2|0,0:0|0:0,0:0:0:0:
378,38,22962,2,0,P|384:67|391:96,1,59.9999981689454,10|0,0:0|0:0,0:0:0:0:
512,173,23112,6,0,B|452:214|452:214|256:148,1,239.999992675781,2|10,3:2|0:0,0:0:0:0:
118,15,23562,2,0,B|159:75|159:75|105:233,1,239.999992675781,2|2,3:2|0:0,0:0:0:0:
27,327,24012,6,0,B|84:282|151:326|128:346|188:387|243:336,1,225.000008583069,2|0,3:2|0:0,0:0:0:0:
310,284,24312,2,0,P|320:208|296:275,1,225.000008583069,2|0,3:2|0:0,0:0:0:0:
435,353,24612,2,0,P|447:273|483:69,1,225.000008583069,10|0,3:2|0:0,0:0:0:0:
409,59,24912,2,0,B|364:16|304:57|327:77|260:121|203:76,1,225.000008583069,2|0,3:2|0:0,0:0:0:0:
142,31,25212,5,2,0:0:0:0:
7,139,25362,1,10,0:0:0:0:
144,248,25512,2,0,P|131:186|115:109,1,119.999996337891,2|2,3:2|0:0,0:0:0:0:
286,294,25812,6,0,L|186:278,1,59.9999981689454,8|0,3:2|0:0,0:0:0:0:
97,335,25962,2,0,L|156:342,1,59.9999981689454,2|0,3:2|0:0,0:0:0:0:
273,199,26112,6,0,L|213:189,1,59.9999981689454,2|0,0:0|0:0,0:0:0:0:
84,240,26262,2,0,L|143:247,1,59.9999981689454,2|0,0:0|0:0,0:0:0:0:
370,36,26412,6,0,P|461:82|425:172,1,179.999994506836,2|0,3:2|0:0,0:0:0:0:
391,215,26712,2,0,L|245:195,1,119.999996337891,2|0,0:0|0:0,0:0:0:0:
393,321,27012,1,2,0:3:0:0:
393,321,27087,1,2,0:3:0:0:
393,321,27162,2,0,L|453:309,2,59.9999981689454,2|2|2,0:3|0:3|0:3,0:0:0:0:
200,356,27612,5,2,0:0:0:0:
200,356,27762,1,10,0:0:0:0:
60,148,27912,6,0,B|128:104|182:165|159:180|202:232|278:195,1,239.999992675781,2|10,3:2|0:0,0:0:0:0:
231,85,28362,2,0,B|156:103|156:170|183:167|181:249|101:259,1,239.999992675781,2|2,3:2|0:0,0:0:0:0:
353,52,28812,6,0,P|336:183|320:311,1,225.000008583069,2|0,3:2|0:0,0:0:0:0:
432,354,29112,2,0,P|417:242|403:130,1,225.000008583069,2|0,3:2|0:0,0:0:0:0:
197,249,29412,2,0,P|267:295|348:241,1,150.000005722046,10|0,3:2|0:0,0:0:0:0:
370,214,29712,5,2,3:2:0:0:
191,354,29862,1,10,0:0:0:0:
191,354,31212,6,0,B|147:375|116:338|136:324|97:289|39:322,1,150,2|0,3:2|0:0,0:0:0:0:
32,338,31512,1,2,0:0:0:0:
32,338,31587,1,0,0:0:0:0:
32,338,31662,2,0,L|43:403,1,50,0|0,0:0|0:0,0:0:0:0:
126,243,31812,2,0,L|141:109,1,100,10|0,0:0|0:0,0:0:0:0:
34,52,32112,6,0,L|44:115,1,50,2|0,0:0|0:0,0:0:0:0:
45,44,32262,2,0,L|55:107,1,50,10|0,0:0|0:0,0:0:0:0:
55,38,32562,6,0,L|65:101,1,50,10|0,0:0|0:0,0:0:0:0:
137,143,32712,1,2,3:0:0:0:
170,151,32787,1,2,0:3:0:0:
200,138,32862,1,2,0:3:0:0:
218,111,32937,1,2,0:3:0:0:
210,95,33612,6,0,B|270:136|329:78|297:56|352:-1|448:52,1,225.000008583069,2|0,3:2|0:0,0:0:0:0:
389,110,33912,6,0,B|322:139|274:72|310:56|265:-10|162:26,1,225.000008583069,2|0,3:2|0:0,0:0:0:0:
135,56,34212,6,0,P|169:215|178:286,1,225.000008583069,10|0,3:2|0:0,0:0:0:0:
77,353,34512,6,0,P|93:241|119:132,1,225.000008583069,2|0,3:2|0:0,0:0:0:0:
264,258,34812,6,0,P|361:240|292:187,1,225.000008583069,2|0,0:0|0:0,0:0:0:0:
228,345,35112,6,0,P|366:301|488:277,1,225.000008583069,2|0,3:2|0:0,0:0:0:0:
479,207,35412,6,0,P|489:155|500:126,1,75.0000028610231,10|0,3:2|0:0,0:0:0:0:
408,6,35562,2,0,P|419:41|425:78,1,75.0000028610231,2|0,3:2|0:0,0:0:0:0:
302,184,35712,6,0,P|312:132|323:103,1,75.0000028610231,2|0,0:0|0:0,0:0:0:0:
196,0,35862,2,0,P|207:35|213:72,1,75.0000028610231,2|0,0:0|0:0,0:0:0:0:
21,136,36012,6,0,B|72:90|141:142|109:165|167:223|229:181,1,225.000008583069,2|0,3:2|0:0,0:0:0:0:
228,167,36312,2,0,P|154:153|140:181,1,100,2|0,0:0|0:0,0:0:0:0:
84,241,36537,1,0,0:0:0:0:
92,248,36612,6,0,P|101:331|106:375,1,75.0000028610231,10|0,0:0|0:0,0:0:0:0:
100,254,36762,2,0,P|109:337|114:381,1,75.0000028610231,0|0,0:0|0:0,0:0:0:0:
258,330,37062,6,0,P|267:247|272:203,1,75.0000028610231,10|0,0:0|0:0,0:0:0:0:
265,337,37212,2,0,P|274:254|279:210,1,75.0000028610231,2|0,0:0|0:0,0:0:0:0:
273,344,37362,2,0,P|282:261|287:217,1,75.0000028610231,10|0,0:0|0:0,0:0:0:0:
450,169,37512,6,0,B|477:212|522:239|522:239|324:182,1,300.000011444092,2|10,3:2|0:0,0:0:0:0:
61,97,37962,6,0,B|34:140|-11:167|-11:167|187:110,1,300.000011444092,2|2,3:2|0:0,0:0:0:0:
318,58,38412,6,0,B|326:31|355:11|355:11|305:42|258:38|258:38|308:127|319:255|319:255|254:218|189:237|189:237|233:200|236:158,1,600,2|2,0:3|0:0,0:0:0:0:
485,288,40812,6,0,B|433:254|373:296|404:315|347:385|254:320,1,225.000008583069,2|0,3:2|0:0,0:0:0:0:
226,293,41112,1,2,0:0:0:0:
226,293,41187,1,0,0:0:0:0:
226,293,41262,2,0,L|306:275,1,75.0000028610231,0|0,0:0|0:0,0:0:0:0:
159,351,41412,2,0,L|79:333,1,75.0000028610231,8|0,0:0|0:0,0:0:0:0:
153,359,41712,6,0,L|73:341,1,75.0000028610231,2|0,0:0|0:0,0:0:0:0:
148,366,41862,2,0,L|68:348,1,75.0000028610231,8|0,0:0|0:0,0:0:0:0:
144,371,42162,6,0,L|64:353,1,75.0000028610231,10|0,0:0|0:0,0:0:0:0:
20,279,42312,1,2,3:0:0:0:
28,255,42387,1,2,0:3:0:0:
46,238,42462,1,2,0:3:0:0:
70,232,42537,1,2,0:3:0:0:
128,36,43212,6,0,B|166:97|113:152|92:120|38:174|76:248,1,225.000008583069,2|0,3:2|0:0,0:0:0:0:
142,219,43512,6,0,B|168:152|107:107|91:142|29:98|53:19,1,225.000008583069,2|0,3:2|0:0,0:0:0:0:
150,301,43812,6,0,P|241:268|243:141,1,225.000008583069,8|0,3:2|0:0,0:0:0:0:
377,136,44112,6,0,P|270:132|228:35,1,225.000008583069,2|0,3:2|0:0,0:0:0:0:
298,0,44412,5,2,0:0:0:0:
298,0,44562,1,10,0:0:0:0:
250,152,44712,5,2,3:2:0:0:
387,49,44862,1,2,0:0:0:0:
473,199,45012,6,0,P|466:241|452:319,1,75.0000028610231,10|0,3:2|0:0,0:0:0:0:
338,347,45162,2,0,P|331:310|325:273,1,75.0000028610231,2|0,3:2|0:0,0:0:0:0:
377,136,45312,6,0,P|383:172|389:209,1,75.0000028610231,2|0,0:0|0:0,0:0:0:0:
218,314,45462,2,0,P|224:278|230:241,1,75.0000028610231,2|0,0:0|0:0,0:0:0:0:
296,83,45612,6,0,B|241:115|183:75|214:48|142:-6|67:52,1,225.000008583069,2|0,3:2|0:0,0:0:0:0:
39,95,45912,1,2,0:0:0:0:
39,95,45987,1,0,0:0:0:0:
39,95,46062,2,0,L|56:185,1,75.0000028610231,0|0,0:0|0:0,0:0:0:0:
130,239,46212,6,0,L|143:165,1,75.0000028610231,10|0,0:0|0:0,0:0:0:0:
137,250,46362,2,0,L|150:176,1,75.0000028610231,2|0,0:0|0:0,0:0:0:0:
143,257,46662,6,0,L|156:183,1,75.0000028610231,8|0,0:0|0:0,0:0:0:0:
149,266,46812,2,0,L|162:192,1,75.0000028610231,2|0,0:0|0:0,0:0:0:0:
154,274,46962,2,0,L|167:200,1,75.0000028610231,10|0,0:0|0:0,0:0:0:0:
74,346,47112,6,0,B|130:378|191:325|155:305|202:245|316:279,1,225.000008583069,2|0,3:2|0:0,0:0:0:0:
318,325,47412,6,0,L|234:307,1,75.0000028610231,2|0,0:0|0:0,0:0:0:0:
387,221,47562,2,0,L|303:203,1,75.0000028610231,2|0,0:0|0:0,0:0:0:0:
326,319,47712,2,0,L|242:301,1,75.0000028610231,2|0,0:0|0:0,0:0:0:0:
395,215,47862,2,0,L|311:197,1,75.0000028610231,2|0,0:0|0:0,0:0:0:0:
452,299,48017,6,0,B|500:279|500:279|456:88|456:88|509:73,1,300.000011444092,6|0,3:2|0:0,0:0:0:0:
378,26,48357,5,2,3:2:0:0:
378,26,48443,1,0,0:0:0:0:
378,26,48528,2,0,L|364:126,1,75.0000028610231,2|0,0:0|0:0,0:0:0:0:
246,153,48698,5,10,3:2:0:0:
246,153,48784,1,0,0:0:0:0:
246,153,48869,2,0,L|232:53,1,75.0000028610231,2|0,0:0|0:0,0:0:0:0:
122,18,49039,5,2,3:2:0:0:
122,18,49124,1,0,0:0:0:0:
122,18,49210,2,0,L|108:118,1,75.0000028610231,10|0,0:0|0:0,0:0:0:0:
15,185,49380,5,2,0:0:0:0:
15,185,49465,1,0,0:0:0:0:
15,185,49551,2,0,P|49:168|106:183,1,75.0000028610231,8|0,0:0|0:0,0:0:0:0:
152,298,49721,5,2,3:2:0:0:
152,298,49806,1,0,0:0:0:0:
152,298,49892,2,0,P|186:315|243:300,1,75.0000028610231,2|0,0:0|0:0,0:0:0:0:
476,134,50723,6,0,B|416:101|369:145|389:170|330:229|273:176,1,225.000008583069,2|0,3:2|0:0,0:0:0:0:
207,123,51050,1,2,0:0:0:0:
207,123,51135,1,0,0:0:0:0:
207,123,51220,2,0,L|223:51,1,59.9999981689454
96,4,51390,2,0,L|119:144,1,119.999996337891,10|0,0:0|0:0,0:0:0:0:
17,238,51731,6,0,L|33:166,1,59.9999981689454,2|0,0:0|0:0,0:0:0:0:
23,249,51902,2,0,L|39:177,1,59.9999981689454,8|0,0:0|0:0,0:0:0:0:
29,259,52236,6,0,L|45:187,1,59.9999981689454,8|0,0:0|0:0,0:0:0:0:
168,318,52406,1,2,3:0:0:0:
164,298,52491,1,2,0:3:0:0:
160,278,52576,1,2,0:3:0:0:
156,259,52661,1,2,0:3:0:0:
295,356,53412,6,0,B|356:394|411:341|379:320|433:266|507:304,1,225.000008583069,2|0,3:2|0:0,0:0:0:0:
478,370,53747,6,0,B|411:396|366:335|401:319|357:257|278:281,1,225.000008583069,2|0,3:2|0:0,0:0:0:0:
213,323,54082,6,0,P|238:155|248:61,1,225.000008583069,10|0,3:2|0:0,0:0:0:0:
170,20,54417,6,0,P|183:131|201:242,1,225.000008583069,2|0,3:2|0:0,0:0:0:0:
313,194,54752,5,2,0:0:0:0:
313,194,54920,1,10,0:0:0:0:
244,100,55087,5,2,3:2:0:0:
201,242,55255,1,2,0:0:0:0:
381,105,55423,6,0,P|454:83|482:78,1,75.0000028610231,10|0,3:2|0:0,0:0:0:0:
325,28,55590,2,0,P|252:6|224:1,1,75.0000028610231,2|0,3:2|0:0,0:0:0:0:
376,116,55758,6,0,P|449:94|477:89,1,75.0000028610231,2|0,0:0|0:0,0:0:0:0:
320,39,55925,2,0,P|247:17|219:12,1,75.0000028610231,2|0,0:0|0:0,0:0:0:0:
98,149,56093,6,0,P|22:129|65:27,1,179.999994506836,2|0,3:2|0:0,0:0:0:0:
64,38,56431,1,2,0:0:0:0:
64,38,56516,1,0,0:0:0:0:
64,38,56601,2,0,L|146:55,1,59.9999981689454
255,120,56770,6,0,L|173:137,1,59.9999981689454,10|0,0:0|0:0,0:0:0:0:
263,130,56940,2,0,L|181:147,1,59.9999981689454,2|0,0:0|0:0,0:0:0:0:
271,137,57279,6,0,L|189:154,1,59.9999981689454,8|0,0:0|0:0,0:0:0:0:
279,147,57448,2,0,L|197:164,1,59.9999981689454,2|0,0:0|0:0,0:0:0:0:
175,226,57618,1,10,0:0:0:0:
328,285,57787,1,2,3:2:0:0:
328,285,57954,1,2,0:0:0:0:
209,365,58122,1,10,0:0:0:0:
241,293,58289,1,2,3:2:0:0:
381,354,58457,2,0,P|421:341|486:327,1,80,2|2,0:0|0:0,0:0:0:0:
490,80,58808,6,0,B|409:38|340:107|340:107|381:85|422:90,1,239.999992675781,2|0,0:3|0:0,0:0:0:0:
8,328,61832,6,0,B|69:366|124:313|92:292|146:238|220:276,1,225.000008583069,2|0,3:2|0:0,0:0:0:0:
263,356,62207,1,2,0:0:0:0:
263,356,62300,1,0,0:0:0:0:
263,356,62394,2,0,L|355:342,1,75.0000028610231
423,263,62582,2,0,L|331:249,1,75.0000028610231,10|0,0:0|0:0,0:0:0:0:
426,255,62957,6,0,L|334:241,1,75.0000028610231,2|0,0:0|0:0,0:0:0:0:
432,248,63144,2,0,L|340:234,1,75.0000028610231,8|0,0:0|0:0,0:0:0:0:
438,242,63519,6,0,L|338:226,1,75.0000028610231,8|0,0:0|0:0,0:0:0:0:
292,165,63707,1,2,3:0:0:0:
289,140,63800,1,2,0:3:0:0:
296,116,63894,1,2,0:3:0:0:
313,98,63988,1,2,0:3:0:0:
336,114,64849,6,0,B|266:126|226:75|256:65|217:-10|119:10,1,225.000008583069,2|0,3:2|0:0,0:0:0:0:
146,110,65224,6,0,B|215:122|255:71|225:61|264:-14|362:6,1,225.000008583069,2|0,3:2|0:0,0:0:0:0:
410,58,65624,6,0,P|396:132|368:299,1,225.000008583069,10|0,3:2|0:0,0:0:0:0:
309,369,65999,6,0,P|290:258|270:147,1,225.000008583069,2|0,3:2|0:0,0:0:0:0:
240,69,66374,5,2,0:0:0:0:
146,182,66561,1,10,0:0:0:0:
70,108,66749,1,2,3:2:0:0:
70,108,66936,1,2,0:0:0:0:
164,268,67124,6,0,P|169:223|175:151,1,75.0000028610231,10|0,3:2|0:0,0:0:0:0:
56,342,67311,2,0,P|51:297|45:225,1,75.0000028610231,2|0,3:2|0:0,0:0:0:0:
154,272,67499,6,0,P|159:227|165:155,1,75.0000028610231,2|0,0:0|0:0,0:0:0:0:
46,346,67686,2,0,P|41:301|35:229,1,75.0000028610231,2|0,0:0|0:0,0:0:0:0:
226,344,67874,6,0,B|272:318|272:318|342:345|342:345|384:299|384:299|336:305,1,225.000008583069,2|0,3:2|0:0,0:0:0:0:
295,228,68249,1,2,0:0:0:0:
295,228,68342,1,0,0:0:0:0:
295,228,68436,2,0,L|312:138,1,75.0000028610231
441,184,68624,6,0,L|429:109,1,75.0000028610231,10|0,0:0|0:0,0:0:0:0:
435,190,68811,2,0,L|423:115,1,75.0000028610231,2|0,0:0|0:0,0:0:0:0:
428,196,69186,6,0,L|416:121,1,75.0000028610231,10|0,0:0|0:0,0:0:0:0:
428,196,69374,2,0,L|416:121,1,75.0000028610231,2|0,0:0|0:0,0:0:0:0:
422,201,69561,2,0,L|410:126,1,75.0000028610231,10|0,0:0|0:0,0:0:0:0:
337,59,69749,5,2,3:2:0:0:
201,104,69936,1,2,0:0:0:0:
137,15,70124,1,2,0:0:0:0:
256,43,70311,1,2,0:0:0:0:
122,147,70499,1,2,0:0:0:0:
256,220,70686,1,2,0:0:0:0:
338,127,70874,5,2,0:0:0:0:
119,265,71249,1,2,0:0:0:0:
