osu file format v14

[General]
AudioFilename: audio.mp3
AudioLeadIn: 0
PreviewTime: 40137
Countdown: 0
SampleSet: Soft
StackLeniency: 0.3
Mode: 0
LetterboxInBreaks: 0
WidescreenStoryboard: 1

[Editor]
Bookmarks: 912,24012,48012,61831
DistanceSpacing: 1.3
BeatDivisor: 4
GridSize: 32
TimelineZoom: 3.67

[Metadata]
Title:SLUG (feat. d0llywood1)
TitleUnicode:SLUG (feat. d0llywood1)
Artist:NOVAGANG
ArtistUnicode:NOVAGANG
Creator:Azinlen
Version:FROSKYA & AZINLEN'S HARD
Source:
Tags:prblm hiphop hip-hop hip hop english hyperpop glitchcore glitch revialink froskya flyzystyle flyzy
BeatmapID:3268016
BeatmapSetID:1401925

[Difficulty]
HPDrainRate:4
CircleSize:3.6
OverallDifficulty:6
ApproachRate:8
SliderMultiplier:1.3
SliderTickRate:1

[Events]
//Background and Video events
0,0,"michal-mancewicz-b_ZeDZJ6R2I-unsplash.jpg",0,0
//Break Periods
//Storyboard Layer 0 (Background)
//Storyboard Layer 1 (Fail)
//Storyboard Layer 2 (Pass)
//Storyboard Layer 3 (Foreground)
//Storyboard Layer 4 (Overlay)
//Storyboard Sound Samples

[TimingPoints]
12,300,4,2,1,70,1,0
12,-90.9090909090909,4,2,1,70,0,0
612,-111.111111111111,4,2,1,70,0,0
2412,-100,4,2,1,70,0,0
15312,-100,4,2,1,5,0,0
16212,-100,4,2,1,70,0,0
48017,340.909090909091,4,2,1,70,1,0
48017,-100,4,2,1,70,0,0
50723,340.909090909091,4,2,1,70,1,0
50723,-100,4,2,1,70,0,0
50893,340.909090909091,4,2,1,70,1,0
51050,340.909090909091,4,2,1,70,1,0
51220,-100,4,2,1,70,0,0
52236,340.909090909091,4,2,1,70,1,0
52236,-100,4,2,1,70,0,0
53412,335.195530726257,4,2,1,70,1,0
53412,-100,4,2,1,70,0,0
56093,338.983050847458,4,2,1,70,1,0
57787,335.195530726257,4,2,1,70,1,0
58808,375,4,2,1,70,1,0
58808,-100,4,2,0,70,0,0
61831,-100,4,2,1,70,0,0
61832,375,4,2,1,70,1,0
64849,375,4,2,1,70,1,0
64849,-100,4,2,1,70,0,0
65624,375,4,2,1,70,1,0
65624,-100,4,2,1,70,0,0

[Colours]
Combo1 : 207,210,211
Combo2 : 73,73,73
Combo3 : 194,219,224
Combo4 : 83,102,115

[HitObjects]
39,35,12,6,0,P|90:19|105:91,1,143.000004364014,4|0,3:2|0:0,0:0:0:0:
93,106,612,6,0,L|87:164,1,58.4999982147217,2|0,3:2|0:0,0:0:0:0:
165,196,912,2,0,L|171:254,1,58.4999982147217,0|0,3:0|0:0,0:0:0:0:
183,350,1212,1,2,0:0:0:0:
183,350,1362,2,0,P|217:345|247:341,1,58.4999982147217,2|2,0:0|3:2,0:0:0:0:
292,263,1662,1,0,0:0:0:0:
360,358,1812,1,2,3:2:0:0:
360,358,1962,1,2,3:2:0:0:
434,312,2112,1,0,0:0:0:0:
434,312,2187,1,0,0:0:0:0:
434,312,2262,1,0,0:0:0:0:
369,219,2412,6,0,P|357:149|352:85,1,130,2|2,3:2|0:0,0:0:0:0:
350,6,2862,1,2,0:0:0:0:
278,50,3012,2,0,B|220:44|220:44|210:57|210:57|140:52,1,130,10|2,0:0|0:0,0:0:0:0:
69,48,3462,1,10,0:0:0:0:
104,124,3612,2,0,B|115:156|115:156|104:190,1,65,2|0,0:0|0:0,0:0:0:0:
29,222,3912,2,0,B|19:251|19:251|30:283,1,65,2|0,3:2|0:0,0:0:0:0:
85,347,4212,1,10,0:0:0:0:
142,284,4362,2,0,B|166:313|166:313|263:301,1,130,2|0,3:2|0:0,0:0:0:0:
353,324,4812,6,0,P|372:300|367:248,1,65,2|0,3:2|0:0,0:0:0:0:
308,214,5112,2,0,L|274:218,2,32.5,2|0|0,3:2|0:0|0:0,0:0:0:0:
353,143,5412,2,0,L|420:133,1,65,10|0,3:2|0:0,0:0:0:0:
500,119,5712,2,0,L|506:150,2,32.5,2|0|10,3:2|0:0|0:0,0:0:0:0:
439,42,6012,6,0,L|374:32,1,65,2|0,0:0|0:0,0:0:0:0:
290,25,6312,1,2,3:2:0:0:
270,107,6462,1,0,0:0:0:0:
187,88,6612,1,10,3:2:0:0:
199,171,6762,2,0,L|218:318,1,130,2|0,3:2|0:0,0:0:0:0:
132,351,7212,6,0,P|100:356|72:340,1,65,2|0,3:2|0:0,0:0:0:0:
53,258,7512,2,0,L|12:253,2,32.5,2|0|0,0:0|0:0|0:0,0:0:0:0:
102,189,7812,2,0,P|133:183|161:199,1,65,10|2,0:0|0:0,0:0:0:0:
211,266,8112,2,0,L|215:299,2,32.5,2|0|10,0:0|0:0|0:0,0:0:0:0:
284,224,8412,2,0,L|293:151,1,65,2|8,0:0|0:0,0:0:0:0:
375,170,8712,2,0,L|367:234,1,65,2|0,3:2|0:0,0:0:0:0:
315,301,9012,1,10,0:0:0:0:
357,373,9162,1,2,3:2:0:0:
357,373,9312,2,0,P|391:368|446:362,1,65,0|0,0:0|0:0,0:0:0:0:
467,278,9612,5,2,3:2:0:0:
380,139,10212,1,2,3:2:0:0:
283,265,10812,1,2,3:2:0:0:
196,126,11412,1,2,3:2:0:0:
143,224,11712,1,2,0:3:0:0:
143,224,11787,1,2,0:3:0:0:
143,224,11862,1,2,0:3:0:0:
46,165,12012,6,0,L|38:93,1,65,2|0,3:2|0:0,0:0:0:0:
92,34,12312,1,0,0:0:0:0:
167,91,12462,1,2,0:0:0:0:
167,91,12537,1,2,0:0:0:0:
167,91,12612,2,0,P|198:98|240:77,1,65,10|2,0:0|0:0,0:0:0:0:
280,21,12912,2,0,P|310:10|341:17,1,65,2|10,0:0|0:0,0:0:0:0:
420,50,13212,2,0,P|407:83|400:118,1,65,2|10,0:0|0:0,0:0:0:0:
327,155,13512,2,0,P|340:188|347:223,1,65,2|0,3:2|0:0,0:0:0:0:
408,274,13812,1,10,0:0:0:0:
364,346,13962,2,0,P|312:309|232:317,1,130,2|0,3:2|0:0,0:0:0:0:
171,347,14412,6,0,B|140:326|140:326|150:229,2,130,2|2|10,3:2|3:2|3:2,0:0:0:0:
247,309,15162,1,0,0:0:0:0:
247,309,16212,1,10,3:2:0:0:
321,269,16362,2,0,P|313:211|304:126,1,130,2|0,3:2|0:0,0:0:0:0:
362,60,16812,5,2,3:2:0:0:
362,60,16962,2,0,P|329:37|304:37,1,65,0|0,0:0|0:0,0:0:0:0:
235,84,17262,1,2,0:0:0:0:
235,84,17337,1,2,0:0:0:0:
235,84,17412,2,0,P|202:107|177:107,1,65,10|2,0:0|0:0,0:0:0:0:
117,48,17712,1,2,0:0:0:0:
43,89,17862,1,10,0:0:0:0:
81,163,18012,2,0,L|90:250,1,65,2|10,0:0|0:0,0:0:0:0:
5,248,18312,2,0,L|-4:335,1,65,2|0,3:2|0:0,0:0:0:0:
50,378,18612,1,10,0:0:0:0:
122,334,18762,2,0,P|173:321|270:297,1,130,2|0,3:2|0:0,0:0:0:0:
343,278,19212,6,0,B|417:288|391:328|465:340,2,130,2|2|10,3:2|0:0|0:0,0:0:0:0:
258,284,19962,1,2,0:0:0:0:
249,199,20112,2,0,P|257:164|259:153,2,32.5,2|0|10,0:0|0:0|0:0,0:0:0:0:
171,232,20412,1,2,0:0:0:0:
171,232,20562,2,0,P|120:219|23:195,1,130,10|0,0:0|0:0,0:0:0:0:
21,118,21012,1,8,3:2:0:0:
21,118,21162,1,2,3:2:0:0:
78,56,21312,1,2,0:0:0:0:
145,106,21462,1,2,0:0:0:0:
210,32,21612,6,0,P|272:22|319:63,1,130,2|2,3:2|0:0,0:0:0:0:
346,143,22062,1,0,0:0:0:0:
425,114,22212,1,10,0:0:0:0:
474,182,22362,1,2,0:0:0:0:
474,182,22512,1,2,0:0:0:0:
428,253,22662,2,0,L|437:302,2,32.5,10|0|2,0:0|0:0|0:0,0:0:0:0:
347,230,22962,1,10,0:0:0:0:
347,230,23112,2,0,L|259:240,1,65,2|0,3:2|0:0,0:0:0:0:
207,278,23412,1,10,0:0:0:0:
163,204,23562,2,0,L|93:191,2,65,2|0|2,3:2|0:0|0:0,0:0:0:0:
237,163,24012,6,0,B|259:128|259:128|249:78,1,65,2|0,3:2|0:0,0:0:0:0:
206,34,24312,2,0,B|171:12|171:12|121:22,1,65,2|0,3:2|0:0,0:0:0:0:
71,55,24612,2,0,B|49:90|49:90|59:140,1,65,10|0,3:2|0:0,0:0:0:0:
99,192,24912,2,0,L|163:204,1,65,2|0,3:2|0:0,0:0:0:0:
235,248,25212,5,2,0:0:0:0:
235,248,25362,1,10,0:0:0:0:
161,289,25512,2,0,L|97:277,1,65,2|2,3:2|0:0,0:0:0:0:
35,334,25812,1,8,3:2:0:0:
35,334,25962,1,2,3:2:0:0:
114,362,26112,2,0,L|177:373,1,65,2|2,0:0|0:0,0:0:0:0:
252,333,26412,6,0,B|285:328|285:328|308:349,1,65,2|0,3:2|0:0,0:0:0:0:
380,302,26712,2,0,L|368:233,1,65,2|0,0:0|0:0,0:0:0:0:
414,166,27012,1,2,0:3:0:0:
466,99,27162,2,0,L|469:49,2,32.5,2|2|2,0:3|0:3|0:3,0:0:0:0:
306,59,27612,5,2,0:0:0:0:
306,59,27762,1,10,0:0:0:0:
225,83,27912,2,0,B|165:105|165:105|109:68,1,130,2|10,3:2|0:0,0:0:0:0:
54,132,28362,2,0,B|106:168|106:168|108:234,1,130,2|2,3:2|0:0,0:0:0:0:
49,295,28812,5,2,3:2:0:0:
112,350,28962,1,0,0:0:0:0:
175,291,29112,1,2,3:2:0:0:
175,291,29187,1,0,0:0:0:0:
175,291,29262,2,0,L|251:305,1,65,0|10,0:0|3:2,0:0:0:0:
315,266,29562,1,0,0:0:0:0:
247,214,29712,2,0,L|236:159,3,32.5,2|0|10|0,3:2|0:0|0:0|0:0,0:0:0:0:
448,54,31212,6,0,L|372:41,1,65,2|0,3:2|0:0,0:0:0:0:
314,85,31512,1,2,0:0:0:0:
314,85,31587,1,0,0:0:0:0:
314,85,31662,2,0,B|321:113|321:113|318:125|318:125|332:177,1,65,0|10,0:0|0:0,0:0:0:0:
457,252,32112,5,2,0:0:0:0:
457,252,32262,2,0,B|450:280|450:280|453:292|453:292|439:344,1,65,10|0,0:0|0:0,0:0:0:0:
376,363,32562,1,10,0:0:0:0:
317,302,32712,2,0,L|281:314,2,32.5,2|2|2,3:0|0:3|0:3,0:0:0:0:
65,349,33612,6,0,B|47:317|47:317|61:290,1,65,2|0,3:2|0:0,0:0:0:0:
120,233,33912,2,0,L|205:246,1,65,2|0,3:2|0:0,0:0:0:0:
254,194,34212,2,0,B|272:162|272:162|258:135,1,65,10|0,3:2|0:0,0:0:0:0:
191,86,34512,1,2,3:2:0:0:
191,86,34662,1,0,0:0:0:0:
258,35,34812,6,0,L|322:25,1,65,2|0,0:0|0:0,0:0:0:0:
363,99,35112,2,0,L|427:108,1,65,2|0,3:2|0:0,0:0:0:0:
484,171,35412,1,10,3:2:0:0:
484,171,35562,1,2,3:2:0:0:
402,194,35712,1,2,0:0:0:0:
402,194,35862,1,2,0:0:0:0:
461,253,36012,6,0,B|474:278|474:278|456:310,1,65,2|0,3:2|0:0,0:0:0:0:
399,372,36312,1,2,0:0:0:0:
399,372,36462,2,0,L|322:358,1,65,0|10,0:0|0:0,0:0:0:0:
273,301,36762,2,0,L|209:312,1,65,0|0,0:0|0:0,0:0:0:0:
139,361,37062,1,10,0:0:0:0:
139,361,37137,1,0,0:0:0:0:
139,361,37212,5,2,0:0:0:0:
77,303,37362,1,10,0:0:0:0:
147,256,37512,2,0,B|165:224|165:224|151:198,1,65,2|0,3:2|0:0,0:0:0:0:
81,153,37812,1,10,0:0:0:0:
81,153,37962,1,2,3:2:0:0:
143,96,38112,2,0,L|126:23,1,65,0|2,0:0|0:0,0:0:0:0:
256,192,38412,12,0,40212,0:0:0:0:
128,32,40812,6,0,L|143:96,1,65,2|0,3:2|0:0,0:0:0:0:
221,150,41112,1,2,0:0:0:0:
221,150,41187,1,0,0:0:0:0:
221,150,41262,2,0,B|246:163|246:163|278:145,1,65,0|8,0:0|0:0,0:0:0:0:
411,41,41712,5,2,0:0:0:0:
411,41,41862,2,0,B|407:73|407:73|401:83|401:83|397:110,1,65,8|0,0:0|0:0,0:0:0:0:
459,162,42162,1,10,0:0:0:0:
385,204,42312,2,0,L|396:245,2,32.5,2|2|2,3:0|0:3|0:3,0:0:0:0:
487,338,43212,6,0,B|455:320|455:320|429:333,1,65,2|0,3:2|0:0,0:0:0:0:
350,361,43512,2,0,L|279:350,1,65,2|0,3:2|0:0,0:0:0:0:
223,293,43812,2,0,B|241:261|241:261|227:235,1,65,8|0,3:2|0:0,0:0:0:0:
181,165,44112,1,2,3:2:0:0:
181,165,44262,1,0,0:0:0:0:
97,178,44412,6,0,L|32:187,1,65,2|10,0:0|0:0,0:0:0:0:
0,106,44712,2,0,L|64:96,1,65,2|2,3:2|0:0,0:0:0:0:
117,30,45012,1,10,3:2:0:0:
117,30,45162,1,2,3:2:0:0:
192,78,45312,1,2,0:0:0:0:
192,78,45462,1,2,0:0:0:0:
258,25,45612,6,0,B|290:7|290:7|315:20,1,65,2|0,3:2|0:0,0:0:0:0:
381,88,45912,1,2,0:0:0:0:
381,88,45987,1,0,0:0:0:0:
381,88,46062,2,0,L|458:76,1,65,0|10,0:0|0:0,0:0:0:0:
481,154,46362,2,0,L|416:164,1,65,2|0,0:0|0:0,0:0:0:0:
359,226,46662,1,8,0:0:0:0:
427,284,46812,5,2,0:0:0:0:
427,284,46962,1,10,0:0:0:0:
365,342,47112,2,0,L|300:331,1,65,2|0,3:2|0:0,0:0:0:0:
300,331,48017,6,0,L|316:243,1,65,6|0,3:2|0:0,0:0:0:0:
219,234,48357,2,0,L|208:169,1,65,2|2,3:2|0:0,0:0:0:0:
199,128,48613,1,0,0:0:0:0:
199,128,48698,2,0,P|170:141|138:139,1,65,10|2,3:2|0:0,0:0:0:0:
91,69,49039,2,0,P|120:55|152:57,1,65,2|10,3:2|0:0,0:0:0:0:
236,48,49380,2,0,L|274:40,3,32.5,2|0|8|0,0:0|0:0|0:0|0:0,0:0:0:0:
304,63,49721,2,0,L|335:69,3,32.5,2|0|2|0,3:2|0:0|0:0|0:0,0:0:0:0:
375,55,50062,1,0,0:0:0:0:
375,55,50723,6,0,P|404:67|422:93,1,65,2|0,3:2|0:0,0:0:0:0:
352,129,51050,2,0,P|339:158|313:176,1,65,2|0,0:0|0:0,0:0:0:0:
272,102,51390,2,0,L|187:119,1,65,10|0,0:0|0:0,0:0:0:0:
125,133,51731,1,2,0:0:0:0:
125,133,51817,1,0,0:0:0:0:
125,133,51902,1,8,0:0:0:0:
165,206,52072,1,0,0:0:0:0:
89,237,52236,2,0,L|71:310,1,65,8|2,0:0|3:0,0:0:0:0:
93,337,52491,1,2,0:3:0:0:
93,337,52576,1,2,0:3:0:0:
93,337,53412,6,0,P|123:340|163:316,1,65,2|0,3:2|0:0,0:0:0:0:
237,338,53747,2,0,P|240:308|216:268,1,65,2|0,3:2|0:0,0:0:0:0:
192,250,53998,1,0,0:0:0:0:
192,250,54082,1,10,3:2:0:0:
248,187,54249,1,0,0:0:0:0:
181,134,54417,2,0,L|197:60,1,65,2|0,3:2|0:0,0:0:0:0:
223,39,54668,1,0,0:0:0:0:
223,39,54752,2,0,B|255:30|255:30|285:42,1,65,2|10,0:0|0:0,0:0:0:0:
313,121,55087,2,0,B|345:130|345:130|375:118,1,65,2|2,3:2|0:0,0:0:0:0:
438,62,55423,1,10,3:2:0:0:
438,62,55590,2,0,L|416:208,1,130,2|2,3:2|0:0,0:0:0:0:
434,273,56093,6,0,P|402:277|373:264,1,65,2|0,3:2|0:0,0:0:0:0:
315,201,56431,2,0,L|273:208,3,32.5,2|0|0|0,0:0|0:0|0:0|0:0,0:0:0:0:
257,240,56770,2,0,P|227:253|196:248,1,65,10|2,0:0|0:0,0:0:0:0:
127,198,57109,1,0,0:0:0:0:
127,198,57194,1,0,0:0:0:0:
127,198,57279,1,8,0:0:0:0:
177,129,57448,1,2,0:0:0:0:
148,49,57618,1,10,0:0:0:0:
148,49,57787,2,0,L|212:39,1,65,2|2,3:2|0:0,0:0:0:0:
281,89,58122,5,10,0:0:0:0:
347,37,58289,1,2,3:2:0:0:
406,96,58457,1,2,0:0:0:0:
472,44,58624,1,2,0:0:0:0:
256,192,58808,12,0,60308,0:0:0:0:
466,50,61832,6,0,L|455:114,1,65,2|0,3:2|0:0,0:0:0:0:
499,198,62207,1,2,0:0:0:0:
499,198,62300,1,0,0:0:0:0:
499,198,62394,2,0,L|490:244,1,32.5
485,272,62582,2,0,B|446:239|446:239|362:268,1,130,10|2,0:0|0:0,0:0:0:0:
298,308,63144,2,0,B|250:325|250:325|181:269,1,130,8|8,0:0|0:0,0:0:0:0:
130,214,63707,2,0,L|141:159,3,32.5,2|2|2|2,3:0|0:3|0:3|0:3,0:0:0:0:
136,182,64849,6,0,L|121:98,1,65,2|0,3:2|0:0,0:0:0:0:
52,95,65224,1,2,3:2:0:0:
52,95,65317,1,0,0:0:0:0:
52,95,65411,2,0,L|61:48,1,32.5,0|0,0:0|0:0,0:0:0:0:
88,18,65624,2,0,B|130:42|130:42|220:28,1,130,10|2,3:2|3:2,0:0:0:0:
250,56,66092,1,0,0:0:0:0:
250,56,66186,2,0,L|242:98,2,32.5,0|0|2,0:0|0:0|0:0,0:0:0:0:
328,24,66561,1,10,0:0:0:0:
379,91,66749,2,0,L|365:160,1,65,2|2,3:2|0:0,0:0:0:0:
339,235,67124,5,10,3:2:0:0:
339,235,67311,1,2,3:2:0:0:
417,279,67499,1,2,0:0:0:0:
417,279,67686,1,2,0:0:0:0:
362,343,67874,2,0,L|214:329,1,130,2|2,3:2|0:0,0:0:0:0:
190,329,68342,1,0,0:0:0:0:
190,329,68436,2,0,L|182:279,2,32.5,0|0|10,0:0|0:0|0:0,0:0:0:0:
113,365,68811,6,0,L|100:290,1,65,2|0,0:0|0:0,0:0:0:0:
26,262,69186,1,10,0:0:0:0:
26,262,69374,2,0,L|37:197,1,65,2|10,0:0|0:0,0:0:0:0:
14,116,69749,6,0,B|49:148|49:148|160:124,1,130,2|2,3:2|0:0,0:0:0:0:
192,73,70311,1,2,0:0:0:0:
192,73,70499,2,0,B|214:98|214:98|212:144,1,65,2|2,0:0|0:0,0:0:0:0:
170,203,70874,6,0,B|250:220|250:220|285:188,2,130,2|2|0,0:0|0:0|0:0,0:0:0:0:
