osu file format v14

[General]
AudioFilename: audio.mp3
AudioLeadIn: 0
PreviewTime: -1
Countdown: 1
SampleSet: Normal
StackLeniency: 0.4
Mode: 3
LetterboxInBreaks: 0
SpecialStyle: 0
WidescreenStoryboard: 0

[Editor]
Bookmarks: 4106,18106,28137,88071
DistanceSpacing: 1.3
BeatDivisor: 8
GridSize: 8
TimelineZoom: 1.8

[Metadata]
Title:Call Me Maybe Aussie Blokes Edition
TitleUnicode:Call Me Maybe Aussie Blokes Edition
Artist:NOVA FM
ArtistUnicode:NOVA FM
Creator:Melt3dCheeze
Version:Cheers Mate
Source:Carly Rae Jespen
Tags:cunt aus straya australia memes dank singing blokes
BeatmapID:1048132
BeatmapSetID:491947

[Difficulty]
HPDrainRate:8
CircleSize:4
OverallDifficulty:7.2
ApproachRate:5
SliderMultiplier:1.00000000596046
SliderTickRate:1

[Events]
//Background and Video events
0,0,"strayabg.png",0,0
//Break Periods
//Storyboard Layer 0 (Background)
//Storyboard Layer 1 (Fail)
//Storyboard Layer 2 (Pass)
//Storyboard Layer 3 (Foreground)
//Storyboard Sound Samples

[TimingPoints]
115,499.5,4,1,0,5,1,0
17856,166.666666666667,4,1,0,5,1,0
18106,499.5,4,1,0,5,1,0
24106,125,4,1,0,5,1,0
24539,499.5,4,1,0,5,1,0
28117,499.5,4,1,0,5,1,1
44113,4000,4,1,0,5,1,1
45594,499.500499500499,4,1,0,5,1,1
60127,3999.9,4,1,0,5,1,0
64066,499.5,4,1,0,5,1,0
88047,499.5,4,1,0,5,1,1
120514,-100,4,1,0,5,0,0

[HitObjects]
64,192,115,5,0,0:0:0:0:
448,192,115,1,0,0:0:0:0:
64,192,364,1,0,0:0:0:0:
64,192,614,1,0,0:0:0:0:
448,192,614,1,0,0:0:0:0:
448,192,864,1,0,0:0:0:0:
64,192,1114,1,0,0:0:0:0:
448,192,1114,1,0,0:0:0:0:
64,192,1363,1,0,0:0:0:0:
64,192,1613,1,0,0:0:0:0:
448,192,1613,1,0,0:0:0:0:
448,192,1863,1,0,0:0:0:0:
64,192,2113,1,0,0:0:0:0:
448,192,2113,1,0,0:0:0:0:
64,192,2362,1,0,0:0:0:0:
64,192,2612,1,0,0:0:0:0:
448,192,2612,1,0,0:0:0:0:
448,192,2862,1,0,0:0:0:0:
64,192,3112,1,0,0:0:0:0:
448,192,3112,1,0,0:0:0:0:
64,192,3361,1,0,0:0:0:0:
64,192,3611,1,0,0:0:0:0:
448,192,3611,1,0,0:0:0:0:
448,192,3861,1,0,0:0:0:0:
64,192,4111,1,0,0:0:0:0:
448,192,4111,1,0,0:0:0:0:
64,192,4606,128,0,12106:0:0:0:0:
448,192,4606,128,0,4856:0:0:0:0:
192,192,5106,128,0,5356:0:0:0:0:
320,192,5606,128,0,5856:0:0:0:0:
448,192,6106,128,0,6356:0:0:0:0:
320,192,6106,128,0,6356:0:0:0:0:
192,192,6356,128,0,6606:0:0:0:0:
448,192,6606,128,0,6856:0:0:0:0:
320,192,6856,128,0,7106:0:0:0:0:
448,192,7106,128,0,7356:0:0:0:0:
320,192,7356,128,0,7606:0:0:0:0:
192,192,7606,128,0,7856:0:0:0:0:
320,192,7856,128,0,8106:0:0:0:0:
448,192,7856,128,0,8106:0:0:0:0:
192,192,8356,1,0,0:0:0:0:
320,192,8606,1,0,0:0:0:0:
448,192,8856,1,0,0:0:0:0:
320,192,9106,1,0,0:0:0:0:
192,192,9356,1,0,0:0:0:0:
320,192,9606,1,0,0:0:0:0:
192,192,9856,128,0,10106:0:0:0:0:
320,192,9856,128,0,10106:0:0:0:0:
448,192,9856,128,0,10106:0:0:0:0:
448,192,10356,1,0,0:0:0:0:
448,192,10606,1,0,0:0:0:0:
320,192,10856,1,0,0:0:0:0:
192,192,11106,128,0,11356:0:0:0:0:
320,192,11481,128,0,11856:0:0:0:0:
448,192,11856,128,0,12106:0:0:0:0:
448,192,12356,128,0,20106:0:0:0:0:
64,192,12356,1,0,0:0:0:0:
192,192,12356,1,0,0:0:0:0:
192,192,12606,1,0,0:0:0:0:
64,192,12856,1,0,0:0:0:0:
320,192,13106,1,0,0:0:0:0:
192,192,13356,1,0,0:0:0:0:
64,192,13606,1,0,0:0:0:0:
192,192,13856,1,0,0:0:0:0:
64,192,14356,1,0,0:0:0:0:
64,192,14606,1,0,0:0:0:0:
192,192,14856,1,0,0:0:0:0:
320,192,15106,1,0,0:0:0:0:
192,192,15356,1,0,0:0:0:0:
64,192,15606,1,0,0:0:0:0:
192,192,15856,1,0,0:0:0:0:
64,192,16356,1,0,0:0:0:0:
64,192,16606,1,0,0:0:0:0:
192,192,16856,1,0,0:0:0:0:
320,192,17106,1,0,0:0:0:0:
192,192,17356,1,0,0:0:0:0:
64,192,17356,1,0,0:0:0:0:
192,192,17606,1,0,0:0:0:0:
64,192,17856,128,0,18106:0:0:0:0:
192,192,17856,128,0,18106:0:0:0:0:
320,192,17856,128,0,18106:0:0:0:0:
192,192,18356,1,0,0:0:0:0:
192,192,18606,1,0,0:0:0:0:
64,192,18856,1,0,0:0:0:0:
64,192,19106,1,0,0:0:0:0:
192,192,19106,1,0,0:0:0:0:
64,192,19481,1,0,0:0:0:0:
320,192,19481,1,0,0:0:0:0:
192,192,19731,1,0,0:0:0:0:
320,192,19731,1,0,0:0:0:0:
64,192,20606,1,0,0:0:0:0:
192,192,20731,1,0,0:0:0:0:
320,192,20856,1,0,0:0:0:0:
192,192,20981,1,0,0:0:0:0:
64,192,21106,1,0,0:0:0:0:
448,192,21106,1,0,0:0:0:0:
192,192,21231,1,0,0:0:0:0:
320,192,21356,1,0,0:0:0:0:
448,192,21481,1,0,0:0:0:0:
64,192,21606,1,0,0:0:0:0:
320,192,21606,1,0,0:0:0:0:
448,192,21731,1,0,0:0:0:0:
320,192,21856,1,0,0:0:0:0:
192,192,21981,1,0,0:0:0:0:
64,192,22106,1,0,0:0:0:0:
320,192,22106,1,0,0:0:0:0:
448,192,22231,1,0,0:0:0:0:
320,192,22356,1,0,0:0:0:0:
448,192,22481,1,0,0:0:0:0:
192,192,22606,1,0,0:0:0:0:
64,192,22606,1,0,0:0:0:0:
448,192,22731,1,0,0:0:0:0:
320,192,22856,1,0,0:0:0:0:
192,192,22981,1,0,0:0:0:0:
64,192,23106,1,0,0:0:0:0:
320,192,23106,1,0,0:0:0:0:
448,192,23231,1,0,0:0:0:0:
320,192,23356,1,0,0:0:0:0:
448,192,23481,1,0,0:0:0:0:
320,192,23606,1,0,0:0:0:0:
192,192,23606,1,0,0:0:0:0:
64,192,23731,1,0,0:0:0:0:
320,192,23856,1,0,0:0:0:0:
448,192,23981,1,0,0:0:0:0:
320,192,24106,128,0,24231:0:0:0:0:
192,192,24106,128,0,24231:0:0:0:0:
64,192,24106,128,0,24231:0:0:0:0:
192,192,24324,128,0,24449:0:0:0:0:
448,192,24324,128,0,24449:0:0:0:0:
64,192,24324,128,0,24449:0:0:0:0:
64,192,24539,1,0,0:0:0:0:
192,192,24663,1,0,0:0:0:0:
320,192,24788,1,0,0:0:0:0:
448,192,24913,1,0,0:0:0:0:
192,192,25038,1,0,0:0:0:0:
64,192,25038,1,0,0:0:0:0:
448,192,25163,1,0,0:0:0:0:
320,192,25288,1,0,0:0:0:0:
192,192,25413,1,0,0:0:0:0:
64,192,25538,1,0,0:0:0:0:
448,192,25538,1,0,0:0:0:0:
192,192,25662,1,0,0:0:0:0:
320,192,25787,1,0,0:0:0:0:
448,192,25912,1,0,0:0:0:0:
448,192,26037,128,0,26287:0:0:0:0:
320,192,26162,128,0,26412:0:0:0:0:
192,192,26287,128,0,26537:0:0:0:0:
64,192,26412,128,0,26661:0:0:0:0:
448,192,26412,128,0,26661:0:0:0:0:
320,192,26537,128,0,26786:0:0:0:0:
192,192,26661,128,0,26911:0:0:0:0:
64,192,26786,128,0,27036:0:0:0:0:
448,192,26786,1,0,0:0:0:0:
320,192,26911,1,0,0:0:0:0:
448,192,26911,1,0,0:0:0:0:
320,192,27036,1,0,0:0:0:0:
448,192,27036,1,0,0:0:0:0:
192,192,27036,1,0,0:0:0:0:
448,192,27161,1,0,0:0:0:0:
320,192,27161,1,0,0:0:0:0:
192,192,27161,1,0,0:0:0:0:
64,192,27161,1,0,0:0:0:0:
64,192,27286,1,0,0:0:0:0:
192,192,27286,1,0,0:0:0:0:
320,192,27286,1,0,0:0:0:0:
448,192,27286,1,0,0:0:0:0:
64,192,27411,1,0,0:0:0:0:
192,192,27411,1,0,0:0:0:0:
320,192,27411,1,0,0:0:0:0:
448,192,27411,1,0,0:0:0:0:
64,192,27536,1,0,0:0:0:0:
192,192,27536,1,0,0:0:0:0:
320,192,27536,1,0,0:0:0:0:
448,192,27536,1,0,0:0:0:0:
64,192,27660,1,0,0:0:0:0:
192,192,27660,1,0,0:0:0:0:
320,192,27660,1,0,0:0:0:0:
448,192,27660,1,0,0:0:0:0:
448,192,27785,1,0,0:0:0:0:
320,192,27785,1,0,0:0:0:0:
192,192,27785,1,0,0:0:0:0:
64,192,27785,1,0,0:0:0:0:
448,192,27910,1,0,0:0:0:0:
320,192,27910,1,0,0:0:0:0:
192,192,27910,1,0,0:0:0:0:
64,192,27910,1,0,0:0:0:0:
64,192,28035,1,0,0:0:0:0:
192,192,28035,1,0,0:0:0:0:
320,192,28035,1,0,0:0:0:0:
448,192,28035,1,0,0:0:0:0:
192,192,28117,128,0,28491:0:0:0:0:
448,192,28117,128,0,28491:0:0:0:0:
64,192,28117,128,0,28491:0:0:0:0:
320,192,28117,128,0,28491:0:0:0:0:
64,192,28616,128,0,28741:0:0:0:0:
192,192,28616,128,0,28741:0:0:0:0:
320,192,28616,128,0,28741:0:0:0:0:
448,192,28616,128,0,28741:0:0:0:0:
448,192,29116,1,0,0:0:0:0:
320,192,29116,1,0,0:0:0:0:
192,192,29116,1,0,0:0:0:0:
64,192,29240,1,0,0:0:0:0:
64,192,29365,1,0,0:0:0:0:
192,192,29365,1,0,0:0:0:0:
448,192,29615,1,0,0:0:0:0:
320,192,29615,1,0,0:0:0:0:
320,192,29740,128,0,30239:0:0:0:0:
192,192,29740,128,0,30239:0:0:0:0:
448,192,29740,128,0,30239:0:0:0:0:
64,192,30364,128,0,30489:0:0:0:0:
192,192,30364,128,0,30489:0:0:0:0:
64,192,30614,128,0,30739:0:0:0:0:
192,192,30614,128,0,30739:0:0:0:0:
64,192,30864,1,0,0:0:0:0:
192,192,30864,1,0,0:0:0:0:
448,192,31114,1,0,0:0:0:0:
320,192,31114,1,0,0:0:0:0:
64,192,31238,1,0,0:0:0:0:
320,192,31363,1,0,0:0:0:0:
192,192,31363,1,0,0:0:0:0:
64,192,31488,1,0,0:0:0:0:
448,192,31488,1,0,0:0:0:0:
320,192,31613,1,0,0:0:0:0:
192,192,31613,1,0,0:0:0:0:
448,192,31613,1,0,0:0:0:0:
64,192,31613,1,0,0:0:0:0:
192,192,31738,1,0,0:0:0:0:
448,192,31863,128,0,32362:0:0:0:0:
320,192,31863,128,0,32362:0:0:0:0:
64,192,32362,128,0,32487:0:0:0:0:
192,192,32362,128,0,32487:0:0:0:0:
64,192,32612,128,0,32737:0:0:0:0:
192,192,32612,128,0,32737:0:0:0:0:
448,192,32862,1,0,0:0:0:0:
320,192,32862,1,0,0:0:0:0:
192,192,32924,1,0,0:0:0:0:
64,192,32987,1,0,0:0:0:0:
448,192,33049,1,0,0:0:0:0:
320,192,33112,1,0,0:0:0:0:
192,192,33174,1,0,0:0:0:0:
64,192,33236,1,0,0:0:0:0:
448,192,33299,1,0,0:0:0:0:
320,192,33361,1,0,0:0:0:0:
192,192,33424,1,0,0:0:0:0:
64,192,33486,1,0,0:0:0:0:
448,192,33611,1,0,0:0:0:0:
320,192,33736,1,0,0:0:0:0:
448,192,33736,1,0,0:0:0:0:
64,192,33861,128,0,34360:0:0:0:0:
192,192,33861,128,0,34360:0:0:0:0:
448,192,34360,128,0,34485:0:0:0:0:
320,192,34360,128,0,34485:0:0:0:0:
448,192,34610,128,0,34735:0:0:0:0:
320,192,34610,128,0,34735:0:0:0:0:
64,192,34860,1,0,0:0:0:0:
192,192,34860,1,0,0:0:0:0:
320,192,34922,1,0,0:0:0:0:
448,192,34922,1,0,0:0:0:0:
64,192,34985,1,0,0:0:0:0:
192,192,34985,1,0,0:0:0:0:
320,192,35047,1,0,0:0:0:0:
448,192,35047,1,0,0:0:0:0:
64,192,35110,1,0,0:0:0:0:
192,192,35110,1,0,0:0:0:0:
320,192,35172,1,0,0:0:0:0:
448,192,35172,1,0,0:0:0:0:
192,192,35234,1,0,0:0:0:0:
64,192,35234,1,0,0:0:0:0:
320,192,35297,1,0,0:0:0:0:
448,192,35297,1,0,0:0:0:0:
64,192,35359,1,0,0:0:0:0:
192,192,35359,1,0,0:0:0:0:
320,192,35422,1,0,0:0:0:0:
448,192,35422,1,0,0:0:0:0:
64,192,35484,1,0,0:0:0:0:
192,192,35484,1,0,0:0:0:0:
320,192,35547,1,0,0:0:0:0:
448,192,35547,1,0,0:0:0:0:
64,192,35609,1,0,0:0:0:0:
192,192,35609,1,0,0:0:0:0:
320,192,35671,1,0,0:0:0:0:
448,192,35671,1,0,0:0:0:0:
64,192,35734,1,0,0:0:0:0:
192,192,35734,1,0,0:0:0:0:
448,192,35796,1,0,0:0:0:0:
320,192,35796,1,0,0:0:0:0:
64,192,35859,1,0,0:0:0:0:
192,192,35859,1,0,0:0:0:0:
320,192,35921,1,0,0:0:0:0:
448,192,35921,1,0,0:0:0:0:
192,192,35984,1,0,0:0:0:0:
64,192,35984,1,0,0:0:0:0:
320,192,36046,1,0,0:0:0:0:
448,192,36046,1,0,0:0:0:0:
64,192,36109,128,0,36608:0:0:0:0:
192,192,36109,128,0,36608:0:0:0:0:
64,192,36858,1,0,0:0:0:0:
192,192,36858,1,0,0:0:0:0:
320,192,36858,1,0,0:0:0:0:
448,192,37108,1,0,0:0:0:0:
192,192,37108,1,0,0:0:0:0:
320,192,37108,1,0,0:0:0:0:
448,192,37232,1,0,0:0:0:0:
64,192,37232,1,0,0:0:0:0:
192,192,37232,1,0,0:0:0:0:
320,192,37232,1,0,0:0:0:0:
64,192,37607,1,0,0:0:0:0:
192,192,37607,1,0,0:0:0:0:
320,192,37607,1,0,0:0:0:0:
448,192,37857,128,0,38356:0:0:0:0:
320,192,37857,128,0,38356:0:0:0:0:
64,192,38356,128,0,38481:0:0:0:0:
192,192,38356,128,0,38481:0:0:0:0:
192,192,38606,128,0,38731:0:0:0:0:
64,192,38606,128,0,38731:0:0:0:0:
192,192,38856,1,0,0:0:0:0:
64,192,38918,1,0,0:0:0:0:
320,192,38981,1,0,0:0:0:0:
448,192,39043,1,0,0:0:0:0:
192,192,39106,1,0,0:0:0:0:
64,192,39168,1,0,0:0:0:0:
320,192,39230,1,0,0:0:0:0:
448,192,39293,1,0,0:0:0:0:
192,192,39355,1,0,0:0:0:0:
64,192,39418,1,0,0:0:0:0:
320,192,39480,1,0,0:0:0:0:
448,192,39543,1,0,0:0:0:0:
192,192,39605,1,0,0:0:0:0:
64,192,39667,1,0,0:0:0:0:
320,192,39730,1,0,0:0:0:0:
448,192,39792,1,0,0:0:0:0:
192,192,39855,1,0,0:0:0:0:
64,192,39917,1,0,0:0:0:0:
320,192,39980,1,0,0:0:0:0:
448,192,40042,1,0,0:0:0:0:
192,192,40105,1,0,0:0:0:0:
64,192,40167,1,0,0:0:0:0:
448,192,40354,128,0,40479:0:0:0:0:
320,192,40354,128,0,40479:0:0:0:0:
448,192,40604,128,0,40729:0:0:0:0:
320,192,40604,128,0,40729:0:0:0:0:
448,192,40854,1,0,0:0:0:0:
320,192,40854,1,0,0:0:0:0:
320,192,40979,1,0,0:0:0:0:
448,192,40979,1,0,0:0:0:0:
64,192,40979,1,0,0:0:0:0:
320,192,41104,1,0,0:0:0:0:
192,192,41104,1,0,0:0:0:0:
64,192,41104,1,0,0:0:0:0:
64,192,41228,1,0,0:0:0:0:
192,192,41228,1,0,0:0:0:0:
320,192,41228,1,0,0:0:0:0:
64,192,41353,1,0,0:0:0:0:
192,192,41353,1,0,0:0:0:0:
320,192,41353,1,0,0:0:0:0:
320,192,41478,128,0,41665:0:0:0:0:
192,192,41478,128,0,41665:0:0:0:0:
64,192,41478,128,0,41665:0:0:0:0:
448,192,41853,128,0,42227:0:0:0:0:
320,192,41853,128,0,42227:0:0:0:0:
192,192,41853,128,0,42227:0:0:0:0:
64,192,42352,128,0,42477:0:0:0:0:
320,192,42352,128,0,42477:0:0:0:0:
320,192,42602,128,0,42727:0:0:0:0:
64,192,42727,128,0,43976:0:0:0:0:
192,192,42789,1,0,0:0:0:0:
448,192,42852,1,0,0:0:0:0:
192,192,42914,1,0,0:0:0:0:
448,192,42977,1,0,0:0:0:0:
320,192,43039,1,0,0:0:0:0:
192,192,43102,1,0,0:0:0:0:
320,192,43164,1,0,0:0:0:0:
448,192,43226,1,0,0:0:0:0:
320,192,43289,1,0,0:0:0:0:
192,192,43351,1,0,0:0:0:0:
320,192,43414,1,0,0:0:0:0:
448,192,43476,1,0,0:0:0:0:
320,192,43539,1,0,0:0:0:0:
192,192,43601,1,0,0:0:0:0:
320,192,43663,1,0,0:0:0:0:
448,192,43726,1,0,0:0:0:0:
320,192,43788,1,0,0:0:0:0:
192,192,43851,1,0,0:0:0:0:
448,192,44101,128,0,44613:0:0:0:0:
192,192,44101,128,0,44613:0:0:0:0:
320,192,44101,128,0,44613:0:0:0:0:
448,192,45843,128,0,46218:0:0:0:0:
192,192,46343,128,0,46468:0:0:0:0:
320,192,46343,128,0,46468:0:0:0:0:
320,192,46593,128,0,46717:0:0:0:0:
192,192,46593,128,0,46717:0:0:0:0:
64,192,46780,1,0,0:0:0:0:
192,192,46905,1,0,0:0:0:0:
320,192,47030,1,0,0:0:0:0:
320,192,47154,1,0,0:0:0:0:
448,192,47592,1,0,0:0:0:0:
320,192,47623,1,0,0:0:0:0:
192,192,47654,1,0,0:0:0:0:
64,192,47685,1,0,0:0:0:0:
448,192,47716,1,0,0:0:0:0:
320,192,47748,1,0,0:0:0:0:
192,192,47779,1,0,0:0:0:0:
64,192,47810,1,0,0:0:0:0:
448,192,47841,1,0,0:0:0:0:
320,192,47872,1,0,0:0:0:0:
192,192,47904,1,0,0:0:0:0:
64,192,47935,1,0,0:0:0:0:
448,192,47966,1,0,0:0:0:0:
320,192,47997,1,0,0:0:0:0:
192,192,48029,1,0,0:0:0:0:
64,192,48060,1,0,0:0:0:0:
448,192,48091,1,0,0:0:0:0:
320,192,48122,1,0,0:0:0:0:
192,192,48153,1,0,0:0:0:0:
64,192,48185,1,0,0:0:0:0:
448,192,48216,1,0,0:0:0:0:
320,192,48247,1,0,0:0:0:0:
192,192,48278,1,0,0:0:0:0:
64,192,48310,1,0,0:0:0:0:
448,192,48341,1,0,0:0:0:0:
320,192,48372,1,0,0:0:0:0:
192,192,48403,1,0,0:0:0:0:
64,192,48434,1,0,0:0:0:0:
448,192,48466,1,0,0:0:0:0:
320,192,48497,1,0,0:0:0:0:
192,192,48528,1,0,0:0:0:0:
64,192,48559,1,0,0:0:0:0:
448,192,48591,1,0,0:0:0:0:
320,192,48622,1,0,0:0:0:0:
192,192,48653,1,0,0:0:0:0:
64,192,48684,1,0,0:0:0:0:
448,192,48715,1,0,0:0:0:0:
320,192,48747,1,0,0:0:0:0:
192,192,48778,1,0,0:0:0:0:
64,192,48809,1,0,0:0:0:0:
320,192,48965,1,0,0:0:0:0:
448,192,48965,1,0,0:0:0:0:
320,192,49090,1,0,0:0:0:0:
192,192,49215,1,0,0:0:0:0:
448,192,49215,1,0,0:0:0:0:
192,192,49340,1,0,0:0:0:0:
64,192,49340,1,0,0:0:0:0:
320,192,49465,1,0,0:0:0:0:
64,192,49465,1,0,0:0:0:0:
192,192,49590,1,0,0:0:0:0:
448,192,49590,1,0,0:0:0:0:
192,192,49714,1,0,0:0:0:0:
448,192,49714,1,0,0:0:0:0:
192,192,49839,1,0,0:0:0:0:
320,192,49839,1,0,0:0:0:0:
64,192,49964,1,0,0:0:0:0:
448,192,49964,1,0,0:0:0:0:
448,192,50089,1,0,0:0:0:0:
320,192,50089,1,0,0:0:0:0:
64,192,50214,1,0,0:0:0:0:
192,192,50214,1,0,0:0:0:0:
192,192,50339,1,0,0:0:0:0:
448,192,50339,1,0,0:0:0:0:
320,192,50464,1,0,0:0:0:0:
320,192,50651,128,0,50838:0:0:0:0:
64,192,50838,1,0,0:0:0:0:
64,192,50963,1,0,0:0:0:0:
448,192,51088,1,0,0:0:0:0:
320,192,51088,1,0,0:0:0:0:
64,192,51213,1,0,0:0:0:0:
192,192,51213,1,0,0:0:0:0:
448,192,51338,1,0,0:0:0:0:
320,192,51463,1,0,0:0:0:0:
192,192,51588,1,0,0:0:0:0:
64,192,51712,1,0,0:0:0:0:
448,192,51712,1,0,0:0:0:0:
320,192,51837,1,0,0:0:0:0:
192,192,51962,1,0,0:0:0:0:
192,192,52087,128,0,52462:0:0:0:0:
320,192,52087,128,0,52462:0:0:0:0:
448,192,52087,128,0,52462:0:0:0:0:
64,192,52087,128,0,52462:0:0:0:0:
64,192,53086,1,0,0:0:0:0:
192,192,53086,1,0,0:0:0:0:
64,192,53211,1,0,0:0:0:0:
64,192,53336,1,0,0:0:0:0:
64,192,53461,1,0,0:0:0:0:
192,192,53586,1,0,0:0:0:0:
64,192,53586,1,0,0:0:0:0:
64,192,53710,1,0,0:0:0:0:
64,192,53823,1,0,0:0:0:0:
320,192,53823,128,0,54191:0:0:0:0:
448,192,53823,128,0,54191:0:0:0:0:
64,192,53960,1,0,0:0:0:0:
192,192,54085,1,0,0:0:0:0:
64,192,54085,1,0,0:0:0:0:
64,192,54210,1,0,0:0:0:0:
320,192,54335,128,0,54460:0:0:0:0:
64,192,54335,1,0,0:0:0:0:
64,192,54460,1,0,0:0:0:0:
320,192,54585,128,0,54709:0:0:0:0:
192,192,54585,1,0,0:0:0:0:
64,192,54585,1,0,0:0:0:0:
64,192,54709,1,0,0:0:0:0:
64,192,54834,1,0,0:0:0:0:
64,192,54959,1,0,0:0:0:0:
192,192,55084,1,0,0:0:0:0:
64,192,55084,1,0,0:0:0:0:
64,192,55209,1,0,0:0:0:0:
64,192,55334,1,0,0:0:0:0:
64,192,55459,1,0,0:0:0:0:
192,192,55584,1,0,0:0:0:0:
64,192,55584,1,0,0:0:0:0:
64,192,55708,1,0,0:0:0:0:
448,192,55833,128,0,56208:0:0:0:0:
64,192,55833,1,0,0:0:0:0:
64,192,55958,1,0,0:0:0:0:
192,192,56083,1,0,0:0:0:0:
64,192,56083,1,0,0:0:0:0:
64,192,56208,1,0,0:0:0:0:
320,192,56333,128,0,56458:0:0:0:0:
64,192,56333,1,0,0:0:0:0:
64,192,56458,1,0,0:0:0:0:
320,192,56583,128,0,56707:0:0:0:0:
192,192,56583,1,0,0:0:0:0:
64,192,56583,1,0,0:0:0:0:
64,192,56707,1,0,0:0:0:0:
64,192,56832,1,0,0:0:0:0:
64,192,56957,1,0,0:0:0:0:
64,192,57082,1,0,0:0:0:0:
192,192,57082,1,0,0:0:0:0:
64,192,57207,1,0,0:0:0:0:
64,192,57332,1,0,0:0:0:0:
64,192,57457,1,0,0:0:0:0:
64,192,57582,1,0,0:0:0:0:
192,192,57582,1,0,0:0:0:0:
64,192,57706,1,0,0:0:0:0:
320,192,57831,128,0,58206:0:0:0:0:
64,192,57831,1,0,0:0:0:0:
64,192,57956,1,0,0:0:0:0:
64,192,58069,1,0,0:0:0:0:
192,192,58206,1,0,0:0:0:0:
64,192,58206,1,0,0:0:0:0:
448,192,58331,128,0,58456:0:0:0:0:
64,192,58331,1,0,0:0:0:0:
448,192,58581,128,0,58705:0:0:0:0:
64,192,58756,1,0,0:0:0:0:
192,192,58818,1,0,0:0:0:0:
64,192,58955,1,0,0:0:0:0:
192,192,58955,1,0,0:0:0:0:
320,192,58955,1,0,0:0:0:0:
64,192,59080,1,0,0:0:0:0:
320,192,59080,1,0,0:0:0:0:
320,192,59205,1,0,0:0:0:0:
320,192,59330,1,0,0:0:0:0:
320,192,59455,1,0,0:0:0:0:
448,192,59455,1,0,0:0:0:0:
192,192,59455,1,0,0:0:0:0:
64,192,59455,1,0,0:0:0:0:
64,192,59704,1,0,0:0:0:0:
192,192,59704,1,0,0:0:0:0:
320,192,59704,1,0,0:0:0:0:
448,192,59704,1,0,0:0:0:0:
192,192,59829,1,0,0:0:0:0:
320,192,59954,1,0,0:0:0:0:
64,192,60079,1,0,0:0:0:0:
192,192,60079,1,0,0:0:0:0:
320,192,60079,1,0,0:0:0:0:
448,192,60079,1,0,0:0:0:0:
64,192,64068,1,0,0:0:0:0:
320,192,64068,1,0,0:0:0:0:
64,192,64315,1,0,0:0:0:0:
64,192,64565,1,0,0:0:0:0:
64,192,64815,1,0,0:0:0:0:
64,192,65065,1,0,0:0:0:0:
64,192,65314,1,0,0:0:0:0:
64,192,65564,1,0,0:0:0:0:
64,192,65814,1,0,0:0:0:0:
448,192,66064,1,0,0:0:0:0:
64,192,66064,1,0,0:0:0:0:
448,192,66313,1,0,0:0:0:0:
448,192,66563,1,0,0:0:0:0:
448,192,66815,1,0,0:0:0:0:
448,192,67063,1,0,0:0:0:0:
448,192,67312,1,0,0:0:0:0:
448,192,67562,1,0,0:0:0:0:
448,192,67812,1,0,0:0:0:0:
192,192,68062,1,0,0:0:0:0:
448,192,68062,1,0,0:0:0:0:
192,192,68311,1,0,0:0:0:0:
192,192,68561,1,0,0:0:0:0:
192,192,68813,1,0,0:0:0:0:
192,192,69061,1,0,0:0:0:0:
192,192,69312,1,0,0:0:0:0:
192,192,69562,1,0,0:0:0:0:
192,192,69812,1,0,0:0:0:0:
192,192,70060,1,0,0:0:0:0:
320,192,70060,1,0,0:0:0:0:
320,192,70311,1,0,0:0:0:0:
320,192,70561,1,0,0:0:0:0:
320,192,70811,1,0,0:0:0:0:
320,192,71059,1,0,0:0:0:0:
320,192,71310,1,0,0:0:0:0:
320,192,71560,1,0,0:0:0:0:
320,192,71810,1,0,0:0:0:0:
320,192,72060,1,0,0:0:0:0:
64,192,72060,1,0,0:0:0:0:
64,192,72309,1,0,0:0:0:0:
64,192,72559,1,0,0:0:0:0:
64,192,72809,1,0,0:0:0:0:
64,192,73059,1,0,0:0:0:0:
64,192,73308,1,0,0:0:0:0:
64,192,73558,1,0,0:0:0:0:
64,192,73808,1,0,0:0:0:0:
64,192,74058,1,0,0:0:0:0:
448,192,74058,1,0,0:0:0:0:
448,192,74307,1,0,0:0:0:0:
448,192,74557,1,0,0:0:0:0:
448,192,74807,1,0,0:0:0:0:
448,192,75057,1,0,0:0:0:0:
448,192,75306,1,0,0:0:0:0:
448,192,75556,1,0,0:0:0:0:
448,192,75806,1,0,0:0:0:0:
448,192,76056,1,0,0:0:0:0:
192,192,76056,1,0,0:0:0:0:
192,192,76305,1,0,0:0:0:0:
192,192,76555,1,0,0:0:0:0:
192,192,76805,1,0,0:0:0:0:
192,192,77055,1,0,0:0:0:0:
192,192,77304,1,0,0:0:0:0:
192,192,77552,1,0,0:0:0:0:
192,192,77802,1,0,0:0:0:0:
192,192,78052,1,0,0:0:0:0:
320,192,78052,1,0,0:0:0:0:
320,192,78301,1,0,0:0:0:0:
320,192,78551,1,0,0:0:0:0:
320,192,78801,1,0,0:0:0:0:
320,192,79051,1,0,0:0:0:0:
320,192,79300,1,0,0:0:0:0:
320,192,79550,1,0,0:0:0:0:
320,192,79800,1,0,0:0:0:0:
320,192,80050,1,0,0:0:0:0:
64,192,80050,1,0,0:0:0:0:
448,192,80174,1,0,0:0:0:0:
192,192,80174,1,0,0:0:0:0:
64,192,80299,1,0,0:0:0:0:
320,192,80299,1,0,0:0:0:0:
64,192,80424,1,0,0:0:0:0:
192,192,80424,1,0,0:0:0:0:
64,192,80549,1,0,0:0:0:0:
192,192,80549,1,0,0:0:0:0:
320,192,80549,1,0,0:0:0:0:
448,192,80549,1,0,0:0:0:0:
448,192,80674,1,0,0:0:0:0:
320,192,80674,1,0,0:0:0:0:
192,192,80799,1,0,0:0:0:0:
64,192,80799,1,0,0:0:0:0:
320,192,80924,1,0,0:0:0:0:
448,192,80924,1,0,0:0:0:0:
192,192,80924,1,0,0:0:0:0:
64,192,80924,1,0,0:0:0:0:
320,192,81049,1,0,0:0:0:0:
448,192,81049,1,0,0:0:0:0:
192,192,81173,1,0,0:0:0:0:
64,192,81173,1,0,0:0:0:0:
320,192,81298,1,0,0:0:0:0:
448,192,81298,1,0,0:0:0:0:
192,192,81298,1,0,0:0:0:0:
64,192,81298,1,0,0:0:0:0:
320,192,81423,1,0,0:0:0:0:
448,192,81423,1,0,0:0:0:0:
192,192,81548,1,0,0:0:0:0:
64,192,81548,1,0,0:0:0:0:
64,192,81673,1,0,0:0:0:0:
192,192,81673,1,0,0:0:0:0:
320,192,81673,1,0,0:0:0:0:
448,192,81673,1,0,0:0:0:0:
448,192,81798,1,0,0:0:0:0:
320,192,81798,1,0,0:0:0:0:
192,192,81923,1,0,0:0:0:0:
64,192,81923,1,0,0:0:0:0:
64,192,82048,1,0,0:0:0:0:
192,192,82048,1,0,0:0:0:0:
320,192,82048,1,0,0:0:0:0:
448,192,82048,1,0,0:0:0:0:
64,192,82172,1,0,0:0:0:0:
320,192,82172,1,0,0:0:0:0:
192,192,82297,1,0,0:0:0:0:
192,192,82422,1,0,0:0:0:0:
448,192,82422,1,0,0:0:0:0:
320,192,82547,1,0,0:0:0:0:
64,192,82547,1,0,0:0:0:0:
448,192,82547,1,0,0:0:0:0:
64,192,82672,1,0,0:0:0:0:
320,192,82672,1,0,0:0:0:0:
448,192,82797,1,0,0:0:0:0:
320,192,82922,1,0,0:0:0:0:
192,192,82922,1,0,0:0:0:0:
192,192,83047,1,0,0:0:0:0:
64,192,83047,1,0,0:0:0:0:
448,192,83047,1,0,0:0:0:0:
320,192,83171,1,0,0:0:0:0:
64,192,83171,1,0,0:0:0:0:
192,192,83296,1,0,0:0:0:0:
448,192,83296,1,0,0:0:0:0:
448,192,83421,1,0,0:0:0:0:
192,192,83421,1,0,0:0:0:0:
320,192,83546,1,0,0:0:0:0:
448,192,83546,1,0,0:0:0:0:
64,192,83546,1,0,0:0:0:0:
192,192,83671,1,0,0:0:0:0:
64,192,83671,1,0,0:0:0:0:
320,192,83796,1,0,0:0:0:0:
64,192,83796,1,0,0:0:0:0:
448,192,83921,1,0,0:0:0:0:
192,192,83921,1,0,0:0:0:0:
192,192,84046,1,0,0:0:0:0:
448,192,84046,1,0,0:0:0:0:
64,192,84046,1,0,0:0:0:0:
64,192,84170,1,0,0:0:0:0:
320,192,84170,1,0,0:0:0:0:
448,192,84295,1,0,0:0:0:0:
320,192,84295,1,0,0:0:0:0:
64,192,84420,1,0,0:0:0:0:
448,192,84420,1,0,0:0:0:0:
192,192,84545,1,0,0:0:0:0:
64,192,84545,1,0,0:0:0:0:
448,192,84545,1,0,0:0:0:0:
320,192,84670,1,0,0:0:0:0:
192,192,84670,1,0,0:0:0:0:
320,192,84795,1,0,0:0:0:0:
64,192,84795,1,0,0:0:0:0:
64,192,84920,1,0,0:0:0:0:
448,192,84920,1,0,0:0:0:0:
320,192,85045,1,0,0:0:0:0:
448,192,85045,1,0,0:0:0:0:
64,192,85045,1,0,0:0:0:0:
192,192,85169,1,0,0:0:0:0:
320,192,85169,1,0,0:0:0:0:
64,192,85294,1,0,0:0:0:0:
192,192,85294,1,0,0:0:0:0:
64,192,85419,1,0,0:0:0:0:
320,192,85419,1,0,0:0:0:0:
320,192,85544,1,0,0:0:0:0:
192,192,85544,1,0,0:0:0:0:
64,192,85544,1,0,0:0:0:0:
448,192,85669,1,0,0:0:0:0:
192,192,85669,1,0,0:0:0:0:
448,192,85794,1,0,0:0:0:0:
320,192,85794,1,0,0:0:0:0:
320,192,85919,1,0,0:0:0:0:
64,192,85919,1,0,0:0:0:0:
64,192,86044,1,0,0:0:0:0:
64,192,86168,1,0,0:0:0:0:
192,192,86168,1,0,0:0:0:0:
64,192,86293,1,0,0:0:0:0:
192,192,86293,1,0,0:0:0:0:
320,192,86293,1,0,0:0:0:0:
448,192,86418,1,0,0:0:0:0:
320,192,86418,1,0,0:0:0:0:
192,192,86418,1,0,0:0:0:0:
64,192,86418,1,0,0:0:0:0:
320,192,86543,1,0,0:0:0:0:
192,192,86543,1,0,0:0:0:0:
64,192,86543,1,0,0:0:0:0:
192,192,86668,1,0,0:0:0:0:
64,192,86668,1,0,0:0:0:0:
320,192,86793,1,0,0:0:0:0:
192,192,86793,1,0,0:0:0:0:
64,192,86793,1,0,0:0:0:0:
448,192,86918,1,0,0:0:0:0:
320,192,86918,1,0,0:0:0:0:
192,192,86918,1,0,0:0:0:0:
64,192,86918,1,0,0:0:0:0:
192,192,87043,1,0,0:0:0:0:
64,192,87043,1,0,0:0:0:0:
320,192,87043,1,0,0:0:0:0:
192,192,87167,1,0,0:0:0:0:
64,192,87167,1,0,0:0:0:0:
320,192,87292,1,0,0:0:0:0:
192,192,87292,1,0,0:0:0:0:
64,192,87292,1,0,0:0:0:0:
192,192,87417,1,0,0:0:0:0:
64,192,87417,1,0,0:0:0:0:
448,192,87417,1,0,0:0:0:0:
320,192,87417,1,0,0:0:0:0:
320,192,87542,1,0,0:0:0:0:
192,192,87542,1,0,0:0:0:0:
64,192,87542,1,0,0:0:0:0:
192,192,87667,1,0,0:0:0:0:
64,192,87667,1,0,0:0:0:0:
64,192,87792,1,0,0:0:0:0:
64,192,87917,1,0,0:0:0:0:
64,192,88047,1,6,0:0:0:0:
192,192,88078,1,0,0:0:0:0:
320,192,88109,1,0,0:0:0:0:
448,192,88140,1,0,0:0:0:0:
64,192,88171,1,0,0:0:0:0:
192,192,88203,1,0,0:0:0:0:
320,192,88234,1,0,0:0:0:0:
448,192,88265,1,0,0:0:0:0:
64,192,88296,1,0,0:0:0:0:
192,192,88327,1,0,0:0:0:0:
320,192,88359,1,0,0:0:0:0:
448,192,88390,1,0,0:0:0:0:
64,192,88421,1,0,0:0:0:0:
192,192,88452,1,0,0:0:0:0:
320,192,88484,1,0,0:0:0:0:
448,192,88515,1,0,0:0:0:0:
64,192,88546,1,0,0:0:0:0:
192,192,88546,1,0,0:0:0:0:
320,192,88608,1,0,0:0:0:0:
448,192,88671,1,0,0:0:0:0:
320,192,88733,1,0,0:0:0:0:
192,192,88796,1,0,0:0:0:0:
64,192,88858,1,0,0:0:0:0:
192,192,88889,1,0,0:0:0:0:
64,192,88921,1,0,0:0:0:0:
192,192,88983,1,0,0:0:0:0:
320,192,89046,1,0,0:0:0:0:
448,192,89108,1,0,0:0:0:0:
320,192,89170,1,0,0:0:0:0:
448,192,89233,1,0,0:0:0:0:
192,192,89264,1,0,0:0:0:0:
64,192,89264,1,0,0:0:0:0:
320,192,89295,1,0,0:0:0:0:
448,192,89295,1,0,0:0:0:0:
192,192,89326,1,0,0:0:0:0:
64,192,89326,1,0,0:0:0:0:
320,192,89358,1,0,0:0:0:0:
448,192,89358,1,0,0:0:0:0:
192,192,89389,1,0,0:0:0:0:
64,192,89389,1,0,0:0:0:0:
320,192,89420,1,0,0:0:0:0:
448,192,89420,1,0,0:0:0:0:
192,192,89451,1,0,0:0:0:0:
64,192,89451,1,0,0:0:0:0:
320,192,89483,128,0,89795:0:0:0:0:
448,192,89483,128,0,89795:0:0:0:0:
192,192,89795,128,0,90107:0:0:0:0:
64,192,89795,128,0,90107:0:0:0:0:
448,192,90294,128,0,90388:0:0:0:0:
320,192,90294,128,0,90388:0:0:0:0:
320,192,90544,128,0,90638:0:0:0:0:
448,192,90544,128,0,90638:0:0:0:0:
64,192,91044,1,0,0:0:0:0:
192,192,91106,1,0,0:0:0:0:
320,192,91168,1,0,0:0:0:0:
448,192,91231,1,0,0:0:0:0:
64,192,91231,1,0,0:0:0:0:
320,192,91293,1,0,0:0:0:0:
192,192,91356,1,0,0:0:0:0:
64,192,91418,1,0,0:0:0:0:
448,192,91418,1,0,0:0:0:0:
192,192,91481,1,0,0:0:0:0:
320,192,91543,1,0,0:0:0:0:
448,192,91605,1,0,0:0:0:0:
64,192,91605,1,0,0:0:0:0:
320,192,91668,1,0,0:0:0:0:
192,192,91730,1,0,0:0:0:0:
64,192,91793,1,0,0:0:0:0:
448,192,91793,1,0,0:0:0:0:
192,192,91855,1,0,0:0:0:0:
320,192,91918,1,0,0:0:0:0:
448,192,91980,1,0,0:0:0:0:
64,192,91980,1,0,0:0:0:0:
320,192,92043,1,0,0:0:0:0:
192,192,92105,1,0,0:0:0:0:
64,192,92167,1,0,0:0:0:0:
448,192,92167,1,0,0:0:0:0:
192,192,92230,1,0,0:0:0:0:
320,192,92292,1,0,0:0:0:0:
448,192,92355,1,0,0:0:0:0:
64,192,92355,1,0,0:0:0:0:
320,192,92417,1,0,0:0:0:0:
192,192,92480,1,0,0:0:0:0:
64,192,92542,1,0,0:0:0:0:
448,192,92542,1,0,0:0:0:0:
192,192,92604,1,0,0:0:0:0:
320,192,92667,1,0,0:0:0:0:
448,192,92729,1,0,0:0:0:0:
320,192,92792,1,0,0:0:0:0:
192,192,92854,1,0,0:0:0:0:
64,192,92917,1,0,0:0:0:0:
320,192,92917,1,0,0:0:0:0:
448,192,92917,1,0,0:0:0:0:
320,192,93042,1,0,0:0:0:0:
192,192,93042,1,0,0:0:0:0:
64,192,93042,1,0,0:0:0:0:
320,192,93166,1,0,0:0:0:0:
448,192,93166,1,0,0:0:0:0:
192,192,93166,1,0,0:0:0:0:
64,192,93291,1,0,0:0:0:0:
192,192,93291,1,0,0:0:0:0:
320,192,93291,1,0,0:0:0:0:
64,192,93416,1,0,0:0:0:0:
448,192,93416,1,0,0:0:0:0:
320,192,93416,1,0,0:0:0:0:
320,192,93541,1,0,0:0:0:0:
192,192,93541,1,0,0:0:0:0:
448,192,93541,1,0,0:0:0:0:
64,192,93666,1,0,0:0:0:0:
192,192,93666,1,0,0:0:0:0:
448,192,93666,1,0,0:0:0:0:
192,192,93791,128,0,94165:0:0:0:0:
64,192,93791,128,0,94165:0:0:0:0:
320,192,93791,128,0,94165:0:0:0:0:
448,192,93791,128,0,94165:0:0:0:0:
192,192,94290,128,0,94415:0:0:0:0:
64,192,94290,128,0,94415:0:0:0:0:
192,192,94540,128,0,94665:0:0:0:0:
64,192,94540,128,0,94665:0:0:0:0:
64,192,94915,1,0,0:0:0:0:
192,192,94915,1,0,0:0:0:0:
448,192,95040,1,0,0:0:0:0:
448,192,95164,1,0,0:0:0:0:
320,192,95289,1,0,0:0:0:0:
192,192,95414,1,0,0:0:0:0:
64,192,95539,1,0,0:0:0:0:
64,192,95664,1,0,0:0:0:0:
64,192,95789,1,0,0:0:0:0:
192,192,95914,1,0,0:0:0:0:
448,192,96039,128,0,96413:0:0:0:0:
320,192,96039,128,0,96413:0:0:0:0:
192,192,96039,128,0,96413:0:0:0:0:
64,192,96538,128,0,98037:0:0:0:0:
192,192,96538,1,0,0:0:0:0:
320,192,97038,1,0,0:0:0:0:
448,192,97038,1,0,0:0:0:0:
192,192,97162,1,0,0:0:0:0:
320,192,97225,1,0,0:0:0:0:
192,192,97287,1,0,0:0:0:0:
320,192,97350,1,0,0:0:0:0:
192,192,97412,1,0,0:0:0:0:
320,192,97475,1,0,0:0:0:0:
192,192,97537,1,0,0:0:0:0:
320,192,97599,1,0,0:0:0:0:
192,192,97662,1,0,0:0:0:0:
320,192,97724,1,0,0:0:0:0:
192,192,98037,128,0,100035:0:0:0:0:
64,192,98286,128,0,98411:0:0:0:0:
64,192,98536,128,0,98661:0:0:0:0:
64,192,98786,1,0,0:0:0:0:
320,192,98786,1,0,0:0:0:0:
448,192,98911,1,0,0:0:0:0:
320,192,99036,1,0,0:0:0:0:
64,192,99160,1,0,0:0:0:0:
448,192,99285,1,0,0:0:0:0:
320,192,99410,1,0,0:0:0:0:
64,192,99535,1,0,0:0:0:0:
64,192,99660,1,0,0:0:0:0:
320,192,99785,128,0,100159:0:0:0:0:
448,192,100035,128,0,102033:0:0:0:0:
64,192,100284,128,0,100409:0:0:0:0:
192,192,100284,1,0,0:0:0:0:
64,192,100534,128,0,100659:0:0:0:0:
64,192,101034,1,0,0:0:0:0:
320,192,101034,1,0,0:0:0:0:
64,192,101283,1,0,0:0:0:0:
192,192,101283,1,0,0:0:0:0:
320,192,101533,1,0,0:0:0:0:
192,192,101533,1,0,0:0:0:0:
192,192,101783,128,0,102157:0:0:0:0:
320,192,102033,128,0,104031:0:0:0:0:
64,192,102282,128,0,102407:0:0:0:0:
64,192,102532,128,0,102657:0:0:0:0:
64,192,102782,1,0,0:0:0:0:
64,192,103032,1,0,0:0:0:0:
192,192,103094,1,0,0:0:0:0:
448,192,103156,1,0,0:0:0:0:
192,192,103219,1,0,0:0:0:0:
64,192,103281,1,0,0:0:0:0:
192,192,103344,1,0,0:0:0:0:
448,192,103406,1,0,0:0:0:0:
192,192,103469,1,0,0:0:0:0:
64,192,103531,1,0,0:0:0:0:
192,192,103593,1,0,0:0:0:0:
448,192,103656,1,0,0:0:0:0:
192,192,103718,1,0,0:0:0:0:
64,192,103781,1,0,0:0:0:0:
192,192,103843,1,0,0:0:0:0:
448,192,103906,1,0,0:0:0:0:
192,192,103968,1,0,0:0:0:0:
64,192,104031,1,0,0:0:0:0:
64,192,104530,1,0,0:0:0:0:
192,192,104530,1,0,0:0:0:0:
64,192,104655,1,0,0:0:0:0:
64,192,104780,1,0,0:0:0:0:
448,192,104780,1,0,0:0:0:0:
64,192,104905,1,0,0:0:0:0:
448,192,105030,1,0,0:0:0:0:
64,192,105030,1,0,0:0:0:0:
448,192,105154,1,0,0:0:0:0:
448,192,105279,1,0,0:0:0:0:
192,192,105279,1,0,0:0:0:0:
448,192,105404,1,0,0:0:0:0:
448,192,105529,1,0,0:0:0:0:
192,192,105529,1,0,0:0:0:0:
192,192,105654,1,0,0:0:0:0:
192,192,105779,1,0,0:0:0:0:
448,192,105779,1,0,0:0:0:0:
192,192,105904,1,0,0:0:0:0:
192,192,106029,1,0,0:0:0:0:
320,192,106029,1,0,0:0:0:0:
320,192,106153,1,0,0:0:0:0:
320,192,106278,1,0,0:0:0:0:
64,192,106278,1,0,0:0:0:0:
320,192,106403,1,0,0:0:0:0:
320,192,106528,1,0,0:0:0:0:
64,192,106528,1,0,0:0:0:0:
64,192,106653,1,0,0:0:0:0:
64,192,106778,1,0,0:0:0:0:
320,192,106778,1,0,0:0:0:0:
64,192,106903,1,0,0:0:0:0:
64,192,107028,1,0,0:0:0:0:
320,192,107028,1,0,0:0:0:0:
448,192,107028,1,0,0:0:0:0:
448,192,107152,1,0,0:0:0:0:
448,192,107277,1,0,0:0:0:0:
192,192,107277,1,0,0:0:0:0:
448,192,107402,1,0,0:0:0:0:
448,192,107527,1,0,0:0:0:0:
64,192,107527,1,0,0:0:0:0:
192,192,107527,1,0,0:0:0:0:
192,192,107652,1,0,0:0:0:0:
192,192,107777,1,0,0:0:0:0:
320,192,107777,1,0,0:0:0:0:
192,192,107902,1,0,0:0:0:0:
192,192,108027,1,0,0:0:0:0:
448,192,108027,1,0,0:0:0:0:
448,192,108151,1,0,0:0:0:0:
448,192,108276,1,0,0:0:0:0:
192,192,108276,1,0,0:0:0:0:
448,192,108401,1,0,0:0:0:0:
448,192,108526,1,0,0:0:0:0:
192,192,108526,1,0,0:0:0:0:
64,192,108526,1,0,0:0:0:0:
64,192,108651,1,0,0:0:0:0:
64,192,108776,1,0,0:0:0:0:
64,192,108901,1,0,0:0:0:0:
64,192,109026,1,0,0:0:0:0:
320,192,109026,1,0,0:0:0:0:
448,192,109026,1,0,0:0:0:0:
320,192,109150,1,0,0:0:0:0:
320,192,109275,1,0,0:0:0:0:
64,192,109275,1,0,0:0:0:0:
320,192,109400,1,0,0:0:0:0:
320,192,109525,1,0,0:0:0:0:
192,192,109525,1,0,0:0:0:0:
448,192,109525,1,0,0:0:0:0:
448,192,109650,1,0,0:0:0:0:
448,192,109775,1,0,0:0:0:0:
64,192,109775,1,0,0:0:0:0:
448,192,109900,1,0,0:0:0:0:
448,192,110025,1,0,0:0:0:0:
192,192,110025,1,0,0:0:0:0:
320,192,110025,1,0,0:0:0:0:
192,192,110149,1,0,0:0:0:0:
192,192,110274,1,0,0:0:0:0:
448,192,110274,1,0,0:0:0:0:
192,192,110399,1,0,0:0:0:0:
192,192,110524,1,0,0:0:0:0:
64,192,110524,1,0,0:0:0:0:
320,192,110524,1,0,0:0:0:0:
64,192,110649,1,0,0:0:0:0:
64,192,110774,1,0,0:0:0:0:
320,192,110774,1,0,0:0:0:0:
64,192,110899,5,0,0:0:0:0:
64,192,111024,1,0,0:0:0:0:
192,192,111024,1,0,0:0:0:0:
320,192,111024,1,0,0:0:0:0:
320,192,111148,1,0,0:0:0:0:
64,192,111148,1,0,0:0:0:0:
448,192,111273,1,0,0:0:0:0:
192,192,111273,1,0,0:0:0:0:
320,192,111398,1,0,0:0:0:0:
192,192,111398,1,0,0:0:0:0:
320,192,111523,1,0,0:0:0:0:
64,192,111523,1,0,0:0:0:0:
192,192,111648,1,0,0:0:0:0:
320,192,111648,1,0,0:0:0:0:
448,192,111773,1,0,0:0:0:0:
64,192,111773,1,0,0:0:0:0:
192,192,111898,1,0,0:0:0:0:
64,192,111898,1,0,0:0:0:0:
64,192,112023,128,0,112397:0:0:0:0:
448,192,112023,128,0,112397:0:0:0:0:
320,192,112023,128,0,112397:0:0:0:0:
192,192,112023,128,0,112397:0:0:0:0:
320,192,113022,1,0,0:0:0:0:
448,192,113022,1,0,0:0:0:0:
448,192,113146,1,0,0:0:0:0:
448,192,113271,1,0,0:0:0:0:
448,192,113396,1,0,0:0:0:0:
448,192,113521,1,0,0:0:0:0:
320,192,113521,1,0,0:0:0:0:
448,192,113646,1,0,0:0:0:0:
64,192,113771,128,0,114114:0:0:0:0:
192,192,113771,128,0,114114:0:0:0:0:
448,192,113771,1,0,0:0:0:0:
448,192,113896,1,0,0:0:0:0:
448,192,114021,1,0,0:0:0:0:
320,192,114021,1,0,0:0:0:0:
448,192,114145,1,0,0:0:0:0:
448,192,114270,1,0,0:0:0:0:
192,192,114270,128,0,114395:0:0:0:0:
448,192,114395,1,0,0:0:0:0:
448,192,114520,1,0,0:0:0:0:
320,192,114520,1,0,0:0:0:0:
192,192,114520,128,0,114645:0:0:0:0:
448,192,114645,1,0,0:0:0:0:
448,192,114770,1,0,0:0:0:0:
448,192,114895,1,0,0:0:0:0:
448,192,115020,1,0,0:0:0:0:
320,192,115020,1,0,0:0:0:0:
448,192,115144,1,0,0:0:0:0:
448,192,115269,1,0,0:0:0:0:
448,192,115394,1,0,0:0:0:0:
448,192,115519,1,0,0:0:0:0:
320,192,115519,1,0,0:0:0:0:
448,192,115644,1,0,0:0:0:0:
448,192,115769,1,0,0:0:0:0:
64,192,115769,128,0,116143:0:0:0:0:
448,192,115894,1,0,0:0:0:0:
448,192,116019,1,0,0:0:0:0:
320,192,116019,1,0,0:0:0:0:
448,192,116143,1,0,0:0:0:0:
448,192,116268,1,0,0:0:0:0:
192,192,116268,128,0,116393:0:0:0:0:
448,192,116393,1,0,0:0:0:0:
448,192,116518,1,0,0:0:0:0:
320,192,116518,1,0,0:0:0:0:
192,192,116518,128,0,116643:0:0:0:0:
448,192,116643,1,0,0:0:0:0:
448,192,116768,1,0,0:0:0:0:
448,192,116893,1,0,0:0:0:0:
320,192,117018,1,0,0:0:0:0:
448,192,117018,1,0,0:0:0:0:
448,192,117142,1,0,0:0:0:0:
448,192,117267,1,0,0:0:0:0:
448,192,117392,1,0,0:0:0:0:
320,192,117517,1,0,0:0:0:0:
448,192,117517,1,0,0:0:0:0:
448,192,117642,1,0,0:0:0:0:
448,192,117767,1,0,0:0:0:0:
192,192,117767,128,0,118141:0:0:0:0:
448,192,117892,1,0,0:0:0:0:
448,192,118017,1,0,0:0:0:0:
320,192,118017,1,0,0:0:0:0:
448,192,118141,1,0,0:0:0:0:
448,192,118266,1,0,0:0:0:0:
64,192,118266,128,0,118391:0:0:0:0:
64,192,118516,128,0,118641:0:0:0:0:
64,192,118766,1,0,0:0:0:0:
192,192,118766,1,0,0:0:0:0:
320,192,118766,1,0,0:0:0:0:
448,192,118766,1,0,0:0:0:0:
64,192,118891,1,0,0:0:0:0:
192,192,118891,1,0,0:0:0:0:
320,192,118891,1,0,0:0:0:0:
448,192,118891,1,0,0:0:0:0:
448,192,119016,1,0,0:0:0:0:
320,192,119047,1,0,0:0:0:0:
192,192,119078,1,0,0:0:0:0:
64,192,119109,1,0,0:0:0:0:
192,192,119140,1,0,0:0:0:0:
320,192,119172,1,0,0:0:0:0:
448,192,119203,1,0,0:0:0:0:
320,192,119234,1,0,0:0:0:0:
192,192,119265,1,0,0:0:0:0:
64,192,119296,1,0,0:0:0:0:
192,192,119328,1,0,0:0:0:0:
320,192,119359,1,0,0:0:0:0:
448,192,119390,1,0,0:0:0:0:
320,192,119421,1,0,0:0:0:0:
192,192,119453,1,0,0:0:0:0:
64,192,119484,1,0,0:0:0:0:
192,192,119515,1,0,0:0:0:0:
320,192,119546,1,0,0:0:0:0:
448,192,119577,1,0,0:0:0:0:
320,192,119609,1,0,0:0:0:0:
192,192,119640,1,0,0:0:0:0:
64,192,119671,1,0,0:0:0:0:
192,192,119702,1,0,0:0:0:0:
320,192,119734,1,0,0:0:0:0:
448,192,119765,1,0,0:0:0:0:
320,192,119796,1,0,0:0:0:0:
192,192,119827,1,0,0:0:0:0:
64,192,119858,1,0,0:0:0:0:
192,192,119890,1,0,0:0:0:0:
320,192,119921,1,0,0:0:0:0:
448,192,119952,1,0,0:0:0:0:
320,192,119983,1,0,0:0:0:0:
192,192,120015,128,0,120514:0:0:0:0:
64,192,120015,128,0,120514:0:0:0:0:
