osu file format v14

[General]
AudioFilename: audio.mp3
AudioLeadIn: 0
PreviewTime: 71342
Countdown: 0
SampleSet: Soft
StackLeniency: 0.5
Mode: 0
LetterboxInBreaks: 0
EpilepsyWarning: 1
WidescreenStoryboard: 1

[Editor]
Bookmarks: 2222,19164,23399,24811,47399,58693,71342,72734,83832,94930,97705,100479,103254,104641,104988,105335,105681,106028,110190
DistanceSpacing: 0.75
BeatDivisor: 4
GridSize: 4
TimelineZoom: 1.8

[Metadata]
Title:GAY POWER
TitleUnicode:GAY♂POWER
Artist:NOMA ft. RazQ
ArtistUnicode:NOMA ft. RazQ
Creator:Daxxel
Version:Easy
Source:
Tags:gachi gachimuchi brain power noma
BeatmapID:1882551
BeatmapSetID:899623

[Difficulty]
HPDrainRate:1
CircleSize:2.3
OverallDifficulty:1.6
ApproachRate:2.4
SliderMultiplier:0.699999999999999
SliderTickRate:1

[Events]
//Background and Video events
0,0,"gaypower.jpg",0,0
Video,0,"GAYüëPOWER.mp4"
//Break Periods
2,47580,57163
//Storyboard Layer 0 (Background)
//Storyboard Layer 1 (Fail)
//Storyboard Layer 2 (Pass)
//Storyboard Layer 3 (Foreground)
//Storyboard Sound Samples

[TimingPoints]
1851,352.941176470588,4,2,1,30,1,0
2115,-100,4,2,1,5,0,0
2204,352.941176470588,4,2,1,60,1,0
23380,-100,4,2,1,40,0,0
24792,-100,4,2,1,60,0,0
47380,-100,4,2,1,50,0,0
58674,352.733686067019,4,2,1,60,1,0
60084,352.526439482961,4,2,1,60,1,0
61494,352.319436288902,4,2,1,60,1,0
62903,352.071353127567,4,2,1,60,1,0
64311,351.802990325418,4,2,1,60,1,0
65718,351.493848857645,4,2,1,60,1,0
67123,350.877192982456,4,2,1,40,1,0
68526,350.262697022767,4,2,1,50,1,0
69927,349.243306169965,4,2,1,50,1,0
71323,348.027842227378,4,2,1,60,1,0
72715,346.820809248555,4,1,1,70,1,1
72715,-100,4,1,1,70,0,1
73061,-100,4,1,1,60,0,1
75489,-100,4,1,1,70,0,1
75836,-100,4,1,1,60,0,1
78264,-100,4,1,1,70,0,1
78610,-100,4,1,1,60,0,1
81038,-100,4,1,1,70,0,1
81385,-100,4,1,1,60,0,1
83726,-100,4,1,1,60,0,0
83813,-100,4,1,1,70,0,1
84160,-100,4,1,1,60,0,1
86587,-100,4,1,1,70,0,1
86934,-100,4,1,1,60,0,1
89362,-100,4,1,1,70,0,1
89709,-100,4,1,1,60,0,1
92136,-100,4,1,1,70,0,1
92483,-100,4,1,1,60,0,1
94824,-100,4,1,1,70,0,0
94911,-100,4,1,1,80,0,1
97686,-100,4,1,1,70,0,1
98032,-100,4,1,1,60,0,1
100460,-100,4,1,1,70,0,1
100807,-100,4,1,1,60,0,1
101847,-100,4,1,1,70,0,1
101934,-100,4,1,1,60,0,1
103235,-100,4,1,1,70,0,1
106009,-100,4,1,1,70,0,0
106876,-100,4,2,1,60,0,0
107397,-100,4,2,1,50,0,0
108090,-100,4,2,1,40,0,0
108784,-100,4,2,1,28,0,0
109478,-100,4,2,1,12,0,0
110171,-100,4,2,1,5,0,0

[Colours]
Combo1 : 71,81,205
Combo2 : 147,0,147
Combo3 : 207,35,35
Combo4 : 227,134,238

[HitObjects]
77,313,2203,6,0,B|224:265|187:389|345:334,1,280,8|2,0:3|0:0,0:0:0:0:
423,255,4321,1,8,0:0:0:0:
443,144,5027,2,0,B|401:111|401:111|314:106,1,140,2|8,0:0|0:0,0:0:0:0:
234,185,6439,2,0,B|192:217|192:217|105:222,1,140,2|8,0:0|0:0,0:0:0:0:
21,147,7851,6,0,P|18:57|177:38,1,280,2|2,0:0|0:0,0:0:0:0:
242,125,9968,2,0,P|309:138|375:116,2,140,8|2|8,0:0|0:0|0:0,0:0:0:0:
174,35,12086,2,0,P|96:0|41:21,1,140,2|8,0:0|0:0,0:0:0:0:
11,121,13498,6,0,B|0:191|0:191|15:264,1,140,2|8,0:0|0:0,0:0:0:0:
104,323,14909,2,0,P|165:292|233:299,1,140,2|8,0:0|0:0,0:0:0:0:
319,371,16321,2,0,P|386:383|449:354,2,140,2|8|2,0:0|0:0|0:0,0:0:0:0:
233,299,18439,2,0,P|165:292|104:323,1,140,8|8,0:0|0:3,0:0:0:0:
256,192,19233,12,8,23380,0:3:0:0:
149,253,24792,5,8,0:3:0:0:
234,325,25498,2,0,P|301:341|368:323,2,140,8|2|8,0:0|0:0|0:0,0:0:0:0:
213,214,27615,2,0,B|198:123|198:123|207:76,2,140,2|8|2,0:0|0:0|0:0,0:0:0:0:
304,279,29733,1,8,0:0:0:0:
414,267,30439,6,0,P|471:228|486:162,2,140,2|8|2,0:0|0:0|0:0,0:0:0:0:
310,225,32556,1,8,0:0:0:0:
206,268,33262,2,0,P|136:271|73:242,2,140,2|8|2,0:0|0:0|0:0,0:0:0:0:
310,225,35380,1,2,0:3:0:0:
241,136,36086,6,0,B|185:111|185:111|93:116,2,140,8|8|2,0:3|0:0|0:0,0:0:0:0:
310,225,38203,1,8,0:0:0:0:
241,313,38909,2,0,B|153:367|82:309|82:309|108:257|88:200,1,280,2|2,0:0|0:0,0:0:0:0:
18,116,41027,1,8,0:0:0:0:
85,25,41733,6,0,P|148:-2|217:1,1,140,8|8,0:3|0:0,0:0:0:0:
300,74,43145,2,0,P|370:80|435:56,2,140,2|8|2,0:0|0:0|0:0,0:0:0:0:
203,19,45262,1,8,0:0:0:0:
105,75,45968,2,0,P|72:135|72:204,1,140,2|8,0:0|0:0,0:0:0:0:
135,297,47380,1,8,0:3:0:0:
31,150,58674,6,0,P|91:131|170:148,1,140,8|8,0:3|0:0,0:0:0:0:
238,229,60084,2,0,P|298:248|377:231,1,140,2|8,0:0|0:0,0:0:0:0:
442,146,61494,2,0,L|457:2,2,140,2|8|2,0:0|0:0|0:0,0:0:0:0:
465,255,63607,1,8,0:0:0:0:
418,356,64311,6,0,P|366:376|281:355,1,140,2|8,0:0|0:0,0:0:0:0:
207,277,65718,2,0,P|239:231|241:144,1,140,2|8,0:0|0:0,0:0:0:0:
145,94,67123,2,0,B|73:86|73:86|10:116,2,140,2|8|2,0:0|0:0|0:0,0:0:0:0:
226,171,69226,1,8,0:0:0:0:
256,192,69314,12,8,71323,0:3:0:0:
206,335,72715,6,0,P|262:349|345:306,1,140,8|8,0:3|0:0,0:0:0:0:
308,215,74102,2,0,P|295:168|327:80,1,140,2|8,0:0|0:0,0:0:0:0:
426,57,75489,2,0,B|487:90|487:90|504:158,2,140,8|8|2,0:3|0:0|0:0,0:0:0:0:
328,17,77570,1,8,0:0:0:0:
235,66,78264,6,0,P|165:82|96:64,2,140,8|8|2,0:3|0:0|0:0,0:0:0:0:
328,17,80345,1,8,0:0:0:0:
431,35,81038,2,0,B|480:88|456:146|456:146|431:196|447:246|447:246|457:272|450:308,1,280,8|2,0:3|0:0,0:0:0:0:
371,369,83119,1,8,0:0:0:0:
278,320,83813,6,0,P|221:303|143:323,1,140,8|8,0:3|0:0,0:0:0:0:
49,367,85200,2,0,B|-10:330|-10:330|-13:250,1,140,2|8,0:0|0:0,0:0:0:0:
22,161,86587,2,0,P|46:104|27:20,2,140,8|8|2,0:3|0:0|0:0,0:0:0:0:
27,265,88668,1,8,0:0:0:0:
1,366,89362,6,0,P|70:374|133:344,1,140,8|8,0:3|0:0,0:0:0:0:
194,259,90749,2,0,P|259:236|326:253,1,140,2|8,0:0|0:0,0:0:0:0:
391,335,92136,2,0,B|451:372|451:372|520:361,2,140,8|8|2,0:3|0:0|0:0,0:0:0:0:
357,236,94217,1,8,0:0:0:0:
410,144,94911,6,0,P|415:22|278:20,1,280,8|2,0:3|0:0,0:0:0:0:
231,102,96992,1,8,0:0:0:0:
145,162,97686,2,0,P|87:168|8:135,2,140,8|8|2,0:3|0:0|0:0,0:0:0:0:
231,102,99767,1,8,0:0:0:0:
321,48,100461,6,0,P|389:49|445:90,1,140,8|8,0:3|0:0,0:0:0:0:
407,188,101847,2,0,B|417:262|417:262|390:339,1,140,8|8,0:3|0:0,0:0:0:0:
306,380,103235,5,8,0:3:0:0:
209,339,103928,1,8,0:3:0:0:
107,370,104622,2,0,P|47:380|-3:320,1,140,8|8,0:3|0:3,0:0:0:0:
16,223,106009,1,8,0:3:0:0:
256,192,106096,12,0,110171,0:0:0:0:
