osu file format v14

[General]
AudioFilename: audio.mp3
AudioLeadIn: 0
PreviewTime: 67534
Countdown: 0
SampleSet: Soft
StackLeniency: 0.7
Mode: 3
LetterboxInBreaks: 0
SpecialStyle: 0
WidescreenStoryboard: 1

[Editor]
Bookmarks: 75,10453,20831,31210,51966,67534,77912,88291,98669,109047,129804,150561,160939,171318,192074,238777,259534,280291,301047
DistanceSpacing: 0.8
BeatDivisor: 4
GridSize: 16
TimelineZoom: 1.9

[Metadata]
Title:Strength
TitleUnicode:Strength
Artist:NOMA
ArtistUnicode:NOMA
Creator:Asherz007
Version:Disconcerting
Source:
Tags:drumstep drum'n'bass edm electronic trap dubstep electrohouse hardcore
BeatmapID:1408345
BeatmapSetID:665463

[Difficulty]
HPDrainRate:9
CircleSize:4
OverallDifficulty:9
ApproachRate:5
SliderMultiplier:1.4
SliderTickRate:1

[Events]
//Background and Video events
0,0,"mi5cm88bnkfz.jpg",0,0
//Break Periods
//Storyboard Layer 0 (Background)
//Storyboard Layer 1 (Fail)
//Storyboard Layer 2 (Pass)
//Storyboard Layer 3 (Foreground)
//Storyboard Sound Samples

[TimingPoints]
75,324.324324324324,4,2,3,30,1,0
10453,-100,4,2,3,50,0,0
67534,-100,4,2,3,50,0,1
87642,-100,4,2,3,50,0,0
88291,-100,4,2,3,50,0,1
109047,-100,4,2,3,30,0,0
171318,-100,4,2,3,50,0,0
207642,-100,4,2,3,50,0,1
238777,-100,4,2,3,50,0,0
259534,-100,4,2,3,40,0,0
280291,-100,4,2,3,30,0,0

[HitObjects]
448,192,75,5,0,0:0:0:0:
192,192,237,1,0,0:0:0:0:
448,192,399,1,0,0:0:0:0:
192,192,561,1,0,0:0:0:0:
448,192,723,1,0,0:0:0:0:
192,192,885,1,0,0:0:0:0:
448,192,1047,1,0,0:0:0:0:
192,192,1210,1,0,0:0:0:0:
320,192,1372,1,0,0:0:0:0:
192,192,1534,1,0,0:0:0:0:
320,192,1696,1,0,0:0:0:0:
64,192,1858,1,0,0:0:0:0:
320,192,2020,1,0,0:0:0:0:
64,192,2183,1,0,0:0:0:0:
320,192,2345,1,0,0:0:0:0:
192,192,2507,1,0,0:0:0:0:
448,192,2669,1,0,0:0:0:0:
192,192,2831,1,0,0:0:0:0:
448,192,2993,1,0,0:0:0:0:
192,192,3156,1,0,0:0:0:0:
448,192,3318,1,0,0:0:0:0:
192,192,3480,1,0,0:0:0:0:
448,192,3642,1,0,0:0:0:0:
192,192,3804,1,0,0:0:0:0:
320,192,3966,1,0,0:0:0:0:
192,192,4129,1,0,0:0:0:0:
320,192,4291,1,0,0:0:0:0:
64,192,4453,1,0,0:0:0:0:
448,192,4615,1,0,0:0:0:0:
64,192,4777,1,0,0:0:0:0:
448,192,4939,1,0,0:0:0:0:
64,192,5102,1,0,0:0:0:0:
448,192,5264,1,0,0:0:0:0:
448,192,5426,1,0,0:0:0:0:
448,192,5588,1,0,0:0:0:0:
448,192,5750,1,0,0:0:0:0:
448,192,5912,1,0,0:0:0:0:
448,192,6074,1,0,0:0:0:0:
448,192,6237,1,0,0:0:0:0:
448,192,6399,1,0,0:0:0:0:
320,192,6561,1,0,0:0:0:0:
320,192,6723,1,0,0:0:0:0:
320,192,6885,1,0,0:0:0:0:
192,192,7047,1,0,0:0:0:0:
192,192,7210,1,0,0:0:0:0:
192,192,7372,1,0,0:0:0:0:
192,192,7534,1,0,0:0:0:0:
64,192,7696,1,0,0:0:0:0:
64,192,7858,1,0,0:0:0:0:
64,192,8020,1,0,0:0:0:0:
64,192,8183,1,0,0:0:0:0:
64,192,8345,1,0,0:0:0:0:
64,192,8507,1,0,0:0:0:0:
64,192,8669,1,0,0:0:0:0:
64,192,8831,1,0,0:0:0:0:
64,192,8993,1,0,0:0:0:0:
320,192,9156,1,0,0:0:0:0:
320,192,9318,1,0,0:0:0:0:
320,192,9480,1,0,0:0:0:0:
192,192,9642,1,0,0:0:0:0:
192,192,9804,1,0,0:0:0:0:
192,192,9966,1,0,0:0:0:0:
192,192,10129,128,0,10453:0:0:0:0:
64,192,10453,1,0,0:0:0:0:
448,192,10453,128,0,11750:0:0:0:0:
320,192,10453,1,4,0:0:0:0:
64,192,10777,128,0,10939:0:0:0:0:
192,192,11264,128,0,11426:0:0:0:0:
64,192,11588,128,0,11750:0:0:0:0:
320,192,11750,128,0,12237:0:0:0:0:
192,192,11912,128,0,12074:0:0:0:0:
64,192,12237,128,0,12885:0:0:0:0:
192,192,12885,128,0,14345:0:0:0:0:
448,192,13372,128,0,13534:0:0:0:0:
64,192,13858,128,0,14020:0:0:0:0:
320,192,14183,128,0,14345:0:0:0:0:
448,192,14345,128,0,14831:0:0:0:0:
64,192,14507,128,0,14669:0:0:0:0:
192,192,14831,128,0,15642:0:0:0:0:
320,192,15642,128,0,16939:0:0:0:0:
64,192,15966,128,0,16129:0:0:0:0:
192,192,16453,128,0,16615:0:0:0:0:
448,192,16777,128,0,16939:0:0:0:0:
64,192,16939,128,0,17426:0:0:0:0:
192,192,17102,128,0,17264:0:0:0:0:
320,192,17426,128,0,17588:0:0:0:0:
448,192,17426,128,0,18074:0:0:0:0:
192,192,17750,128,0,17912:0:0:0:0:
64,192,18074,128,0,19534:0:0:0:0:
320,192,18074,128,0,18156:0:0:0:0:
192,192,18156,128,0,18237:0:0:0:0:
320,192,18237,128,0,18561:0:0:0:0:
448,192,18723,128,0,18804:0:0:0:0:
192,192,18804,128,0,18885:0:0:0:0:
448,192,18885,128,0,19210:0:0:0:0:
320,192,19372,128,0,19453:0:0:0:0:
192,192,19453,128,0,19534:0:0:0:0:
320,192,19534,128,0,20183:0:0:0:0:
448,192,19534,128,0,20183:0:0:0:0:
64,192,20183,1,0,0:0:0:0:
192,192,20223,1,0,0:0:0:0:
320,192,20264,1,0,0:0:0:0:
448,192,20304,1,0,0:0:0:0:
64,192,20345,1,0,0:0:0:0:
192,192,20385,1,0,0:0:0:0:
320,192,20426,1,0,0:0:0:0:
448,192,20466,1,0,0:0:0:0:
64,192,20507,1,0,0:0:0:0:
192,192,20547,1,0,0:0:0:0:
448,192,20588,1,0,0:0:0:0:
320,192,20629,1,0,0:0:0:0:
64,192,20669,1,0,0:0:0:0:
192,192,20710,1,0,0:0:0:0:
448,192,20750,1,0,0:0:0:0:
320,192,20791,1,0,0:0:0:0:
192,192,20831,1,0,0:0:0:0:
64,192,20831,128,0,22129:0:0:0:0:
320,192,20993,1,0,0:0:0:0:
448,192,21156,1,0,0:0:0:0:
192,192,21318,1,0,0:0:0:0:
448,192,21480,1,0,0:0:0:0:
320,192,21642,1,0,0:0:0:0:
192,192,21804,1,0,0:0:0:0:
448,192,21966,1,0,0:0:0:0:
320,192,22129,128,0,22615:0:0:0:0:
192,192,22291,1,0,0:0:0:0:
448,192,22453,1,0,0:0:0:0:
192,192,22615,128,0,23264:0:0:0:0:
64,192,22777,1,0,0:0:0:0:
448,192,22939,1,0,0:0:0:0:
320,192,23102,1,0,0:0:0:0:
448,192,23264,128,0,24723:0:0:0:0:
64,192,23426,1,0,0:0:0:0:
320,192,23588,1,0,0:0:0:0:
192,192,23750,1,0,0:0:0:0:
320,192,23912,1,0,0:0:0:0:
64,192,24074,1,0,0:0:0:0:
192,192,24237,1,0,0:0:0:0:
320,192,24399,1,0,0:0:0:0:
192,192,24561,1,0,0:0:0:0:
64,192,24723,128,0,25210:0:0:0:0:
320,192,24885,1,0,0:0:0:0:
192,192,25047,1,0,0:0:0:0:
320,192,25210,128,0,25696:0:0:0:0:
192,192,25372,1,0,0:0:0:0:
448,192,25534,1,0,0:0:0:0:
64,192,25696,1,0,0:0:0:0:
192,192,25858,1,0,0:0:0:0:
320,192,25939,1,2,0:0:0:0:
448,192,25939,1,0,0:0:0:0:
192,192,26020,1,2,0:0:0:0:
64,192,26020,1,0,0:0:0:0:
320,192,26183,1,0,0:0:0:0:
64,192,26345,1,2,0:0:0:0:
448,192,26345,1,0,0:0:0:0:
192,192,26507,1,0,0:0:0:0:
320,192,26669,1,2,0:0:0:0:
448,192,26669,1,0,0:0:0:0:
64,192,26831,1,0,0:0:0:0:
192,192,26993,1,2,0:0:0:0:
448,192,26993,1,0,0:0:0:0:
320,192,27156,1,0,0:0:0:0:
192,192,27318,1,0,0:0:0:0:
64,192,27318,1,2,0:0:0:0:
448,192,27480,1,0,0:0:0:0:
320,192,27642,1,2,0:0:0:0:
192,192,27642,1,0,0:0:0:0:
64,192,27804,1,0,0:0:0:0:
448,192,27966,1,2,0:0:0:0:
320,192,27966,1,0,0:0:0:0:
192,192,28129,1,0,0:0:0:0:
448,192,28291,1,0,0:0:0:0:
64,192,28291,1,2,0:0:0:0:
320,192,28453,1,2,0:0:0:0:
448,192,28453,1,0,0:0:0:0:
192,192,28534,1,2,0:0:0:0:
64,192,28534,1,0,0:0:0:0:
320,192,28615,1,2,0:0:0:0:
448,192,28615,1,0,0:0:0:0:
192,192,28777,1,2,0:0:0:0:
64,192,28777,1,0,0:0:0:0:
64,192,28939,1,0,0:0:0:0:
320,192,28939,1,2,0:0:0:0:
192,192,29102,1,2,0:0:0:0:
448,192,29102,1,0,0:0:0:0:
320,192,29264,1,2,0:0:0:0:
448,192,29264,1,0,0:0:0:0:
64,192,29426,1,0,0:0:0:0:
192,192,29426,1,2,0:0:0:0:
192,192,29588,1,0,0:0:0:0:
320,192,29588,1,2,0:0:0:0:
448,192,29750,1,0,0:0:0:0:
320,192,29750,1,2,0:0:0:0:
64,192,29912,1,2,0:0:0:0:
192,192,29993,1,2,0:0:0:0:
448,192,30074,1,2,0:0:0:0:
320,192,30156,1,2,0:0:0:0:
192,192,30237,1,2,0:0:0:0:
64,192,30318,1,2,0:0:0:0:
448,192,30399,1,2,0:0:0:0:
320,192,30480,1,2,0:0:0:0:
64,192,30561,1,2,0:0:0:0:
192,192,30642,1,2,0:0:0:0:
320,192,30723,1,2,0:0:0:0:
448,192,30804,1,2,0:0:0:0:
192,192,30885,1,8,0:0:0:0:
64,192,30885,1,0,0:0:0:0:
320,192,30966,1,2,0:0:0:0:
448,192,30966,1,0,0:0:0:0:
192,192,31047,1,2,0:0:0:0:
64,192,31047,1,0,0:0:0:0:
320,192,31129,1,2,0:0:0:0:
192,192,31210,1,4,0:0:0:0:
64,192,31210,1,2,0:0:0:0:
448,192,31210,1,0,0:0:0:0:
320,192,31372,1,0,0:0:0:0:
192,192,31534,1,8,0:0:0:0:
64,192,31534,1,0,0:0:0:0:
320,192,31696,1,0,0:0:0:0:
448,192,31777,1,0,0:0:0:0:
64,192,31858,1,0,0:0:0:0:
192,192,31939,1,0,0:0:0:0:
448,192,32020,1,2,0:0:0:0:
320,192,32020,1,0,0:0:0:0:
64,192,32102,1,0,0:0:0:0:
192,192,32183,1,8,0:0:0:0:
448,192,32183,1,0,0:0:0:0:
64,192,32345,1,2,0:0:0:0:
320,192,32345,1,0,0:0:0:0:
192,192,32426,1,0,0:0:0:0:
320,192,32507,1,0,0:0:0:0:
448,192,32588,1,0,0:0:0:0:
64,192,32669,1,0,0:0:0:0:
320,192,32831,1,8,0:0:0:0:
448,192,32831,1,0,0:0:0:0:
192,192,32993,1,0,0:0:0:0:
64,192,33074,1,0,0:0:0:0:
448,192,33156,1,0,0:0:0:0:
320,192,33237,1,0,0:0:0:0:
192,192,33318,1,2,0:0:0:0:
64,192,33318,1,0,0:0:0:0:
448,192,33399,1,0,0:0:0:0:
320,192,33480,1,8,0:0:0:0:
64,192,33480,1,0,0:0:0:0:
192,192,33642,1,0,0:0:0:0:
320,192,33723,1,0,0:0:0:0:
64,192,33804,1,2,0:0:0:0:
448,192,33804,1,0,0:0:0:0:
192,192,33885,1,0,0:0:0:0:
320,192,33966,1,0,0:0:0:0:
448,192,34047,1,0,0:0:0:0:
192,192,34129,1,8,0:0:0:0:
64,192,34129,1,0,0:0:0:0:
320,192,34291,1,0,0:0:0:0:
192,192,34372,1,0,0:0:0:0:
64,192,34453,1,0,0:0:0:0:
448,192,34534,1,0,0:0:0:0:
320,192,34615,1,0,0:0:0:0:
64,192,34615,1,2,0:0:0:0:
192,192,34696,1,0,0:0:0:0:
320,192,34777,1,8,0:0:0:0:
448,192,34777,1,0,0:0:0:0:
192,192,34939,1,2,0:0:0:0:
64,192,34939,1,0,0:0:0:0:
320,192,35020,1,0,0:0:0:0:
448,192,35102,1,0,0:0:0:0:
64,192,35183,1,0,0:0:0:0:
192,192,35264,1,2,0:0:0:0:
448,192,35264,1,0,0:0:0:0:
320,192,35345,1,0,0:0:0:0:
192,192,35426,1,8,0:0:0:0:
64,192,35426,1,0,0:0:0:0:
448,192,35588,1,0,0:0:0:0:
320,192,35669,1,0,0:0:0:0:
192,192,35750,1,0,0:0:0:0:
64,192,35831,1,0,0:0:0:0:
320,192,35912,1,2,0:0:0:0:
448,192,35912,1,0,0:0:0:0:
192,192,35993,1,0,0:0:0:0:
64,192,36074,1,8,0:0:0:0:
448,192,36074,1,0,0:0:0:0:
192,192,36237,1,0,0:0:0:0:
320,192,36237,1,2,0:0:0:0:
448,192,36318,1,0,0:0:0:0:
192,192,36399,1,2,0:0:0:0:
64,192,36399,1,0,0:0:0:0:
320,192,36480,1,0,0:0:0:0:
448,192,36561,1,0,0:0:0:0:
192,192,36642,1,0,0:0:0:0:
320,192,36723,1,0,0:0:0:0:
64,192,36723,1,8,0:0:0:0:
192,192,36885,1,0,0:0:0:0:
320,192,36966,1,0,0:0:0:0:
448,192,37047,1,0,0:0:0:0:
64,192,37129,1,0,0:0:0:0:
192,192,37210,1,0,0:0:0:0:
320,192,37210,1,2,0:0:0:0:
448,192,37291,1,0,0:0:0:0:
192,192,37372,1,8,0:0:0:0:
64,192,37372,1,0,0:0:0:0:
320,192,37534,1,2,0:0:0:0:
448,192,37534,1,0,0:0:0:0:
192,192,37615,1,0,0:0:0:0:
64,192,37696,1,0,0:0:0:0:
448,192,37777,1,0,0:0:0:0:
320,192,37858,1,0,0:0:0:0:
192,192,37939,1,0,0:0:0:0:
64,192,38020,1,8,0:0:0:0:
448,192,38020,1,0,0:0:0:0:
320,192,38183,1,0,0:0:0:0:
448,192,38264,1,0,0:0:0:0:
64,192,38345,1,0,0:0:0:0:
192,192,38426,1,0,0:0:0:0:
320,192,38507,1,2,0:0:0:0:
448,192,38507,1,0,0:0:0:0:
64,192,38588,1,0,0:0:0:0:
192,192,38669,1,8,0:0:0:0:
448,192,38669,1,0,0:0:0:0:
320,192,38831,1,0,0:0:0:0:
192,192,38912,1,0,0:0:0:0:
64,192,38993,1,2,0:0:0:0:
448,192,38993,1,0,0:0:0:0:
320,192,39074,1,0,0:0:0:0:
192,192,39156,1,0,0:0:0:0:
64,192,39237,1,0,0:0:0:0:
320,192,39318,1,8,0:0:0:0:
448,192,39318,1,0,0:0:0:0:
64,192,39480,1,0,0:0:0:0:
192,192,39561,1,0,0:0:0:0:
320,192,39642,1,0,0:0:0:0:
448,192,39723,1,0,0:0:0:0:
192,192,39804,1,2,0:0:0:0:
64,192,39804,1,0,0:0:0:0:
320,192,39885,1,0,0:0:0:0:
64,192,39966,1,8,0:0:0:0:
448,192,39966,1,0,0:0:0:0:
192,192,40129,1,2,0:0:0:0:
320,192,40129,1,0,0:0:0:0:
64,192,40210,1,0,0:0:0:0:
448,192,40291,1,0,0:0:0:0:
320,192,40372,1,0,0:0:0:0:
64,192,40453,1,0,0:0:0:0:
192,192,40453,1,2,0:0:0:0:
448,192,40534,1,0,0:0:0:0:
320,192,40615,1,8,0:0:0:0:
64,192,40615,1,0,0:0:0:0:
192,192,40696,1,0,0:0:0:0:
320,192,40777,1,0,0:0:0:0:
448,192,40858,1,0,0:0:0:0:
64,192,40939,1,0,0:0:0:0:
192,192,41020,1,0,0:0:0:0:
320,192,41102,1,2,0:0:0:0:
448,192,41102,1,0,0:0:0:0:
64,192,41183,1,0,0:0:0:0:
192,192,41264,1,8,0:0:0:0:
448,192,41264,1,0,0:0:0:0:
320,192,41345,1,0,0:0:0:0:
64,192,41426,1,0,0:0:0:0:
448,192,41507,1,0,0:0:0:0:
192,192,41507,1,2,0:0:0:0:
64,192,41588,1,2,0:0:0:0:
320,192,41588,1,4,0:0:0:0:
448,192,41750,1,0,0:0:0:0:
320,192,41912,1,8,0:0:0:0:
192,192,41912,1,0,0:0:0:0:
64,192,42074,1,0,0:0:0:0:
192,192,42156,1,0,0:0:0:0:
320,192,42237,1,0,0:0:0:0:
448,192,42318,1,0,0:0:0:0:
192,192,42399,1,2,0:0:0:0:
64,192,42399,1,0,0:0:0:0:
320,192,42480,1,0,0:0:0:0:
64,192,42561,1,8,0:0:0:0:
448,192,42561,1,0,0:0:0:0:
192,192,42723,1,2,0:0:0:0:
320,192,42723,1,0,0:0:0:0:
64,192,42804,1,0,0:0:0:0:
448,192,42885,1,0,0:0:0:0:
320,192,42966,1,0,0:0:0:0:
192,192,43047,1,0,0:0:0:0:
64,192,43129,1,0,0:0:0:0:
448,192,43210,1,0,0:0:0:0:
320,192,43210,1,8,0:0:0:0:
64,192,43372,1,0,0:0:0:0:
192,192,43453,1,0,0:0:0:0:
320,192,43534,1,0,0:0:0:0:
448,192,43615,1,0,0:0:0:0:
192,192,43696,1,2,0:0:0:0:
64,192,43696,1,0,0:0:0:0:
320,192,43777,1,0,0:0:0:0:
64,192,43858,1,8,0:0:0:0:
448,192,43858,1,0,0:0:0:0:
320,192,44020,1,0,0:0:0:0:
192,192,44102,1,0,0:0:0:0:
448,192,44183,1,0,0:0:0:0:
64,192,44183,1,2,0:0:0:0:
320,192,44264,1,0,0:0:0:0:
192,192,44345,1,0,0:0:0:0:
64,192,44426,1,0,0:0:0:0:
320,192,44507,1,8,0:0:0:0:
448,192,44507,1,0,0:0:0:0:
64,192,44669,1,0,0:0:0:0:
192,192,44750,1,0,0:0:0:0:
320,192,44831,1,0,0:0:0:0:
448,192,44912,1,0,0:0:0:0:
192,192,44993,1,2,0:0:0:0:
64,192,44993,1,0,0:0:0:0:
320,192,45074,1,0,0:0:0:0:
64,192,45156,1,8,0:0:0:0:
448,192,45156,1,0,0:0:0:0:
192,192,45318,1,0,0:0:0:0:
320,192,45318,1,2,0:0:0:0:
64,192,45399,1,0,0:0:0:0:
448,192,45480,1,0,0:0:0:0:
320,192,45561,1,0,0:0:0:0:
192,192,45642,1,2,0:0:0:0:
64,192,45642,1,0,0:0:0:0:
448,192,45723,1,0,0:0:0:0:
320,192,45804,1,8,0:0:0:0:
64,192,45804,1,0,0:0:0:0:
192,192,45966,1,0,0:0:0:0:
320,192,46047,1,0,0:0:0:0:
448,192,46129,1,0,0:0:0:0:
64,192,46210,1,0,0:0:0:0:
192,192,46291,1,2,0:0:0:0:
320,192,46291,1,0,0:0:0:0:
448,192,46372,1,0,0:0:0:0:
64,192,46453,1,0,0:0:0:0:
192,192,46453,1,8,0:0:0:0:
320,192,46615,1,2,0:0:0:0:
448,192,46615,1,0,0:0:0:0:
192,192,46696,1,0,0:0:0:0:
64,192,46777,1,0,0:0:0:0:
448,192,46777,1,2,0:0:0:0:
320,192,46858,1,0,0:0:0:0:
192,192,46939,1,0,0:0:0:0:
64,192,47020,1,0,0:0:0:0:
320,192,47102,1,8,0:0:0:0:
448,192,47102,1,0,0:0:0:0:
64,192,47264,1,0,0:0:0:0:
192,192,47345,1,0,0:0:0:0:
320,192,47426,1,0,0:0:0:0:
448,192,47507,1,0,0:0:0:0:
192,192,47588,1,2,0:0:0:0:
64,192,47588,1,0,0:0:0:0:
320,192,47669,1,0,0:0:0:0:
448,192,47750,1,0,0:0:0:0:
64,192,47750,1,8,0:0:0:0:
320,192,47912,1,0,0:0:0:0:
192,192,47912,1,2,0:0:0:0:
64,192,47993,1,0,0:0:0:0:
448,192,48074,1,0,0:0:0:0:
320,192,48156,1,0,0:0:0:0:
192,192,48237,1,0,0:0:0:0:
64,192,48318,1,0,0:0:0:0:
320,192,48399,1,8,0:0:0:0:
448,192,48399,1,0,0:0:0:0:
64,192,48561,1,0,0:0:0:0:
192,192,48642,1,0,0:0:0:0:
320,192,48723,1,0,0:0:0:0:
448,192,48804,1,0,0:0:0:0:
64,192,48885,1,0,0:0:0:0:
192,192,48885,1,2,0:0:0:0:
320,192,48966,1,0,0:0:0:0:
448,192,49047,1,0,0:0:0:0:
64,192,49047,1,8,0:0:0:0:
320,192,49210,1,0,0:0:0:0:
192,192,49291,1,0,0:0:0:0:
448,192,49372,1,0,0:0:0:0:
64,192,49372,1,2,0:0:0:0:
320,192,49453,1,0,0:0:0:0:
192,192,49534,1,0,0:0:0:0:
64,192,49615,1,0,0:0:0:0:
448,192,49696,1,0,0:0:0:0:
320,192,49696,1,8,0:0:0:0:
64,192,49858,1,0,0:0:0:0:
192,192,49939,1,0,0:0:0:0:
448,192,50020,1,0,0:0:0:0:
320,192,50102,1,0,0:0:0:0:
64,192,50183,1,0,0:0:0:0:
192,192,50183,1,2,0:0:0:0:
448,192,50264,1,0,0:0:0:0:
64,192,50345,1,0,0:0:0:0:
320,192,50345,1,8,0:0:0:0:
192,192,50507,1,2,0:0:0:0:
448,192,50507,1,0,0:0:0:0:
64,192,50588,1,0,0:0:0:0:
320,192,50669,1,0,0:0:0:0:
448,192,50750,1,0,0:0:0:0:
192,192,50831,1,2,0:0:0:0:
64,192,50831,1,0,0:0:0:0:
320,192,50912,1,0,0:0:0:0:
448,192,50993,1,0,0:0:0:0:
64,192,50993,1,8,0:0:0:0:
192,192,51074,1,0,0:0:0:0:
320,192,51156,1,0,0:0:0:0:
192,192,51237,1,0,0:0:0:0:
320,192,51318,1,0,0:0:0:0:
64,192,51399,1,0,0:0:0:0:
448,192,51480,1,2,0:0:0:0:
192,192,51480,1,0,0:0:0:0:
64,192,51561,1,0,0:0:0:0:
448,192,51642,1,8,0:0:0:0:
320,192,51642,1,0,0:0:0:0:
192,192,51723,1,0,0:0:0:0:
64,192,51804,1,2,0:0:0:0:
448,192,51804,1,0,0:0:0:0:
320,192,51885,1,0,0:0:0:0:
192,192,51966,1,2,0:0:0:0:
64,192,51966,1,4,0:0:0:0:
448,192,51966,1,0,0:0:0:0:
320,192,52291,1,0,0:0:0:0:
64,192,52615,1,0,0:0:0:0:
192,192,52615,1,8,0:0:0:0:
448,192,52615,1,0,0:0:0:0:
64,192,52939,1,0,0:0:0:0:
320,192,52939,1,2,0:0:0:0:
192,192,53264,1,0,0:0:0:0:
448,192,53588,1,0,0:0:0:0:
64,192,53588,1,2,0:0:0:0:
192,192,53912,1,8,0:0:0:0:
448,192,53912,1,0,0:0:0:0:
320,192,53912,1,0,0:0:0:0:
64,192,54237,1,0,0:0:0:0:
192,192,54561,1,2,0:0:0:0:
448,192,54561,1,0,0:0:0:0:
320,192,54885,1,0,0:0:0:0:
64,192,55210,1,0,0:0:0:0:
192,192,55210,1,8,0:0:0:0:
448,192,55210,1,0,0:0:0:0:
192,192,55534,1,2,0:0:0:0:
320,192,55534,1,0,0:0:0:0:
64,192,55858,1,0,0:0:0:0:
320,192,56183,1,2,0:0:0:0:
448,192,56183,1,0,0:0:0:0:
64,192,56507,1,0,0:0:0:0:
192,192,56507,1,8,0:0:0:0:
448,192,56507,1,0,0:0:0:0:
192,192,56669,1,2,0:0:0:0:
320,192,56669,1,0,0:0:0:0:
64,192,56831,1,0,0:0:0:0:
192,192,57156,1,8,0:0:0:0:
320,192,57156,1,4,0:0:0:0:
448,192,57156,1,0,0:0:0:0:
64,192,57480,1,0,0:0:0:0:
192,192,57480,1,8,0:0:0:0:
320,192,57804,1,8,0:0:0:0:
448,192,57804,1,0,0:0:0:0:
192,192,58129,1,8,0:0:0:0:
320,192,58129,1,0,0:0:0:0:
64,192,58453,1,8,0:0:0:0:
448,192,58453,1,0,0:0:0:0:
64,192,58777,1,0,0:0:0:0:
320,192,58777,1,8,0:0:0:0:
192,192,59102,1,8,0:0:0:0:
448,192,59102,1,0,0:0:0:0:
320,192,59426,1,8,0:0:0:0:
448,192,59426,1,0,0:0:0:0:
192,192,59750,1,8,0:0:0:0:
64,192,59750,1,0,0:0:0:0:
192,192,60074,1,8,0:0:0:0:
320,192,60074,1,0,0:0:0:0:
64,192,60399,1,8,0:0:0:0:
448,192,60399,1,0,0:0:0:0:
320,192,60723,1,8,0:0:0:0:
448,192,60723,1,0,0:0:0:0:
192,192,61047,1,8,0:0:0:0:
64,192,61047,1,0,0:0:0:0:
192,192,61372,1,0,0:0:0:0:
448,192,61372,1,8,0:0:0:0:
64,192,61696,1,8,0:0:0:0:
320,192,61696,1,0,0:0:0:0:
320,192,62020,1,8,0:0:0:0:
192,192,62020,1,0,0:0:0:0:
64,192,62345,1,0,0:0:0:0:
448,192,62345,1,8,0:0:0:0:
320,192,62507,1,2,0:0:0:0:
192,192,62507,1,0,0:0:0:0:
192,192,62669,1,8,0:0:0:0:
64,192,62669,1,0,0:0:0:0:
448,192,62831,1,2,0:0:0:0:
320,192,62831,1,0,0:0:0:0:
320,192,62993,1,8,0:0:0:0:
64,192,62993,1,0,0:0:0:0:
192,192,63156,1,2,0:0:0:0:
448,192,63156,1,0,0:0:0:0:
448,192,63318,1,0,0:0:0:0:
320,192,63318,1,8,0:0:0:0:
64,192,63480,1,2,0:0:0:0:
192,192,63480,1,0,0:0:0:0:
448,192,63642,1,0,0:0:0:0:
64,192,63642,1,8,0:0:0:0:
320,192,63723,1,2,0:0:0:0:
192,192,63804,1,2,0:0:0:0:
64,192,63885,1,2,0:0:0:0:
320,192,63966,1,8,0:0:0:0:
448,192,63966,1,0,0:0:0:0:
192,192,64047,1,2,0:0:0:0:
64,192,64129,1,2,0:0:0:0:
448,192,64210,1,2,0:0:0:0:
64,192,64291,1,0,0:0:0:0:
320,192,64291,1,8,0:0:0:0:
192,192,64372,1,2,0:0:0:0:
320,192,64453,1,2,0:0:0:0:
448,192,64534,1,2,0:0:0:0:
64,192,64615,1,0,0:0:0:0:
192,192,64615,1,8,0:0:0:0:
320,192,64696,1,2,0:0:0:0:
448,192,64777,1,2,0:0:0:0:
64,192,64858,1,2,0:0:0:0:
320,192,64939,1,2,0:0:0:0:
448,192,64939,1,0,0:0:0:0:
192,192,65020,1,2,0:0:0:0:
64,192,65020,1,0,0:0:0:0:
320,192,65102,1,2,0:0:0:0:
448,192,65102,1,0,0:0:0:0:
192,192,65183,1,2,0:0:0:0:
64,192,65183,1,0,0:0:0:0:
448,192,65264,1,0,0:0:0:0:
320,192,65264,1,2,0:0:0:0:
64,192,65345,1,0,0:0:0:0:
192,192,65345,1,2,0:0:0:0:
320,192,65426,1,2,0:0:0:0:
448,192,65426,1,0,0:0:0:0:
192,192,65507,1,2,0:0:0:0:
64,192,65507,1,0,0:0:0:0:
320,192,65588,1,2,0:0:0:0:
448,192,65588,1,0,0:0:0:0:
192,192,65669,1,2,0:0:0:0:
64,192,65669,1,0,0:0:0:0:
448,192,65750,1,0,0:0:0:0:
320,192,65750,1,2,0:0:0:0:
64,192,65831,1,0,0:0:0:0:
192,192,65831,1,2,0:0:0:0:
448,192,65912,1,0,0:0:0:0:
320,192,65912,1,2,0:0:0:0:
64,192,65993,1,0,0:0:0:0:
192,192,65993,1,2,0:0:0:0:
320,192,66074,1,2,0:0:0:0:
448,192,66074,1,0,0:0:0:0:
192,192,66156,1,2,0:0:0:0:
64,192,66156,1,0,0:0:0:0:
320,192,66237,1,0,0:0:0:0:
448,192,66277,1,0,0:0:0:0:
64,192,66318,1,0,0:0:0:0:
192,192,66358,1,0,0:0:0:0:
320,192,66399,1,0,0:0:0:0:
192,192,66561,1,0,0:0:0:0:
64,192,66602,1,0,0:0:0:0:
448,192,66642,1,0,0:0:0:0:
320,192,66683,1,0,0:0:0:0:
192,192,66723,1,0,0:0:0:0:
64,192,66885,1,0,0:0:0:0:
192,192,66926,1,0,0:0:0:0:
320,192,66966,1,0,0:0:0:0:
448,192,67007,1,0,0:0:0:0:
64,192,67047,1,0,0:0:0:0:
320,192,67129,1,0,0:0:0:0:
192,192,67210,1,8,0:0:0:0:
64,192,67210,1,0,0:0:0:0:
320,192,67291,1,2,0:0:0:0:
448,192,67291,1,0,0:0:0:0:
192,192,67372,1,2,0:0:0:0:
64,192,67372,1,0,0:0:0:0:
320,192,67453,1,2,0:0:0:0:
448,192,67534,1,4,0:0:0:0:
192,192,67534,1,2,0:0:0:0:
64,192,67534,1,0,0:0:0:0:
320,192,67696,128,0,67858:0:0:0:0:
192,192,67858,128,0,68020:0:0:0:0:
64,192,68020,128,0,68183:0:0:0:0:
192,192,68183,1,0,0:0:0:0:
320,192,68183,1,8,0:0:0:0:
448,192,68183,1,0,0:0:0:0:
320,192,68345,128,0,68426:0:0:0:0:
64,192,68426,128,0,68507:0:0:0:0:
192,192,68507,1,2,0:0:0:0:
448,192,68507,1,0,0:0:0:0:
320,192,68588,128,0,68669:0:0:0:0:
64,192,68669,128,0,68750:0:0:0:0:
192,192,68993,128,0,69156:0:0:0:0:
320,192,69156,128,0,69318:0:0:0:0:
448,192,69318,128,0,69480:0:0:0:0:
64,192,69480,1,8,0:0:0:0:
192,192,69480,1,0,0:0:0:0:
320,192,69480,1,0,0:0:0:0:
192,192,69642,128,0,69723:0:0:0:0:
448,192,69723,128,0,69804:0:0:0:0:
192,192,69885,128,0,69966:0:0:0:0:
448,192,69966,128,0,70047:0:0:0:0:
64,192,70129,1,0,0:0:0:0:
320,192,70129,1,2,0:0:0:0:
448,192,70291,128,0,70453:0:0:0:0:
320,192,70453,128,0,70615:0:0:0:0:
192,192,70615,128,0,70777:0:0:0:0:
64,192,70777,1,0,0:0:0:0:
320,192,70777,1,8,0:0:0:0:
448,192,70777,1,0,0:0:0:0:
64,192,70939,128,0,71020:0:0:0:0:
448,192,71020,128,0,71102:0:0:0:0:
320,192,71102,1,0,0:0:0:0:
192,192,71102,1,2,0:0:0:0:
64,192,71183,128,0,71264:0:0:0:0:
448,192,71264,128,0,71345:0:0:0:0:
320,192,71426,128,0,71588:0:0:0:0:
64,192,71588,1,2,0:0:0:0:
192,192,71588,128,0,71669:0:0:0:0:
448,192,71669,128,0,71912:0:0:0:0:
64,192,71912,128,0,72074:0:0:0:0:
192,192,72074,1,0,0:0:0:0:
320,192,72074,1,8,0:0:0:0:
448,192,72074,1,0,0:0:0:0:
192,192,72237,128,0,72399:0:0:0:0:
320,192,72399,128,0,72561:0:0:0:0:
448,192,72561,128,0,72723:0:0:0:0:
192,192,72723,1,0,0:0:0:0:
64,192,72723,1,2,0:0:0:0:
320,192,72885,128,0,73047:0:0:0:0:
192,192,73047,128,0,73210:0:0:0:0:
64,192,73210,128,0,73372:0:0:0:0:
192,192,73372,1,0,0:0:0:0:
320,192,73372,1,8,0:0:0:0:
448,192,73372,1,0,0:0:0:0:
320,192,73534,128,0,73615:0:0:0:0:
192,192,73615,128,0,73696:0:0:0:0:
64,192,73696,1,2,0:0:0:0:
448,192,73696,1,0,0:0:0:0:
320,192,73777,128,0,73858:0:0:0:0:
192,192,73858,128,0,73939:0:0:0:0:
64,192,74183,128,0,74345:0:0:0:0:
192,192,74345,128,0,74507:0:0:0:0:
320,192,74507,128,0,74669:0:0:0:0:
64,192,74669,1,0,0:0:0:0:
192,192,74669,1,8,0:0:0:0:
448,192,74669,1,0,0:0:0:0:
448,192,74831,128,0,74912:0:0:0:0:
192,192,74912,128,0,74993:0:0:0:0:
448,192,75074,128,0,75156:0:0:0:0:
192,192,75156,128,0,75237:0:0:0:0:
64,192,75318,1,0,0:0:0:0:
320,192,75318,1,2,0:0:0:0:
448,192,75480,128,0,75642:0:0:0:0:
320,192,75642,128,0,75804:0:0:0:0:
192,192,75804,128,0,75966:0:0:0:0:
64,192,75966,1,0,0:0:0:0:
320,192,75966,1,8,0:0:0:0:
448,192,75966,1,0,0:0:0:0:
64,192,76129,128,0,76210:0:0:0:0:
320,192,76210,128,0,76291:0:0:0:0:
192,192,76291,1,2,0:0:0:0:
448,192,76291,1,0,0:0:0:0:
64,192,76372,128,0,76453:0:0:0:0:
320,192,76453,128,0,76534:0:0:0:0:
192,192,76615,128,0,76777:0:0:0:0:
448,192,76777,128,0,76858:0:0:0:0:
320,192,76858,128,0,77102:0:0:0:0:
64,192,77102,128,0,77345:0:0:0:0:
192,192,77345,128,0,77588:0:0:0:0:
320,192,77588,128,0,77750:0:0:0:0:
448,192,77750,128,0,77912:0:0:0:0:
192,192,77912,1,2,0:0:0:0:
64,192,77912,1,0,0:0:0:0:
320,192,78074,1,0,0:0:0:0:
192,192,78237,1,8,0:0:0:0:
64,192,78237,1,0,0:0:0:0:
448,192,78237,1,0,0:0:0:0:
192,192,78399,1,0,0:0:0:0:
320,192,78399,1,2,0:0:0:0:
64,192,78561,1,0,0:0:0:0:
448,192,78723,1,0,0:0:0:0:
192,192,78804,1,0,0:0:0:0:
320,192,78885,1,8,0:0:0:0:
448,192,78885,1,0,0:0:0:0:
64,192,78885,1,0,0:0:0:0:
192,192,78966,1,0,0:0:0:0:
448,192,79047,1,0,0:0:0:0:
320,192,79210,1,2,0:0:0:0:
64,192,79210,1,0,0:0:0:0:
192,192,79372,1,0,0:0:0:0:
64,192,79534,1,0,0:0:0:0:
320,192,79534,1,8,0:0:0:0:
448,192,79534,1,0,0:0:0:0:
192,192,79696,1,2,0:0:0:0:
320,192,79696,1,0,0:0:0:0:
448,192,79858,1,0,0:0:0:0:
192,192,80020,1,0,0:0:0:0:
320,192,80102,1,0,0:0:0:0:
192,192,80183,1,0,0:0:0:0:
64,192,80183,1,8,0:0:0:0:
448,192,80183,1,0,0:0:0:0:
320,192,80264,1,0,0:0:0:0:
192,192,80345,1,0,0:0:0:0:
64,192,80507,1,0,0:0:0:0:
448,192,80507,1,2,0:0:0:0:
320,192,80669,1,0,0:0:0:0:
64,192,80831,1,0,0:0:0:0:
192,192,80831,1,8,0:0:0:0:
448,192,80831,1,0,0:0:0:0:
320,192,80993,1,2,0:0:0:0:
64,192,80993,1,0,0:0:0:0:
192,192,81156,1,0,0:0:0:0:
448,192,81318,1,0,0:0:0:0:
64,192,81399,1,0,0:0:0:0:
192,192,81480,1,0,0:0:0:0:
320,192,81480,1,8,0:0:0:0:
448,192,81480,1,0,0:0:0:0:
64,192,81561,1,0,0:0:0:0:
448,192,81642,1,0,0:0:0:0:
320,192,81642,1,2,0:0:0:0:
192,192,81804,1,0,0:0:0:0:
320,192,81966,1,0,0:0:0:0:
64,192,82047,1,0,0:0:0:0:
192,192,82129,1,8,0:0:0:0:
320,192,82129,1,0,0:0:0:0:
448,192,82129,1,0,0:0:0:0:
64,192,82291,1,2,0:0:0:0:
192,192,82291,1,0,0:0:0:0:
320,192,82534,1,0,0:0:0:0:
192,192,82777,1,8,0:0:0:0:
64,192,82777,1,0,0:0:0:0:
448,192,82777,1,0,0:0:0:0:
320,192,82939,1,0,0:0:0:0:
64,192,83102,1,2,0:0:0:0:
448,192,83102,1,0,0:0:0:0:
192,192,83264,1,0,0:0:0:0:
64,192,83426,1,0,0:0:0:0:
320,192,83426,1,8,0:0:0:0:
448,192,83426,1,0,0:0:0:0:
192,192,83588,1,2,0:0:0:0:
448,192,83588,1,0,0:0:0:0:
320,192,83750,1,0,0:0:0:0:
64,192,83912,1,0,0:0:0:0:
448,192,83993,1,0,0:0:0:0:
320,192,84074,1,0,0:0:0:0:
192,192,84074,1,0,0:0:0:0:
64,192,84074,1,8,0:0:0:0:
448,192,84156,1,0,0:0:0:0:
64,192,84237,1,0,0:0:0:0:
320,192,84399,1,2,0:0:0:0:
448,192,84399,1,0,0:0:0:0:
64,192,84561,1,0,0:0:0:0:
192,192,84642,1,0,0:0:0:0:
64,192,84723,1,0,0:0:0:0:
320,192,84723,1,8,0:0:0:0:
448,192,84723,1,0,0:0:0:0:
192,192,84885,1,2,0:0:0:0:
320,192,84885,1,0,0:0:0:0:
448,192,85129,1,0,0:0:0:0:
320,192,85372,1,0,0:0:0:0:
192,192,85372,1,8,0:0:0:0:
64,192,85372,1,0,0:0:0:0:
448,192,85534,1,0,0:0:0:0:
64,192,85696,1,0,0:0:0:0:
320,192,85696,1,2,0:0:0:0:
192,192,85777,1,0,0:0:0:0:
64,192,86020,1,0,0:0:0:0:
192,192,86020,1,8,0:0:0:0:
448,192,86020,1,0,0:0:0:0:
192,192,86183,1,0,0:0:0:0:
320,192,86183,1,2,0:0:0:0:
448,192,86345,1,0,0:0:0:0:
192,192,86588,1,0,0:0:0:0:
64,192,86669,1,0,0:0:0:0:
320,192,86669,1,8,0:0:0:0:
448,192,86669,1,0,0:0:0:0:
192,192,86831,1,2,0:0:0:0:
64,192,86831,1,0,0:0:0:0:
448,192,86993,1,0,0:0:0:0:
320,192,87034,1,0,0:0:0:0:
64,192,87074,1,0,0:0:0:0:
192,192,87115,1,0,0:0:0:0:
320,192,87156,1,0,0:0:0:0:
64,192,87318,1,0,0:0:0:0:
192,192,87358,1,0,0:0:0:0:
448,192,87399,1,0,0:0:0:0:
320,192,87439,1,0,0:0:0:0:
192,192,87480,1,0,0:0:0:0:
320,192,87642,1,0,0:0:0:0:
320,192,87750,1,0,0:0:0:0:
320,192,87858,1,0,0:0:0:0:
192,192,87966,1,0,0:0:0:0:
192,192,88074,1,0,0:0:0:0:
192,192,88183,1,0,0:0:0:0:
320,192,88291,1,2,0:0:0:0:
448,192,88291,1,4,0:0:0:0:
64,192,88291,1,0,0:0:0:0:
192,192,88372,1,0,0:0:0:0:
320,192,88453,1,0,0:0:0:0:
448,192,88534,1,0,0:0:0:0:
192,192,88615,1,0,0:0:0:0:
64,192,88696,1,0,0:0:0:0:
320,192,88777,1,0,0:0:0:0:
192,192,88858,1,0,0:0:0:0:
448,192,88939,1,0,0:0:0:0:
320,192,89020,1,0,0:0:0:0:
192,192,89102,1,0,0:0:0:0:
64,192,89183,1,0,0:0:0:0:
320,192,89264,1,0,0:0:0:0:
448,192,89345,1,0,0:0:0:0:
192,192,89426,1,2,0:0:0:0:
64,192,89426,1,0,0:0:0:0:
320,192,89507,1,0,0:0:0:0:
448,192,89588,1,0,0:0:0:0:
192,192,89588,1,8,0:0:0:0:
64,192,89588,1,0,0:0:0:0:
320,192,89669,1,0,0:0:0:0:
192,192,89750,1,0,0:0:0:0:
64,192,89831,1,0,0:0:0:0:
448,192,89912,1,0,0:0:0:0:
192,192,89993,1,0,0:0:0:0:
320,192,90074,1,0,0:0:0:0:
64,192,90156,1,0,0:0:0:0:
192,192,90237,1,0,0:0:0:0:
448,192,90318,1,0,0:0:0:0:
320,192,90399,1,0,0:0:0:0:
192,192,90480,1,0,0:0:0:0:
64,192,90561,1,0,0:0:0:0:
320,192,90642,1,0,0:0:0:0:
192,192,90723,1,0,0:0:0:0:
448,192,90804,1,0,0:0:0:0:
64,192,90885,1,0,0:0:0:0:
320,192,90885,1,2,0:0:0:0:
192,192,90966,1,0,0:0:0:0:
448,192,91047,1,0,0:0:0:0:
320,192,91129,1,0,0:0:0:0:
192,192,91210,1,0,0:0:0:0:
64,192,91291,1,0,0:0:0:0:
320,192,91372,1,2,0:0:0:0:
448,192,91372,1,0,0:0:0:0:
64,192,91453,1,0,0:0:0:0:
192,192,91534,1,0,0:0:0:0:
320,192,91615,1,0,0:0:0:0:
448,192,91696,1,0,0:0:0:0:
192,192,91777,1,0,0:0:0:0:
320,192,91858,1,0,0:0:0:0:
64,192,91939,1,0,0:0:0:0:
192,192,92020,1,2,0:0:0:0:
448,192,92020,1,0,0:0:0:0:
320,192,92102,1,0,0:0:0:0:
64,192,92183,1,0,0:0:0:0:
192,192,92183,1,0,0:0:0:0:
448,192,92183,1,8,0:0:0:0:
320,192,92264,1,0,0:0:0:0:
192,192,92345,1,0,0:0:0:0:
448,192,92426,1,0,0:0:0:0:
64,192,92507,1,0,0:0:0:0:
192,192,92588,1,0,0:0:0:0:
320,192,92669,1,0,0:0:0:0:
448,192,92750,1,0,0:0:0:0:
64,192,92831,1,0,0:0:0:0:
320,192,92912,1,0,0:0:0:0:
192,192,92993,1,0,0:0:0:0:
448,192,93074,1,0,0:0:0:0:
320,192,93156,1,0,0:0:0:0:
64,192,93237,1,0,0:0:0:0:
192,192,93318,1,0,0:0:0:0:
320,192,93399,1,0,0:0:0:0:
64,192,93480,1,2,0:0:0:0:
448,192,93480,1,0,0:0:0:0:
192,192,93561,1,0,0:0:0:0:
448,192,93642,1,0,0:0:0:0:
320,192,93723,1,0,0:0:0:0:
192,192,93804,1,0,0:0:0:0:
64,192,93885,1,0,0:0:0:0:
320,192,93966,1,0,0:0:0:0:
192,192,94047,1,0,0:0:0:0:
448,192,94129,1,0,0:0:0:0:
64,192,94210,1,0,0:0:0:0:
192,192,94291,1,0,0:0:0:0:
320,192,94372,1,0,0:0:0:0:
448,192,94453,1,0,0:0:0:0:
64,192,94534,1,0,0:0:0:0:
192,192,94615,1,2,0:0:0:0:
448,192,94615,1,0,0:0:0:0:
320,192,94696,1,0,0:0:0:0:
64,192,94777,1,0,0:0:0:0:
192,192,94777,1,0,0:0:0:0:
448,192,94777,1,8,0:0:0:0:
320,192,94858,1,0,0:0:0:0:
192,192,94939,1,0,0:0:0:0:
64,192,95020,1,0,0:0:0:0:
320,192,95102,1,0,0:0:0:0:
192,192,95183,1,0,0:0:0:0:
448,192,95264,1,0,0:0:0:0:
64,192,95345,1,0,0:0:0:0:
192,192,95426,1,0,0:0:0:0:
320,192,95507,1,0,0:0:0:0:
448,192,95588,1,0,0:0:0:0:
192,192,95669,1,0,0:0:0:0:
64,192,95750,1,0,0:0:0:0:
448,192,95831,1,0,0:0:0:0:
320,192,95912,1,0,0:0:0:0:
192,192,95993,1,0,0:0:0:0:
64,192,96074,1,2,0:0:0:0:
448,192,96074,1,0,0:0:0:0:
320,192,96156,1,0,0:0:0:0:
192,192,96237,1,0,0:0:0:0:
64,192,96318,1,0,0:0:0:0:
320,192,96399,1,0,0:0:0:0:
448,192,96480,1,0,0:0:0:0:
192,192,96561,1,2,0:0:0:0:
64,192,96561,1,0,0:0:0:0:
448,192,96642,1,0,0:0:0:0:
320,192,96723,1,0,0:0:0:0:
64,192,96804,1,0,0:0:0:0:
192,192,96885,1,0,0:0:0:0:
448,192,96966,1,0,0:0:0:0:
320,192,97047,1,0,0:0:0:0:
192,192,97129,1,0,0:0:0:0:
64,192,97210,1,0,0:0:0:0:
448,192,97210,1,2,0:0:0:0:
320,192,97291,1,0,0:0:0:0:
192,192,97372,1,8,0:0:0:0:
64,192,97372,1,0,0:0:0:0:
448,192,97372,1,0,0:0:0:0:
320,192,97453,1,0,0:0:0:0:
192,192,97534,1,0,0:0:0:0:
448,192,97615,1,0,0:0:0:0:
64,192,97696,1,0,0:0:0:0:
320,192,97777,1,0,0:0:0:0:
448,192,97858,1,0,0:0:0:0:
64,192,97939,1,0,0:0:0:0:
448,192,98020,1,0,0:0:0:0:
320,192,98102,1,0,0:0:0:0:
64,192,98183,1,0,0:0:0:0:
448,192,98264,1,0,0:0:0:0:
192,192,98345,128,0,98669:0:0:0:0:
64,192,98669,1,0,0:0:0:0:
448,192,98669,1,4,0:0:0:0:
320,192,98669,1,2,0:0:0:0:
320,192,98831,1,0,0:0:0:0:
64,192,98993,1,0,0:0:0:0:
448,192,98993,1,0,0:0:0:0:
192,192,98993,1,8,0:0:0:0:
192,192,99156,1,0,0:0:0:0:
320,192,99318,1,2,0:0:0:0:
448,192,99318,1,0,0:0:0:0:
448,192,99480,1,0,0:0:0:0:
64,192,99642,1,0,0:0:0:0:
192,192,99642,1,8,0:0:0:0:
320,192,99642,1,0,0:0:0:0:
64,192,99804,1,0,0:0:0:0:
320,192,99966,1,2,0:0:0:0:
448,192,99966,1,0,0:0:0:0:
320,192,100129,1,0,0:0:0:0:
64,192,100291,1,0,0:0:0:0:
192,192,100291,1,8,0:0:0:0:
448,192,100291,1,0,0:0:0:0:
192,192,100453,1,0,0:0:0:0:
320,192,100615,1,2,0:0:0:0:
448,192,100615,1,0,0:0:0:0:
448,192,100777,1,0,0:0:0:0:
64,192,100939,1,0,0:0:0:0:
192,192,100939,1,8,0:0:0:0:
320,192,100939,1,0,0:0:0:0:
64,192,101102,1,0,0:0:0:0:
320,192,101264,1,2,0:0:0:0:
448,192,101264,1,0,0:0:0:0:
192,192,101426,1,0,0:0:0:0:
64,192,101588,1,8,0:0:0:0:
320,192,101588,1,0,0:0:0:0:
448,192,101588,1,0,0:0:0:0:
192,192,101750,1,0,0:0:0:0:
64,192,101912,1,0,0:0:0:0:
448,192,101912,1,2,0:0:0:0:
320,192,102074,1,0,0:0:0:0:
448,192,102237,1,0,0:0:0:0:
192,192,102237,1,8,0:0:0:0:
64,192,102237,1,0,0:0:0:0:
320,192,102399,1,0,0:0:0:0:
192,192,102561,1,2,0:0:0:0:
64,192,102561,1,0,0:0:0:0:
448,192,102723,1,0,0:0:0:0:
320,192,102885,1,8,0:0:0:0:
192,192,102885,1,0,0:0:0:0:
64,192,102885,1,0,0:0:0:0:
448,192,103047,1,0,0:0:0:0:
320,192,103210,1,0,0:0:0:0:
192,192,103210,1,2,0:0:0:0:
64,192,103372,1,0,0:0:0:0:
192,192,103534,1,0,0:0:0:0:
320,192,103534,1,8,0:0:0:0:
448,192,103534,1,0,0:0:0:0:
64,192,103696,1,0,0:0:0:0:
448,192,103858,1,0,0:0:0:0:
192,192,103858,1,2,0:0:0:0:
320,192,104020,1,0,0:0:0:0:
64,192,104183,1,0,0:0:0:0:
320,192,104183,1,8,0:0:0:0:
448,192,104183,1,0,0:0:0:0:
192,192,104345,1,0,0:0:0:0:
192,192,104507,1,2,0:0:0:0:
64,192,104507,1,0,0:0:0:0:
448,192,104669,1,0,0:0:0:0:
320,192,104831,1,8,0:0:0:0:
192,192,104831,1,0,0:0:0:0:
448,192,104831,1,0,0:0:0:0:
64,192,104993,1,0,0:0:0:0:
64,192,105156,1,2,0:0:0:0:
448,192,105156,1,0,0:0:0:0:
320,192,105318,1,0,0:0:0:0:
64,192,105480,1,0,0:0:0:0:
320,192,105480,1,8,0:0:0:0:
448,192,105480,1,0,0:0:0:0:
192,192,105642,1,0,0:0:0:0:
320,192,105804,1,0,0:0:0:0:
192,192,105804,1,2,0:0:0:0:
448,192,105966,1,0,0:0:0:0:
320,192,106129,1,8,0:0:0:0:
192,192,106129,1,0,0:0:0:0:
448,192,106129,1,0,0:0:0:0:
64,192,106291,1,0,0:0:0:0:
64,192,106453,1,2,0:0:0:0:
320,192,106453,1,0,0:0:0:0:
192,192,106615,1,0,0:0:0:0:
320,192,106777,1,0,0:0:0:0:
64,192,106777,1,8,0:0:0:0:
448,192,106777,1,0,0:0:0:0:
192,192,106939,1,0,0:0:0:0:
320,192,107102,1,2,0:0:0:0:
448,192,107102,1,0,0:0:0:0:
64,192,107264,1,0,0:0:0:0:
192,192,107426,1,8,0:0:0:0:
320,192,107426,1,0,0:0:0:0:
448,192,107426,1,0,0:0:0:0:
64,192,107588,1,0,0:0:0:0:
448,192,107750,1,0,0:0:0:0:
320,192,107804,1,0,0:0:0:0:
192,192,107858,1,0,0:0:0:0:
448,192,107966,1,0,0:0:0:0:
64,192,108074,1,0,0:0:0:0:
192,192,108129,1,0,0:0:0:0:
320,192,108183,1,0,0:0:0:0:
64,192,108291,1,0,0:0:0:0:
448,192,108399,128,0,108453:0:0:0:0:
320,192,108507,1,0,0:0:0:0:
192,192,108615,1,0,0:0:0:0:
64,192,108723,128,0,108777:0:0:0:0:
448,192,108831,1,0,0:0:0:0:
320,192,108939,1,0,0:0:0:0:
448,192,109047,1,4,0:0:0:0:
192,192,109047,128,0,109372:0:0:0:0:
64,192,109047,128,0,111642:0:0:0:0:
448,192,109372,128,0,109696:0:0:0:0:
320,192,109696,128,0,110020:0:0:0:0:
192,192,110020,128,0,110345:0:0:0:0:
448,192,110345,128,0,110669:0:0:0:0:
192,192,110669,128,0,110993:0:0:0:0:
320,192,110993,128,0,111318:0:0:0:0:
448,192,111318,128,0,111642:0:0:0:0:
192,192,111642,128,0,111966:0:0:0:0:
320,192,111642,128,0,114237:0:0:0:0:
64,192,111966,128,0,112291:0:0:0:0:
448,192,112291,128,0,112615:0:0:0:0:
64,192,112615,128,0,112939:0:0:0:0:
192,192,112939,128,0,113264:0:0:0:0:
448,192,113264,128,0,113588:0:0:0:0:
64,192,113588,128,0,113912:0:0:0:0:
448,192,113912,128,0,114237:0:0:0:0:
192,192,114237,128,0,116831:0:0:0:0:
64,192,114237,128,0,114561:0:0:0:0:
448,192,114561,128,0,114885:0:0:0:0:
320,192,114885,128,0,115210:0:0:0:0:
64,192,115210,128,0,115534:0:0:0:0:
320,192,115534,128,0,115858:0:0:0:0:
448,192,115858,128,0,116183:0:0:0:0:
64,192,116183,128,0,116507:0:0:0:0:
320,192,116507,128,0,116831:0:0:0:0:
448,192,116831,128,0,118939:0:0:0:0:
64,192,116831,128,0,117156:0:0:0:0:
320,192,117156,128,0,117480:0:0:0:0:
192,192,117480,128,0,117804:0:0:0:0:
64,192,117804,128,0,118129:0:0:0:0:
320,192,118129,128,0,118453:0:0:0:0:
64,192,118453,128,0,118777:0:0:0:0:
192,192,118777,128,0,119102:0:0:0:0:
320,192,118939,128,0,119426:0:0:0:0:
64,192,119102,128,0,119426:0:0:0:0:
192,192,119426,128,0,122020:0:0:0:0:
448,192,119426,128,0,119750:0:0:0:0:
64,192,119750,128,0,120074:0:0:0:0:
320,192,120074,128,0,120399:0:0:0:0:
448,192,120399,128,0,120723:0:0:0:0:
64,192,120723,128,0,121047:0:0:0:0:
448,192,121047,128,0,121372:0:0:0:0:
320,192,121372,128,0,121696:0:0:0:0:
64,192,121696,128,0,122020:0:0:0:0:
320,192,122020,128,0,122345:0:0:0:0:
448,192,122020,128,0,124615:0:0:0:0:
192,192,122345,128,0,122669:0:0:0:0:
64,192,122669,128,0,122993:0:0:0:0:
320,192,122993,128,0,123318:0:0:0:0:
64,192,123318,128,0,123642:0:0:0:0:
192,192,123642,128,0,123966:0:0:0:0:
320,192,123966,128,0,124291:0:0:0:0:
192,192,124291,128,0,124615:0:0:0:0:
64,192,124615,128,0,127210:0:0:0:0:
320,192,124615,128,0,124939:0:0:0:0:
448,192,124939,128,0,125264:0:0:0:0:
192,192,125264,128,0,125588:0:0:0:0:
320,192,125588,128,0,125912:0:0:0:0:
448,192,125912,128,0,126237:0:0:0:0:
192,192,126237,128,0,126561:0:0:0:0:
320,192,126561,128,0,126885:0:0:0:0:
448,192,126885,128,0,127210:0:0:0:0:
320,192,127210,128,0,129156:0:0:0:0:
192,192,127210,128,0,127534:0:0:0:0:
448,192,127534,128,0,127858:0:0:0:0:
192,192,127858,128,0,128183:0:0:0:0:
64,192,128183,128,0,128507:0:0:0:0:
448,192,128507,128,0,128831:0:0:0:0:
192,192,128831,128,0,129156:0:0:0:0:
64,192,129156,1,0,0:0:0:0:
448,192,129210,1,0,0:0:0:0:
320,192,129264,1,0,0:0:0:0:
192,192,129318,1,0,0:0:0:0:
64,192,129372,1,0,0:0:0:0:
320,192,129426,1,0,0:0:0:0:
448,192,129480,1,0,0:0:0:0:
64,192,129534,1,0,0:0:0:0:
192,192,129588,1,0,0:0:0:0:
448,192,129642,1,0,0:0:0:0:
320,192,129696,1,0,0:0:0:0:
192,192,129750,1,0,0:0:0:0:
448,192,129804,1,0,0:0:0:0:
64,192,129804,1,0,0:0:0:0:
320,192,129804,128,0,130129:0:0:0:0:
192,192,130129,128,0,130453:0:0:0:0:
320,192,130453,128,0,130777:0:0:0:0:
64,192,130453,128,0,130777:0:0:0:0:
448,192,130777,128,0,131102:0:0:0:0:
64,192,131102,128,0,131426:0:0:0:0:
192,192,131426,128,0,131750:0:0:0:0:
320,192,131426,128,0,131750:0:0:0:0:
448,192,131750,128,0,132074:0:0:0:0:
64,192,132074,128,0,132399:0:0:0:0:
320,192,132074,128,0,132399:0:0:0:0:
192,192,132399,128,0,132723:0:0:0:0:
320,192,132723,128,0,133047:0:0:0:0:
448,192,132723,128,0,133047:0:0:0:0:
64,192,133047,128,0,133372:0:0:0:0:
192,192,133372,128,0,133696:0:0:0:0:
448,192,133696,128,0,134020:0:0:0:0:
320,192,134020,128,0,134345:0:0:0:0:
64,192,134345,128,0,134669:0:0:0:0:
192,192,134669,128,0,134993:0:0:0:0:
448,192,134993,128,0,135318:0:0:0:0:
64,192,135318,128,0,135642:0:0:0:0:
192,192,135642,128,0,135966:0:0:0:0:
448,192,135642,128,0,135966:0:0:0:0:
320,192,135966,128,0,136291:0:0:0:0:
192,192,136291,128,0,136615:0:0:0:0:
64,192,136615,128,0,136939:0:0:0:0:
448,192,136615,128,0,136939:0:0:0:0:
320,192,136939,128,0,137264:0:0:0:0:
192,192,137264,128,0,137588:0:0:0:0:
64,192,137264,128,0,137588:0:0:0:0:
448,192,137588,128,0,137912:0:0:0:0:
320,192,137912,128,0,138237:0:0:0:0:
64,192,137912,128,0,138237:0:0:0:0:
192,192,138237,128,0,138561:0:0:0:0:
320,192,138561,128,0,138885:0:0:0:0:
448,192,138885,128,0,139210:0:0:0:0:
64,192,139210,128,0,139534:0:0:0:0:
320,192,139534,128,0,139858:0:0:0:0:
192,192,139696,128,0,140183:0:0:0:0:
448,192,139858,128,0,140183:0:0:0:0:
320,192,140183,1,0,0:0:0:0:
64,192,140183,128,0,140507:0:0:0:0:
448,192,140507,128,0,140831:0:0:0:0:
64,192,140831,128,0,141156:0:0:0:0:
320,192,140831,128,0,141156:0:0:0:0:
192,192,141156,128,0,141480:0:0:0:0:
448,192,141480,128,0,141804:0:0:0:0:
192,192,141804,128,0,142129:0:0:0:0:
320,192,141804,128,0,142129:0:0:0:0:
64,192,142129,128,0,142453:0:0:0:0:
448,192,142453,128,0,142777:0:0:0:0:
192,192,142453,128,0,142777:0:0:0:0:
320,192,142777,128,0,143102:0:0:0:0:
64,192,143102,128,0,143426:0:0:0:0:
192,192,143102,128,0,143426:0:0:0:0:
448,192,143426,128,0,143750:0:0:0:0:
320,192,143750,128,0,144074:0:0:0:0:
64,192,143750,128,0,144074:0:0:0:0:
192,192,144074,128,0,144399:0:0:0:0:
320,192,144399,128,0,144723:0:0:0:0:
448,192,144399,128,0,144723:0:0:0:0:
192,192,144723,128,0,145047:0:0:0:0:
64,192,145047,128,0,145372:0:0:0:0:
448,192,145047,128,0,145210:0:0:0:0:
320,192,145210,128,0,145372:0:0:0:0:
448,192,145372,128,0,146020:0:0:0:0:
192,192,145372,128,0,145696:0:0:0:0:
320,192,145696,128,0,146020:0:0:0:0:
64,192,146020,128,0,146345:0:0:0:0:
320,192,146345,128,0,146669:0:0:0:0:
192,192,146345,128,0,146507:0:0:0:0:
448,192,146507,128,0,146669:0:0:0:0:
192,192,146669,128,0,146993:0:0:0:0:
64,192,146669,128,0,147318:0:0:0:0:
448,192,146993,128,0,147318:0:0:0:0:
320,192,147318,128,0,147642:0:0:0:0:
192,192,147642,128,0,147966:0:0:0:0:
64,192,147642,128,0,147804:0:0:0:0:
448,192,147804,128,0,147966:0:0:0:0:
64,192,147966,128,0,148291:0:0:0:0:
320,192,147966,128,0,149912:0:0:0:0:
448,192,148291,128,0,148615:0:0:0:0:
192,192,148615,128,0,148939:0:0:0:0:
64,192,148939,128,0,149264:0:0:0:0:
192,192,149264,128,0,149588:0:0:0:0:
448,192,149588,128,0,149912:0:0:0:0:
192,192,149912,128,0,150237:0:0:0:0:
64,192,149912,128,0,150561:0:0:0:0:
448,192,150237,128,0,150561:0:0:0:0:
320,192,150561,128,0,152831:0:0:0:0:
192,192,150561,128,0,150885:0:0:0:0:
64,192,150885,128,0,151210:0:0:0:0:
448,192,151210,128,0,151534:0:0:0:0:
64,192,151534,128,0,151858:0:0:0:0:
192,192,151858,128,0,152183:0:0:0:0:
448,192,152183,128,0,152507:0:0:0:0:
64,192,152507,128,0,152831:0:0:0:0:
192,192,152831,128,0,153156:0:0:0:0:
448,192,152831,128,0,153156:0:0:0:0:
64,192,153156,128,0,155426:0:0:0:0:
320,192,153156,128,0,153480:0:0:0:0:
192,192,153480,128,0,153804:0:0:0:0:
448,192,153804,128,0,154129:0:0:0:0:
320,192,154129,128,0,154453:0:0:0:0:
192,192,154453,128,0,154777:0:0:0:0:
320,192,154777,128,0,155102:0:0:0:0:
448,192,155102,128,0,155426:0:0:0:0:
192,192,155426,128,0,155750:0:0:0:0:
320,192,155426,128,0,155750:0:0:0:0:
448,192,155750,128,0,156723:0:0:0:0:
64,192,155750,128,0,156074:0:0:0:0:
192,192,156074,128,0,156399:0:0:0:0:
320,192,156399,128,0,156723:0:0:0:0:
192,192,156723,128,0,157047:0:0:0:0:
64,192,156723,128,0,157047:0:0:0:0:
320,192,157047,128,0,157372:0:0:0:0:
448,192,157047,128,0,158020:0:0:0:0:
64,192,157372,128,0,157696:0:0:0:0:
192,192,157696,128,0,158020:0:0:0:0:
320,192,158020,128,0,158345:0:0:0:0:
64,192,158020,128,0,158345:0:0:0:0:
192,192,158345,128,0,159318:0:0:0:0:
448,192,158345,128,0,158669:0:0:0:0:
320,192,158669,128,0,158993:0:0:0:0:
64,192,158993,128,0,159318:0:0:0:0:
320,192,159318,128,0,159642:0:0:0:0:
448,192,159318,128,0,159642:0:0:0:0:
192,192,159642,128,0,160453:0:0:0:0:
64,192,159642,128,0,159966:0:0:0:0:
448,192,159966,128,0,160291:0:0:0:0:
320,192,160291,128,0,160615:0:0:0:0:
64,192,160453,128,0,160939:0:0:0:0:
448,192,160615,128,0,160939:0:0:0:0:
192,192,160939,128,0,161264:0:0:0:0:
320,192,160939,128,0,163534:0:0:0:0:
64,192,161264,128,0,161588:0:0:0:0:
448,192,161588,128,0,161912:0:0:0:0:
192,192,161588,1,0,0:0:0:0:
64,192,161912,128,0,162237:0:0:0:0:
192,192,162237,128,0,162561:0:0:0:0:
64,192,162561,128,0,162885:0:0:0:0:
448,192,162561,1,0,0:0:0:0:
448,192,162885,128,0,163210:0:0:0:0:
64,192,163210,1,0,0:0:0:0:
192,192,163210,128,0,163534:0:0:0:0:
64,192,163534,128,0,165804:0:0:0:0:
448,192,163534,128,0,163858:0:0:0:0:
192,192,163858,128,0,164183:0:0:0:0:
320,192,163858,1,0,0:0:0:0:
448,192,164183,128,0,164507:0:0:0:0:
192,192,164507,1,0,0:0:0:0:
320,192,164507,128,0,164831:0:0:0:0:
192,192,164831,128,0,165156:0:0:0:0:
320,192,165156,128,0,165480:0:0:0:0:
448,192,165156,1,0,0:0:0:0:
192,192,165480,128,0,165804:0:0:0:0:
320,192,165804,1,0,0:0:0:0:
448,192,165804,128,0,166129:0:0:0:0:
192,192,165966,1,0,0:0:0:0:
192,192,166129,1,0,0:0:0:0:
320,192,166129,128,0,168399:0:0:0:0:
64,192,166129,128,0,166453:0:0:0:0:
448,192,166453,128,0,166777:0:0:0:0:
192,192,166777,128,0,167102:0:0:0:0:
64,192,167102,1,0,0:0:0:0:
448,192,167102,128,0,167426:0:0:0:0:
192,192,167264,1,0,0:0:0:0:
192,192,167426,1,0,0:0:0:0:
64,192,167426,128,0,167750:0:0:0:0:
448,192,167750,128,0,168074:0:0:0:0:
192,192,168074,128,0,168399:0:0:0:0:
64,192,168399,128,0,168723:0:0:0:0:
448,192,168399,1,0,0:0:0:0:
320,192,168561,1,0,0:0:0:0:
192,192,168723,1,2,0:0:0:0:
320,192,168723,1,0,0:0:0:0:
64,192,169047,1,0,0:0:0:0:
448,192,169047,1,8,0:0:0:0:
192,192,169372,1,0,0:0:0:0:
320,192,169534,1,2,0:0:0:0:
448,192,169534,1,0,0:0:0:0:
192,192,169696,1,8,0:0:0:0:
64,192,169696,1,0,0:0:0:0:
320,192,169858,1,2,0:0:0:0:
448,192,169858,1,0,0:0:0:0:
64,192,170020,1,0,0:0:0:0:
192,192,170183,1,2,0:0:0:0:
320,192,170183,1,0,0:0:0:0:
64,192,170345,1,0,0:0:0:0:
320,192,170345,1,8,0:0:0:0:
448,192,170345,1,0,0:0:0:0:
192,192,170669,1,0,0:0:0:0:
64,192,170831,1,0,0:0:0:0:
320,192,170831,1,2,0:0:0:0:
192,192,170993,1,8,0:0:0:0:
64,192,170993,1,0,0:0:0:0:
448,192,170993,1,0,0:0:0:0:
192,192,171156,1,0,0:0:0:0:
320,192,171156,1,2,0:0:0:0:
64,192,171318,1,0,0:0:0:0:
320,192,171318,1,2,0:0:0:0:
448,192,171318,1,4,0:0:0:0:
192,192,171480,1,0,0:0:0:0:
64,192,171642,1,0,0:0:0:0:
320,192,171642,1,8,0:0:0:0:
448,192,171642,1,0,0:0:0:0:
192,192,171804,1,0,0:0:0:0:
320,192,171966,1,0,0:0:0:0:
64,192,172129,1,2,0:0:0:0:
448,192,172129,1,0,0:0:0:0:
64,192,172291,1,0,0:0:0:0:
192,192,172291,1,0,0:0:0:0:
320,192,172291,1,8,0:0:0:0:
320,192,172453,1,2,0:0:0:0:
448,192,172453,1,0,0:0:0:0:
64,192,172615,1,0,0:0:0:0:
192,192,172777,1,0,0:0:0:0:
64,192,172939,1,0,0:0:0:0:
320,192,172939,1,8,0:0:0:0:
448,192,172939,1,0,0:0:0:0:
192,192,173102,1,0,0:0:0:0:
320,192,173264,1,0,0:0:0:0:
192,192,173426,1,2,0:0:0:0:
448,192,173426,1,0,0:0:0:0:
64,192,173588,1,0,0:0:0:0:
192,192,173588,1,8,0:0:0:0:
320,192,173588,1,0,0:0:0:0:
448,192,173750,1,0,0:0:0:0:
64,192,173912,1,0,0:0:0:0:
192,192,173912,1,2,0:0:0:0:
320,192,174074,1,0,0:0:0:0:
192,192,174237,1,8,0:0:0:0:
64,192,174237,1,0,0:0:0:0:
448,192,174237,1,0,0:0:0:0:
320,192,174399,1,0,0:0:0:0:
192,192,174561,1,0,0:0:0:0:
64,192,174723,1,2,0:0:0:0:
448,192,174723,1,0,0:0:0:0:
192,192,174885,1,8,0:0:0:0:
320,192,174885,1,0,0:0:0:0:
448,192,174885,1,0,0:0:0:0:
64,192,175047,1,0,0:0:0:0:
192,192,175047,1,2,0:0:0:0:
320,192,175210,1,0,0:0:0:0:
192,192,175372,1,0,0:0:0:0:
448,192,175372,1,2,0:0:0:0:
64,192,175534,1,8,0:0:0:0:
320,192,175534,1,0,0:0:0:0:
448,192,175534,1,0,0:0:0:0:
192,192,175696,1,0,0:0:0:0:
320,192,175858,1,0,0:0:0:0:
64,192,176020,1,2,0:0:0:0:
448,192,176020,1,0,0:0:0:0:
64,192,176183,1,0,0:0:0:0:
192,192,176183,1,8,0:0:0:0:
320,192,176183,1,0,0:0:0:0:
320,192,176345,1,2,0:0:0:0:
448,192,176345,1,0,0:0:0:0:
192,192,176507,1,2,0:0:0:0:
64,192,176507,1,0,0:0:0:0:
320,192,176669,1,0,0:0:0:0:
64,192,176831,1,0,0:0:0:0:
192,192,176831,1,8,0:0:0:0:
448,192,176831,1,0,0:0:0:0:
320,192,176993,1,0,0:0:0:0:
192,192,177156,1,0,0:0:0:0:
64,192,177318,1,2,0:0:0:0:
320,192,177318,1,0,0:0:0:0:
192,192,177480,1,0,0:0:0:0:
320,192,177480,1,8,0:0:0:0:
448,192,177480,1,0,0:0:0:0:
64,192,177642,1,0,0:0:0:0:
192,192,177642,1,2,0:0:0:0:
320,192,177804,1,0,0:0:0:0:
448,192,177966,1,0,0:0:0:0:
64,192,178129,1,0,0:0:0:0:
192,192,178129,1,8,0:0:0:0:
320,192,178129,1,0,0:0:0:0:
448,192,178291,1,0,0:0:0:0:
64,192,178453,1,0,0:0:0:0:
192,192,178615,1,2,0:0:0:0:
448,192,178615,1,0,0:0:0:0:
64,192,178777,1,0,0:0:0:0:
192,192,178777,1,0,0:0:0:0:
320,192,178777,1,8,0:0:0:0:
448,192,178939,1,0,0:0:0:0:
192,192,179020,1,0,0:0:0:0:
64,192,179102,1,0,0:0:0:0:
448,192,179102,1,2,0:0:0:0:
320,192,179264,1,0,0:0:0:0:
192,192,179426,1,8,0:0:0:0:
64,192,179426,1,0,0:0:0:0:
448,192,179426,1,0,0:0:0:0:
320,192,179588,1,0,0:0:0:0:
64,192,179669,1,0,0:0:0:0:
320,192,179750,1,0,0:0:0:0:
192,192,179912,1,2,0:0:0:0:
448,192,179912,1,0,0:0:0:0:
64,192,180074,1,0,0:0:0:0:
320,192,180074,1,8,0:0:0:0:
448,192,180074,1,0,0:0:0:0:
192,192,180237,1,2,0:0:0:0:
64,192,180237,1,0,0:0:0:0:
320,192,180318,1,0,0:0:0:0:
192,192,180399,1,0,0:0:0:0:
320,192,180561,1,2,0:0:0:0:
448,192,180561,1,0,0:0:0:0:
64,192,180723,1,0,0:0:0:0:
192,192,180723,1,8,0:0:0:0:
448,192,180723,1,0,0:0:0:0:
320,192,180885,1,0,0:0:0:0:
192,192,181047,1,0,0:0:0:0:
64,192,181210,1,2,0:0:0:0:
448,192,181210,1,0,0:0:0:0:
64,192,181372,1,0,0:0:0:0:
192,192,181372,1,0,0:0:0:0:
320,192,181372,1,8,0:0:0:0:
320,192,181534,1,0,0:0:0:0:
448,192,181534,1,2,0:0:0:0:
192,192,181696,1,2,0:0:0:0:
64,192,181696,1,0,0:0:0:0:
320,192,181858,1,0,0:0:0:0:
64,192,182020,1,0,0:0:0:0:
192,192,182020,1,8,0:0:0:0:
448,192,182020,1,0,0:0:0:0:
320,192,182183,1,0,0:0:0:0:
64,192,182345,1,0,0:0:0:0:
192,192,182507,1,2,0:0:0:0:
448,192,182507,1,0,0:0:0:0:
64,192,182669,1,0,0:0:0:0:
192,192,182669,1,0,0:0:0:0:
320,192,182669,1,8,0:0:0:0:
320,192,182831,1,2,0:0:0:0:
448,192,182831,1,0,0:0:0:0:
64,192,182993,1,0,0:0:0:0:
192,192,183156,1,0,0:0:0:0:
64,192,183318,1,0,0:0:0:0:
320,192,183318,1,8,0:0:0:0:
448,192,183318,1,0,0:0:0:0:
192,192,183480,1,0,0:0:0:0:
320,192,183642,1,0,0:0:0:0:
192,192,183804,1,2,0:0:0:0:
448,192,183804,1,0,0:0:0:0:
64,192,183966,1,0,0:0:0:0:
192,192,183966,1,0,0:0:0:0:
320,192,183966,1,8,0:0:0:0:
448,192,184129,1,0,0:0:0:0:
192,192,184291,1,2,0:0:0:0:
64,192,184291,1,0,0:0:0:0:
320,192,184453,1,0,0:0:0:0:
64,192,184615,1,0,0:0:0:0:
192,192,184615,1,0,0:0:0:0:
448,192,184615,1,8,0:0:0:0:
320,192,184777,1,0,0:0:0:0:
192,192,184939,1,0,0:0:0:0:
64,192,185102,1,2,0:0:0:0:
448,192,185102,1,0,0:0:0:0:
192,192,185264,1,8,0:0:0:0:
320,192,185264,1,0,0:0:0:0:
448,192,185264,1,0,0:0:0:0:
192,192,185426,1,2,0:0:0:0:
64,192,185426,1,0,0:0:0:0:
448,192,185588,1,0,0:0:0:0:
64,192,185750,1,0,0:0:0:0:
320,192,185750,1,2,0:0:0:0:
192,192,185912,1,0,0:0:0:0:
320,192,185912,1,8,0:0:0:0:
448,192,185912,1,0,0:0:0:0:
64,192,186074,1,0,0:0:0:0:
320,192,186237,1,0,0:0:0:0:
192,192,186399,1,2,0:0:0:0:
448,192,186399,1,0,0:0:0:0:
192,192,186561,1,0,0:0:0:0:
64,192,186561,1,0,0:0:0:0:
320,192,186561,1,8,0:0:0:0:
320,192,186723,1,2,0:0:0:0:
448,192,186723,1,0,0:0:0:0:
192,192,186885,1,2,0:0:0:0:
64,192,186885,1,0,0:0:0:0:
448,192,187047,1,0,0:0:0:0:
64,192,187210,1,0,0:0:0:0:
192,192,187210,1,0,0:0:0:0:
320,192,187210,1,8,0:0:0:0:
448,192,187372,1,0,0:0:0:0:
192,192,187534,1,0,0:0:0:0:
64,192,187696,1,0,0:0:0:0:
320,192,187696,1,2,0:0:0:0:
64,192,187858,1,0,0:0:0:0:
192,192,187858,1,8,0:0:0:0:
448,192,187858,1,0,0:0:0:0:
192,192,188020,1,0,0:0:0:0:
320,192,188020,1,2,0:0:0:0:
448,192,188183,1,0,0:0:0:0:
64,192,188345,1,0,0:0:0:0:
192,192,188507,1,0,0:0:0:0:
320,192,188507,1,8,0:0:0:0:
448,192,188507,1,0,0:0:0:0:
64,192,188669,1,0,0:0:0:0:
320,192,188831,1,0,0:0:0:0:
192,192,188993,1,2,0:0:0:0:
448,192,188993,1,0,0:0:0:0:
64,192,189156,1,0,0:0:0:0:
320,192,189156,1,8,0:0:0:0:
448,192,189156,1,0,0:0:0:0:
192,192,189318,1,0,0:0:0:0:
320,192,189399,1,0,0:0:0:0:
192,192,189480,1,2,0:0:0:0:
64,192,189480,1,0,0:0:0:0:
448,192,189642,1,0,0:0:0:0:
320,192,189804,1,8,0:0:0:0:
192,192,189804,1,0,0:0:0:0:
64,192,189804,1,0,0:0:0:0:
448,192,189966,1,0,0:0:0:0:
192,192,190047,1,0,0:0:0:0:
448,192,190129,1,0,0:0:0:0:
64,192,190291,1,0,0:0:0:0:
320,192,190291,1,2,0:0:0:0:
64,192,190453,1,0,0:0:0:0:
192,192,190453,1,8,0:0:0:0:
448,192,190453,1,0,0:0:0:0:
448,192,190615,1,0,0:0:0:0:
320,192,190615,1,2,0:0:0:0:
64,192,190696,1,0,0:0:0:0:
320,192,190777,1,0,0:0:0:0:
192,192,190939,1,2,0:0:0:0:
64,192,190939,1,0,0:0:0:0:
64,192,191102,1,0,0:0:0:0:
320,192,191102,1,8,0:0:0:0:
448,192,191102,1,0,0:0:0:0:
192,192,191264,1,0,0:0:0:0:
320,192,191426,1,0,0:0:0:0:
64,192,191588,1,2,0:0:0:0:
448,192,191588,1,0,0:0:0:0:
64,192,191750,1,0,0:0:0:0:
192,192,191750,1,8,0:0:0:0:
320,192,191750,1,0,0:0:0:0:
320,192,191912,1,2,0:0:0:0:
448,192,191912,1,0,0:0:0:0:
64,192,192074,1,0,0:0:0:0:
192,192,192074,1,2,0:0:0:0:
448,192,192074,1,4,0:0:0:0:
320,192,192399,1,0,0:0:0:0:
64,192,192723,1,0,0:0:0:0:
192,192,192723,1,8,0:0:0:0:
448,192,192723,1,0,0:0:0:0:
192,192,193047,1,2,0:0:0:0:
320,192,193047,1,0,0:0:0:0:
64,192,193372,1,0,0:0:0:0:
192,192,193696,1,2,0:0:0:0:
448,192,193696,1,0,0:0:0:0:
320,192,194020,1,8,0:0:0:0:
192,192,194020,1,0,0:0:0:0:
64,192,194020,1,0,0:0:0:0:
448,192,194345,1,0,0:0:0:0:
192,192,194669,1,0,0:0:0:0:
64,192,194669,1,2,0:0:0:0:
320,192,194993,1,0,0:0:0:0:
64,192,195318,1,0,0:0:0:0:
192,192,195318,1,8,0:0:0:0:
448,192,195318,1,0,0:0:0:0:
64,192,195642,1,0,0:0:0:0:
320,192,195642,1,2,0:0:0:0:
192,192,195966,1,0,0:0:0:0:
320,192,196291,1,2,0:0:0:0:
448,192,196291,1,0,0:0:0:0:
192,192,196615,1,8,0:0:0:0:
64,192,196615,1,0,0:0:0:0:
448,192,196615,1,0,0:0:0:0:
192,192,196777,1,0,0:0:0:0:
320,192,196777,1,2,0:0:0:0:
448,192,196939,1,0,0:0:0:0:
64,192,197264,1,0,0:0:0:0:
192,192,197264,1,2,0:0:0:0:
320,192,197264,1,4,0:0:0:0:
64,192,197588,1,0,0:0:0:0:
320,192,197588,1,8,0:0:0:0:
448,192,197588,1,0,0:0:0:0:
192,192,197912,1,2,0:0:0:0:
64,192,197912,1,0,0:0:0:0:
320,192,198074,1,2,0:0:0:0:
448,192,198074,1,0,0:0:0:0:
192,192,198237,1,8,0:0:0:0:
64,192,198237,1,0,0:0:0:0:
448,192,198237,1,0,0:0:0:0:
192,192,198399,1,0,0:0:0:0:
320,192,198399,1,2,0:0:0:0:
64,192,198561,1,2,0:0:0:0:
448,192,198561,1,0,0:0:0:0:
192,192,198885,1,0,0:0:0:0:
320,192,198885,1,8,0:0:0:0:
448,192,198885,1,0,0:0:0:0:
192,192,199210,1,2,0:0:0:0:
64,192,199210,1,0,0:0:0:0:
320,192,199372,1,2,0:0:0:0:
448,192,199372,1,0,0:0:0:0:
192,192,199534,1,8,0:0:0:0:
64,192,199534,1,0,0:0:0:0:
320,192,199534,1,0,0:0:0:0:
192,192,199858,1,2,0:0:0:0:
448,192,199858,1,0,0:0:0:0:
64,192,200183,1,0,0:0:0:0:
320,192,200183,1,8,0:0:0:0:
448,192,200183,1,0,0:0:0:0:
192,192,200507,1,2,0:0:0:0:
320,192,200507,1,0,0:0:0:0:
64,192,200669,1,2,0:0:0:0:
448,192,200669,1,0,0:0:0:0:
192,192,200831,1,0,0:0:0:0:
320,192,200831,1,8,0:0:0:0:
448,192,200831,1,0,0:0:0:0:
192,192,200993,1,2,0:0:0:0:
64,192,200993,1,0,0:0:0:0:
320,192,201156,1,2,0:0:0:0:
448,192,201156,1,0,0:0:0:0:
192,192,201318,1,2,0:0:0:0:
64,192,201318,1,0,0:0:0:0:
64,192,201480,1,0,0:0:0:0:
320,192,201480,1,8,0:0:0:0:
448,192,201480,1,0,0:0:0:0:
192,192,201804,1,2,0:0:0:0:
448,192,201804,1,0,0:0:0:0:
320,192,201966,1,2,0:0:0:0:
64,192,201966,1,0,0:0:0:0:
64,192,202129,1,0,0:0:0:0:
192,192,202129,1,8,0:0:0:0:
448,192,202129,1,0,0:0:0:0:
320,192,202291,1,2,0:0:0:0:
448,192,202291,1,0,0:0:0:0:
192,192,202453,1,8,0:0:0:0:
64,192,202453,1,0,0:0:0:0:
320,192,202453,1,0,0:0:0:0:
192,192,202615,1,2,0:0:0:0:
448,192,202615,1,0,0:0:0:0:
320,192,202777,1,8,0:0:0:0:
64,192,202777,1,0,0:0:0:0:
448,192,202777,1,0,0:0:0:0:
192,192,202939,1,2,0:0:0:0:
64,192,202939,1,0,0:0:0:0:
192,192,203102,1,0,0:0:0:0:
320,192,203102,1,8,0:0:0:0:
448,192,203102,1,0,0:0:0:0:
320,192,203264,1,2,0:0:0:0:
64,192,203264,1,0,0:0:0:0:
192,192,203426,1,8,0:0:0:0:
64,192,203426,1,0,0:0:0:0:
448,192,203426,1,0,0:0:0:0:
320,192,203588,1,2,0:0:0:0:
448,192,203588,1,0,0:0:0:0:
192,192,203750,1,8,0:0:0:0:
64,192,203750,1,0,0:0:0:0:
320,192,203831,1,8,0:0:0:0:
448,192,203831,1,0,0:0:0:0:
192,192,203912,1,2,0:0:0:0:
64,192,203993,1,2,0:0:0:0:
320,192,204074,1,8,0:0:0:0:
448,192,204074,1,0,0:0:0:0:
192,192,204156,1,8,0:0:0:0:
64,192,204156,1,0,0:0:0:0:
320,192,204237,1,2,0:0:0:0:
448,192,204318,1,2,0:0:0:0:
192,192,204399,1,8,0:0:0:0:
64,192,204399,1,0,0:0:0:0:
320,192,204480,1,8,0:0:0:0:
448,192,204480,1,0,0:0:0:0:
192,192,204561,1,2,0:0:0:0:
64,192,204642,1,2,0:0:0:0:
320,192,204723,1,8,0:0:0:0:
448,192,204723,1,0,0:0:0:0:
192,192,204804,1,8,0:0:0:0:
64,192,204804,1,0,0:0:0:0:
320,192,204885,1,2,0:0:0:0:
448,192,204966,1,2,0:0:0:0:
192,192,205047,1,2,0:0:0:0:
64,192,205047,1,0,0:0:0:0:
320,192,205129,1,2,0:0:0:0:
448,192,205129,1,0,0:0:0:0:
192,192,205210,1,2,0:0:0:0:
64,192,205210,1,0,0:0:0:0:
320,192,205291,1,2,0:0:0:0:
448,192,205291,1,0,0:0:0:0:
192,192,205372,1,2,0:0:0:0:
64,192,205372,1,0,0:0:0:0:
320,192,205453,1,2,0:0:0:0:
448,192,205453,1,0,0:0:0:0:
192,192,205534,1,2,0:0:0:0:
64,192,205534,1,0,0:0:0:0:
320,192,205615,1,2,0:0:0:0:
448,192,205615,1,0,0:0:0:0:
192,192,205696,1,2,0:0:0:0:
64,192,205696,1,0,0:0:0:0:
320,192,205777,1,2,0:0:0:0:
448,192,205777,1,0,0:0:0:0:
192,192,205858,1,2,0:0:0:0:
64,192,205858,1,0,0:0:0:0:
320,192,205939,1,2,0:0:0:0:
448,192,205939,1,0,0:0:0:0:
192,192,206020,1,2,0:0:0:0:
64,192,206020,1,0,0:0:0:0:
320,192,206102,1,2,0:0:0:0:
448,192,206102,1,0,0:0:0:0:
192,192,206183,1,2,0:0:0:0:
64,192,206183,1,0,0:0:0:0:
320,192,206264,1,2,0:0:0:0:
448,192,206264,1,0,0:0:0:0:
192,192,206345,1,2,0:0:0:0:
64,192,206345,1,8,0:0:0:0:
320,192,206426,1,0,0:0:0:0:
64,192,206507,1,0,0:0:0:0:
448,192,206588,1,0,0:0:0:0:
192,192,206669,1,0,0:0:0:0:
320,192,206750,1,0,0:0:0:0:
64,192,206831,1,8,0:0:0:0:
448,192,206831,1,0,0:0:0:0:
192,192,206912,1,0,0:0:0:0:
448,192,206993,1,0,0:0:0:0:
64,192,207074,1,0,0:0:0:0:
320,192,207156,1,0,0:0:0:0:
192,192,207237,1,0,0:0:0:0:
64,192,207318,1,0,0:0:0:0:
320,192,207318,1,8,0:0:0:0:
448,192,207318,1,0,0:0:0:0:
192,192,207642,1,2,0:0:0:0:
64,192,207642,1,0,0:0:0:0:
448,192,207642,1,4,0:0:0:0:
320,192,207804,128,0,207966:0:0:0:0:
64,192,207966,1,8,0:0:0:0:
192,192,207966,128,0,208129:0:0:0:0:
448,192,207966,1,0,0:0:0:0:
448,192,208129,128,0,208291:0:0:0:0:
320,192,208291,1,2,0:0:0:0:
64,192,208291,128,0,208453:0:0:0:0:
192,192,208453,128,0,208615:0:0:0:0:
64,192,208615,1,8,0:0:0:0:
320,192,208615,128,0,208777:0:0:0:0:
448,192,208615,1,0,0:0:0:0:
192,192,208777,128,0,208939:0:0:0:0:
64,192,208939,1,2,0:0:0:0:
448,192,208939,128,0,209102:0:0:0:0:
320,192,209102,128,0,209264:0:0:0:0:
192,192,209264,1,8,0:0:0:0:
448,192,209264,1,0,0:0:0:0:
64,192,209264,128,0,209588:0:0:0:0:
192,192,209588,1,2,0:0:0:0:
320,192,209588,128,0,209750:0:0:0:0:
448,192,209750,128,0,209912:0:0:0:0:
64,192,209912,1,0,0:0:0:0:
320,192,209912,1,8,0:0:0:0:
192,192,209912,128,0,210074:0:0:0:0:
448,192,210074,128,0,210237:0:0:0:0:
320,192,210237,1,2,0:0:0:0:
64,192,210237,1,0,0:0:0:0:
192,192,210399,128,0,210561:0:0:0:0:
64,192,210561,1,0,0:0:0:0:
448,192,210561,1,8,0:0:0:0:
320,192,210561,128,0,210723:0:0:0:0:
64,192,210723,128,0,210885:0:0:0:0:
192,192,210885,1,2,0:0:0:0:
448,192,210885,128,0,211047:0:0:0:0:
320,192,211047,128,0,211210:0:0:0:0:
64,192,211210,1,8,0:0:0:0:
192,192,211210,128,0,211372:0:0:0:0:
448,192,211210,1,0,0:0:0:0:
320,192,211372,128,0,211534:0:0:0:0:
64,192,211534,128,0,211696:0:0:0:0:
448,192,211534,1,2,0:0:0:0:
192,192,211696,128,0,211858:0:0:0:0:
64,192,211858,1,0,0:0:0:0:
320,192,211858,1,8,0:0:0:0:
448,192,211858,128,0,212020:0:0:0:0:
192,192,212020,128,0,212183:0:0:0:0:
64,192,212183,1,2,0:0:0:0:
320,192,212183,128,0,212345:0:0:0:0:
448,192,212345,128,0,212507:0:0:0:0:
320,192,212507,1,0,0:0:0:0:
192,192,212507,1,8,0:0:0:0:
64,192,212507,128,0,212669:0:0:0:0:
192,192,212669,128,0,212831:0:0:0:0:
320,192,212831,1,2,0:0:0:0:
448,192,212831,1,0,0:0:0:0:
64,192,212993,128,0,213156:0:0:0:0:
192,192,213156,1,0,0:0:0:0:
320,192,213156,1,8,0:0:0:0:
448,192,213156,128,0,213318:0:0:0:0:
192,192,213318,128,0,213480:0:0:0:0:
64,192,213480,1,2,0:0:0:0:
320,192,213480,128,0,213642:0:0:0:0:
192,192,213642,128,0,213804:0:0:0:0:
64,192,213804,1,0,0:0:0:0:
320,192,213804,1,8,0:0:0:0:
448,192,213804,128,0,213966:0:0:0:0:
64,192,213966,128,0,214129:0:0:0:0:
192,192,214129,1,2,0:0:0:0:
320,192,214129,128,0,214291:0:0:0:0:
448,192,214291,128,0,214453:0:0:0:0:
64,192,214453,1,8,0:0:0:0:
192,192,214453,128,0,214777:0:0:0:0:
320,192,214453,1,0,0:0:0:0:
64,192,214777,1,2,0:0:0:0:
320,192,214777,128,0,214939:0:0:0:0:
448,192,214939,128,0,215264:0:0:0:0:
64,192,215102,1,0,0:0:0:0:
192,192,215102,1,8,0:0:0:0:
320,192,215102,1,0,0:0:0:0:
192,192,215264,128,0,215426:0:0:0:0:
64,192,215426,1,2,0:0:0:0:
320,192,215426,1,0,0:0:0:0:
448,192,215588,128,0,215750:0:0:0:0:
320,192,215750,1,0,0:0:0:0:
192,192,215750,1,8,0:0:0:0:
64,192,215750,128,0,215912:0:0:0:0:
448,192,215912,128,0,216074:0:0:0:0:
320,192,216074,1,2,0:0:0:0:
192,192,216074,128,0,216237:0:0:0:0:
64,192,216237,128,0,216399:0:0:0:0:
192,192,216399,1,0,0:0:0:0:
448,192,216399,1,8,0:0:0:0:
320,192,216399,128,0,216561:0:0:0:0:
64,192,216561,128,0,216723:0:0:0:0:
448,192,216723,128,0,216885:0:0:0:0:
320,192,216723,1,2,0:0:0:0:
192,192,216885,128,0,217047:0:0:0:0:
64,192,217047,1,8,0:0:0:0:
320,192,217047,128,0,217210:0:0:0:0:
448,192,217047,1,0,0:0:0:0:
64,192,217210,128,0,217372:0:0:0:0:
320,192,217372,1,2,0:0:0:0:
192,192,217372,128,0,217534:0:0:0:0:
448,192,217534,128,0,217696:0:0:0:0:
192,192,217696,1,8,0:0:0:0:
64,192,217696,1,0,0:0:0:0:
320,192,217696,128,0,217858:0:0:0:0:
192,192,217858,128,0,218020:0:0:0:0:
64,192,218020,1,0,0:0:0:0:
320,192,218020,1,4,0:0:0:0:
448,192,218020,1,2,0:0:0:0:
192,192,218183,128,0,218345:0:0:0:0:
64,192,218345,1,0,0:0:0:0:
320,192,218345,1,8,0:0:0:0:
448,192,218345,128,0,218507:0:0:0:0:
64,192,218507,128,0,218669:0:0:0:0:
192,192,218669,1,2,0:0:0:0:
320,192,218669,128,0,218831:0:0:0:0:
448,192,218831,128,0,218993:0:0:0:0:
64,192,218993,1,0,0:0:0:0:
320,192,218993,1,8,0:0:0:0:
192,192,218993,128,0,219156:0:0:0:0:
448,192,219156,128,0,219318:0:0:0:0:
320,192,219318,1,2,0:0:0:0:
64,192,219318,128,0,219480:0:0:0:0:
192,192,219480,128,0,219642:0:0:0:0:
64,192,219642,1,8,0:0:0:0:
448,192,219642,1,0,0:0:0:0:
320,192,219642,128,0,219966:0:0:0:0:
448,192,219966,1,2,0:0:0:0:
64,192,219966,128,0,220129:0:0:0:0:
192,192,220129,128,0,220291:0:0:0:0:
64,192,220291,1,0,0:0:0:0:
320,192,220291,1,8,0:0:0:0:
448,192,220291,128,0,220453:0:0:0:0:
192,192,220453,128,0,220615:0:0:0:0:
64,192,220615,1,2,0:0:0:0:
448,192,220615,1,0,0:0:0:0:
320,192,220777,128,0,220939:0:0:0:0:
64,192,220939,1,8,0:0:0:0:
192,192,220939,128,0,221102:0:0:0:0:
448,192,220939,1,0,0:0:0:0:
448,192,221102,128,0,221264:0:0:0:0:
320,192,221264,1,2,0:0:0:0:
64,192,221264,128,0,221426:0:0:0:0:
192,192,221426,128,0,221588:0:0:0:0:
64,192,221588,1,0,0:0:0:0:
320,192,221588,128,0,221750:0:0:0:0:
448,192,221588,1,8,0:0:0:0:
192,192,221750,128,0,221912:0:0:0:0:
64,192,221912,1,2,0:0:0:0:
448,192,221912,128,0,222074:0:0:0:0:
320,192,222074,128,0,222237:0:0:0:0:
192,192,222237,1,8,0:0:0:0:
64,192,222237,128,0,222399:0:0:0:0:
448,192,222237,1,0,0:0:0:0:
320,192,222399,128,0,222561:0:0:0:0:
64,192,222561,1,2,0:0:0:0:
192,192,222561,128,0,222723:0:0:0:0:
448,192,222723,128,0,222885:0:0:0:0:
64,192,222885,1,0,0:0:0:0:
192,192,222885,128,0,223047:0:0:0:0:
320,192,222885,1,8,0:0:0:0:
320,192,223047,128,0,223210:0:0:0:0:
64,192,223210,1,2,0:0:0:0:
448,192,223210,1,0,0:0:0:0:
192,192,223372,128,0,223534:0:0:0:0:
64,192,223534,1,0,0:0:0:0:
320,192,223534,128,0,223696:0:0:0:0:
448,192,223534,1,8,0:0:0:0:
64,192,223696,128,0,223858:0:0:0:0:
192,192,223858,1,2,0:0:0:0:
448,192,223858,128,0,224020:0:0:0:0:
320,192,224020,128,0,224183:0:0:0:0:
192,192,224183,1,8,0:0:0:0:
448,192,224183,1,0,0:0:0:0:
64,192,224183,128,0,224345:0:0:0:0:
192,192,224345,128,0,224507:0:0:0:0:
320,192,224507,1,2,0:0:0:0:
448,192,224507,128,0,224669:0:0:0:0:
64,192,224669,128,0,224831:0:0:0:0:
320,192,224831,1,8,0:0:0:0:
448,192,224831,1,0,0:0:0:0:
192,192,224831,128,0,225156:0:0:0:0:
64,192,225156,1,2,0:0:0:0:
320,192,225156,128,0,225318:0:0:0:0:
448,192,225318,128,0,225642:0:0:0:0:
192,192,225480,1,8,0:0:0:0:
320,192,225480,1,0,0:0:0:0:
64,192,225480,1,0,0:0:0:0:
64,192,225642,128,0,225804:0:0:0:0:
192,192,225804,1,0,0:0:0:0:
320,192,225804,1,2,0:0:0:0:
448,192,225966,128,0,226129:0:0:0:0:
320,192,226129,1,8,0:0:0:0:
64,192,226129,1,0,0:0:0:0:
192,192,226129,128,0,226291:0:0:0:0:
320,192,226291,128,0,226453:0:0:0:0:
192,192,226453,1,2,0:0:0:0:
64,192,226453,128,0,226615:0:0:0:0:
448,192,226615,128,0,226777:0:0:0:0:
320,192,226777,1,8,0:0:0:0:
64,192,226777,1,0,0:0:0:0:
192,192,226777,128,0,226939:0:0:0:0:
320,192,226939,128,0,227102:0:0:0:0:
448,192,227102,1,2,0:0:0:0:
64,192,227102,128,0,227264:0:0:0:0:
192,192,227264,128,0,227426:0:0:0:0:
64,192,227426,1,0,0:0:0:0:
320,192,227426,1,8,0:0:0:0:
448,192,227426,128,0,227588:0:0:0:0:
192,192,227588,128,0,227750:0:0:0:0:
64,192,227750,128,0,227912:0:0:0:0:
320,192,227750,1,2,0:0:0:0:
448,192,227912,128,0,228074:0:0:0:0:
192,192,228074,1,8,0:0:0:0:
64,192,228074,1,0,0:0:0:0:
320,192,228074,128,0,228237:0:0:0:0:
64,192,228237,128,0,228399:0:0:0:0:
192,192,228399,1,2,0:0:0:0:
320,192,228399,1,4,0:0:0:0:
448,192,228399,1,0,0:0:0:0:
192,192,228561,128,0,228723:0:0:0:0:
64,192,228723,1,8,0:0:0:0:
448,192,228723,1,0,0:0:0:0:
320,192,228723,128,0,228885:0:0:0:0:
192,192,228885,128,0,229047:0:0:0:0:
64,192,229047,1,2,0:0:0:0:
448,192,229047,128,0,229210:0:0:0:0:
320,192,229210,128,0,229372:0:0:0:0:
192,192,229372,1,8,0:0:0:0:
448,192,229372,1,0,0:0:0:0:
64,192,229372,128,0,229534:0:0:0:0:
320,192,229534,128,0,229696:0:0:0:0:
192,192,229696,1,2,0:0:0:0:
448,192,229696,128,0,229858:0:0:0:0:
64,192,229858,128,0,230020:0:0:0:0:
320,192,230020,1,8,0:0:0:0:
448,192,230020,1,0,0:0:0:0:
192,192,230020,128,0,230345:0:0:0:0:
320,192,230345,1,2,0:0:0:0:
448,192,230345,128,0,230507:0:0:0:0:
64,192,230507,128,0,230669:0:0:0:0:
320,192,230669,1,8,0:0:0:0:
192,192,230669,128,0,230831:0:0:0:0:
448,192,230831,128,0,230993:0:0:0:0:
64,192,230993,1,2,0:0:0:0:
320,192,230993,1,0,0:0:0:0:
192,192,231156,128,0,231318:0:0:0:0:
64,192,231318,1,0,0:0:0:0:
320,192,231318,1,8,0:0:0:0:
448,192,231318,128,0,231480:0:0:0:0:
64,192,231480,128,0,231642:0:0:0:0:
192,192,231642,1,2,0:0:0:0:
320,192,231642,128,0,231804:0:0:0:0:
448,192,231804,128,0,231966:0:0:0:0:
192,192,231966,1,8,0:0:0:0:
320,192,231966,1,0,0:0:0:0:
64,192,231966,128,0,232129:0:0:0:0:
448,192,232129,128,0,232291:0:0:0:0:
64,192,232291,1,2,0:0:0:0:
320,192,232291,128,0,232453:0:0:0:0:
192,192,232453,128,0,232615:0:0:0:0:
64,192,232615,1,8,0:0:0:0:
320,192,232615,1,0,0:0:0:0:
448,192,232615,128,0,232777:0:0:0:0:
64,192,232777,128,0,232939:0:0:0:0:
192,192,232939,1,2,0:0:0:0:
320,192,232939,128,0,233102:0:0:0:0:
192,192,233102,128,0,233264:0:0:0:0:
64,192,233264,1,0,0:0:0:0:
320,192,233264,1,8,0:0:0:0:
448,192,233264,128,0,233426:0:0:0:0:
64,192,233426,128,0,233588:0:0:0:0:
192,192,233588,1,2,0:0:0:0:
320,192,233588,1,4,0:0:0:0:
448,192,233588,1,0,0:0:0:0:
64,192,233750,1,0,0:0:0:0:
448,192,233912,1,0,0:0:0:0:
320,192,234074,1,0,0:0:0:0:
192,192,234074,1,2,0:0:0:0:
192,192,234237,1,8,0:0:0:0:
64,192,234237,1,0,0:0:0:0:
448,192,234237,1,0,0:0:0:0:
320,192,234399,1,0,0:0:0:0:
192,192,234561,1,0,0:0:0:0:
64,192,234723,1,0,0:0:0:0:
448,192,234723,1,2,0:0:0:0:
192,192,234804,1,0,0:0:0:0:
320,192,234804,1,2,0:0:0:0:
64,192,234885,1,0,0:0:0:0:
448,192,234885,1,2,0:0:0:0:
192,192,235047,1,2,0:0:0:0:
320,192,235047,1,0,0:0:0:0:
64,192,235210,1,0,0:0:0:0:
320,192,235372,1,2,0:0:0:0:
448,192,235372,1,0,0:0:0:0:
192,192,235534,1,8,0:0:0:0:
64,192,235534,1,0,0:0:0:0:
448,192,235534,1,0,0:0:0:0:
320,192,235696,1,0,0:0:0:0:
192,192,235858,1,8,0:0:0:0:
64,192,235858,1,0,0:0:0:0:
320,192,235939,1,2,0:0:0:0:
448,192,235939,1,0,0:0:0:0:
192,192,236020,1,2,0:0:0:0:
64,192,236020,1,0,0:0:0:0:
320,192,236102,1,2,0:0:0:0:
448,192,236183,1,4,0:0:0:0:
192,192,236183,1,2,0:0:0:0:
64,192,236183,1,0,0:0:0:0:
192,192,236345,1,0,0:0:0:0:
320,192,236345,1,2,0:0:0:0:
64,192,236507,1,0,0:0:0:0:
320,192,236507,1,8,0:0:0:0:
448,192,236507,1,0,0:0:0:0:
192,192,236669,1,2,0:0:0:0:
64,192,236669,1,0,0:0:0:0:
192,192,236831,1,0,0:0:0:0:
320,192,236831,1,2,0:0:0:0:
448,192,236831,1,4,0:0:0:0:
64,192,236993,1,0,0:0:0:0:
320,192,236993,1,2,0:0:0:0:
64,192,237156,1,0,0:0:0:0:
192,192,237156,1,8,0:0:0:0:
448,192,237156,1,0,0:0:0:0:
320,192,237318,1,2,0:0:0:0:
448,192,237318,1,0,0:0:0:0:
192,192,237480,1,2,0:0:0:0:
64,192,237480,1,4,0:0:0:0:
320,192,237561,1,2,0:0:0:0:
448,192,237561,1,0,0:0:0:0:
192,192,237642,1,2,0:0:0:0:
64,192,237642,1,0,0:0:0:0:
320,192,237723,1,2,0:0:0:0:
448,192,237723,1,0,0:0:0:0:
192,192,237804,1,2,0:0:0:0:
64,192,237804,1,4,0:0:0:0:
320,192,237885,1,2,0:0:0:0:
448,192,237885,1,0,0:0:0:0:
192,192,237966,1,2,0:0:0:0:
64,192,237966,1,0,0:0:0:0:
320,192,238047,1,2,0:0:0:0:
448,192,238047,1,0,0:0:0:0:
192,192,238129,1,2,0:0:0:0:
64,192,238129,1,4,0:0:0:0:
320,192,238210,1,2,0:0:0:0:
448,192,238210,1,0,0:0:0:0:
192,192,238291,1,2,0:0:0:0:
64,192,238291,1,0,0:0:0:0:
320,192,238372,1,2,0:0:0:0:
448,192,238372,1,0,0:0:0:0:
192,192,238453,1,2,0:0:0:0:
64,192,238453,1,4,0:0:0:0:
320,192,238534,1,2,0:0:0:0:
448,192,238534,1,0,0:0:0:0:
192,192,238615,1,2,0:0:0:0:
64,192,238615,1,0,0:0:0:0:
320,192,238696,1,2,0:0:0:0:
448,192,238696,1,0,0:0:0:0:
192,192,238777,1,2,0:0:0:0:
64,192,238777,1,4,0:0:0:0:
320,192,238939,128,0,239102:0:0:0:0:
64,192,239102,1,0,0:0:0:0:
448,192,239102,1,0,0:0:0:0:
192,192,239102,1,8,0:0:0:0:
192,192,239264,128,0,239426:0:0:0:0:
320,192,239426,1,2,0:0:0:0:
64,192,239426,1,0,0:0:0:0:
64,192,239588,128,0,239750:0:0:0:0:
192,192,239750,1,0,0:0:0:0:
320,192,239750,1,8,0:0:0:0:
448,192,239750,1,0,0:0:0:0:
448,192,239912,128,0,240074:0:0:0:0:
320,192,240074,1,0,0:0:0:0:
192,192,240074,1,2,0:0:0:0:
192,192,240237,128,0,240399:0:0:0:0:
64,192,240399,1,0,0:0:0:0:
320,192,240399,1,8,0:0:0:0:
448,192,240399,1,0,0:0:0:0:
448,192,240561,128,0,240723:0:0:0:0:
64,192,240723,1,2,0:0:0:0:
192,192,240723,1,0,0:0:0:0:
64,192,240885,128,0,241047:0:0:0:0:
192,192,241047,1,8,0:0:0:0:
320,192,241047,1,0,0:0:0:0:
448,192,241047,1,0,0:0:0:0:
320,192,241210,128,0,241372:0:0:0:0:
448,192,241372,1,2,0:0:0:0:
64,192,241372,1,0,0:0:0:0:
64,192,241534,128,0,241696:0:0:0:0:
192,192,241696,1,8,0:0:0:0:
320,192,241696,1,0,0:0:0:0:
448,192,241696,1,0,0:0:0:0:
320,192,241858,128,0,242020:0:0:0:0:
192,192,242020,1,2,0:0:0:0:
448,192,242020,1,0,0:0:0:0:
192,192,242183,128,0,242345:0:0:0:0:
64,192,242345,1,0,0:0:0:0:
320,192,242345,1,8,0:0:0:0:
448,192,242345,1,0,0:0:0:0:
448,192,242507,128,0,242669:0:0:0:0:
64,192,242669,1,0,0:0:0:0:
192,192,242669,1,2,0:0:0:0:
192,192,242831,128,0,242993:0:0:0:0:
64,192,242993,1,0,0:0:0:0:
320,192,242993,1,8,0:0:0:0:
448,192,242993,1,0,0:0:0:0:
448,192,243156,128,0,243318:0:0:0:0:
64,192,243318,1,2,0:0:0:0:
320,192,243318,1,0,0:0:0:0:
64,192,243480,128,0,243642:0:0:0:0:
192,192,243642,1,0,0:0:0:0:
320,192,243642,1,8,0:0:0:0:
448,192,243642,1,0,0:0:0:0:
64,192,243804,1,2,0:0:0:0:
320,192,243804,128,0,243966:0:0:0:0:
192,192,243966,1,2,0:0:0:0:
448,192,243966,1,0,0:0:0:0:
64,192,244129,128,0,244291:0:0:0:0:
192,192,244291,1,0,0:0:0:0:
320,192,244291,1,8,0:0:0:0:
448,192,244291,1,0,0:0:0:0:
64,192,244453,128,0,244615:0:0:0:0:
320,192,244615,1,2,0:0:0:0:
448,192,244615,1,0,0:0:0:0:
64,192,244777,128,0,244939:0:0:0:0:
320,192,244939,1,8,0:0:0:0:
192,192,244939,1,0,0:0:0:0:
448,192,244939,1,0,0:0:0:0:
64,192,245102,128,0,245264:0:0:0:0:
192,192,245264,1,2,0:0:0:0:
320,192,245264,1,0,0:0:0:0:
448,192,245426,128,0,245588:0:0:0:0:
64,192,245588,1,0,0:0:0:0:
192,192,245588,1,0,0:0:0:0:
320,192,245588,1,8,0:0:0:0:
448,192,245750,128,0,245912:0:0:0:0:
64,192,245912,1,0,0:0:0:0:
192,192,245912,1,2,0:0:0:0:
448,192,246074,128,0,246237:0:0:0:0:
64,192,246237,1,0,0:0:0:0:
192,192,246237,1,0,0:0:0:0:
320,192,246237,1,8,0:0:0:0:
448,192,246399,128,0,246561:0:0:0:0:
64,192,246561,1,2,0:0:0:0:
320,192,246561,1,0,0:0:0:0:
192,192,246723,128,0,246885:0:0:0:0:
64,192,246885,1,0,0:0:0:0:
320,192,246885,1,8,0:0:0:0:
448,192,246885,1,0,0:0:0:0:
192,192,247047,128,0,247210:0:0:0:0:
448,192,247210,1,2,0:0:0:0:
320,192,247210,1,0,0:0:0:0:
192,192,247372,128,0,247534:0:0:0:0:
320,192,247534,1,0,0:0:0:0:
448,192,247534,1,0,0:0:0:0:
64,192,247534,1,8,0:0:0:0:
192,192,247696,128,0,247858:0:0:0:0:
64,192,247858,1,0,0:0:0:0:
448,192,247858,1,2,0:0:0:0:
320,192,248020,128,0,248183:0:0:0:0:
192,192,248183,1,8,0:0:0:0:
64,192,248183,1,0,0:0:0:0:
448,192,248183,1,0,0:0:0:0:
320,192,248345,128,0,248507:0:0:0:0:
192,192,248507,1,0,0:0:0:0:
64,192,248507,1,2,0:0:0:0:
320,192,248669,128,0,248831:0:0:0:0:
64,192,248831,1,0,0:0:0:0:
192,192,248831,1,0,0:0:0:0:
448,192,248831,1,8,0:0:0:0:
320,192,248993,128,0,249156:0:0:0:0:
192,192,248993,1,2,0:0:0:0:
64,192,249156,1,2,0:0:0:0:
448,192,249156,1,0,0:0:0:0:
64,192,249318,128,0,249480:0:0:0:0:
192,192,249480,1,0,0:0:0:0:
448,192,249480,1,0,0:0:0:0:
320,192,249480,1,8,0:0:0:0:
448,192,249642,128,0,249804:0:0:0:0:
64,192,249804,1,0,0:0:0:0:
192,192,249804,1,2,0:0:0:0:
192,192,249966,128,0,250129:0:0:0:0:
64,192,250129,1,0,0:0:0:0:
320,192,250129,1,8,0:0:0:0:
448,192,250129,1,0,0:0:0:0:
320,192,250291,128,0,250453:0:0:0:0:
64,192,250453,1,0,0:0:0:0:
192,192,250453,1,2,0:0:0:0:
64,192,250615,128,0,250777:0:0:0:0:
192,192,250777,1,0,0:0:0:0:
320,192,250777,1,8,0:0:0:0:
448,192,250777,1,0,0:0:0:0:
448,192,250939,128,0,251102:0:0:0:0:
320,192,251102,1,0,0:0:0:0:
192,192,251102,1,2,0:0:0:0:
192,192,251264,128,0,251426:0:0:0:0:
64,192,251426,1,0,0:0:0:0:
320,192,251426,1,8,0:0:0:0:
448,192,251426,1,0,0:0:0:0:
320,192,251588,128,0,251750:0:0:0:0:
64,192,251750,1,2,0:0:0:0:
448,192,251750,1,0,0:0:0:0:
64,192,251912,128,0,252074:0:0:0:0:
192,192,252074,1,0,0:0:0:0:
320,192,252074,1,8,0:0:0:0:
448,192,252074,1,0,0:0:0:0:
192,192,252237,128,0,252399:0:0:0:0:
64,192,252399,1,2,0:0:0:0:
320,192,252399,1,0,0:0:0:0:
320,192,252561,128,0,252723:0:0:0:0:
192,192,252723,1,8,0:0:0:0:
448,192,252723,1,0,0:0:0:0:
448,192,252885,128,0,253047:0:0:0:0:
64,192,253047,1,0,0:0:0:0:
320,192,253047,1,2,0:0:0:0:
64,192,253210,128,0,253372:0:0:0:0:
192,192,253372,1,0,0:0:0:0:
448,192,253372,1,0,0:0:0:0:
320,192,253372,1,8,0:0:0:0:
192,192,253534,128,0,253696:0:0:0:0:
64,192,253696,1,2,0:0:0:0:
320,192,253696,1,0,0:0:0:0:
320,192,253858,128,0,254020:0:0:0:0:
192,192,254020,1,8,0:0:0:0:
448,192,254020,1,0,0:0:0:0:
64,192,254020,1,0,0:0:0:0:
448,192,254183,128,0,254345:0:0:0:0:
320,192,254183,1,2,0:0:0:0:
192,192,254345,1,2,0:0:0:0:
64,192,254345,1,0,0:0:0:0:
320,192,254507,128,0,254669:0:0:0:0:
64,192,254669,1,0,0:0:0:0:
448,192,254669,1,0,0:0:0:0:
192,192,254669,1,8,0:0:0:0:
320,192,254831,128,0,254993:0:0:0:0:
192,192,254993,1,0,0:0:0:0:
64,192,254993,1,2,0:0:0:0:
320,192,255156,128,0,255318:0:0:0:0:
64,192,255318,1,0,0:0:0:0:
192,192,255318,1,8,0:0:0:0:
448,192,255318,1,0,0:0:0:0:
320,192,255480,128,0,255642:0:0:0:0:
192,192,255642,1,0,0:0:0:0:
448,192,255642,1,2,0:0:0:0:
64,192,255804,128,0,255966:0:0:0:0:
192,192,255966,1,0,0:0:0:0:
320,192,255966,1,8,0:0:0:0:
448,192,255966,1,0,0:0:0:0:
64,192,256129,128,0,256291:0:0:0:0:
320,192,256291,1,0,0:0:0:0:
448,192,256291,1,2,0:0:0:0:
64,192,256453,128,0,256615:0:0:0:0:
192,192,256615,1,8,0:0:0:0:
320,192,256615,1,0,0:0:0:0:
448,192,256615,1,0,0:0:0:0:
64,192,256777,128,0,256939:0:0:0:0:
192,192,256939,1,0,0:0:0:0:
320,192,256939,1,2,0:0:0:0:
448,192,257102,128,0,257264:0:0:0:0:
64,192,257264,1,8,0:0:0:0:
192,192,257264,1,0,0:0:0:0:
320,192,257264,1,0,0:0:0:0:
448,192,257426,128,0,257588:0:0:0:0:
192,192,257588,1,2,0:0:0:0:
64,192,257588,1,0,0:0:0:0:
448,192,257750,128,0,257912:0:0:0:0:
64,192,257912,1,0,0:0:0:0:
192,192,257912,1,0,0:0:0:0:
320,192,257912,1,8,0:0:0:0:
448,192,258074,128,0,258237:0:0:0:0:
64,192,258237,1,2,0:0:0:0:
320,192,258237,1,0,0:0:0:0:
192,192,258399,128,0,258561:0:0:0:0:
64,192,258561,1,0,0:0:0:0:
448,192,258561,1,0,0:0:0:0:
320,192,258561,1,8,0:0:0:0:
192,192,258723,128,0,258885:0:0:0:0:
192,192,259047,128,0,259210:0:0:0:0:
64,192,259210,1,0,0:0:0:0:
320,192,259210,1,8,0:0:0:0:
448,192,259210,1,0,0:0:0:0:
192,192,259372,128,0,259534:0:0:0:0:
64,192,259534,1,0,0:0:0:0:
320,192,259534,1,2,0:0:0:0:
448,192,259534,1,4,0:0:0:0:
320,192,259696,128,0,259858:0:0:0:0:
64,192,259858,1,0,0:0:0:0:
192,192,259858,1,2,0:0:0:0:
448,192,260020,128,0,260183:0:0:0:0:
192,192,260183,1,2,0:0:0:0:
320,192,260183,1,0,0:0:0:0:
64,192,260345,128,0,260507:0:0:0:0:
320,192,260507,1,2,0:0:0:0:
448,192,260507,1,0,0:0:0:0:
192,192,260669,128,0,260831:0:0:0:0:
320,192,260831,1,2,0:0:0:0:
64,192,260831,1,0,0:0:0:0:
448,192,260993,128,0,261156:0:0:0:0:
320,192,261156,1,2,0:0:0:0:
64,192,261156,1,0,0:0:0:0:
192,192,261318,128,0,261480:0:0:0:0:
320,192,261480,1,2,0:0:0:0:
448,192,261480,1,0,0:0:0:0:
64,192,261642,128,0,261804:0:0:0:0:
192,192,261804,1,2,0:0:0:0:
320,192,261804,1,0,0:0:0:0:
448,192,261966,128,0,262129:0:0:0:0:
64,192,262129,1,0,0:0:0:0:
320,192,262129,1,2,0:0:0:0:
192,192,262291,128,0,262453:0:0:0:0:
320,192,262453,1,2,0:0:0:0:
448,192,262453,1,0,0:0:0:0:
64,192,262615,128,0,262777:0:0:0:0:
192,192,262777,1,2,0:0:0:0:
448,192,262777,1,0,0:0:0:0:
320,192,262939,128,0,263102:0:0:0:0:
192,192,263102,1,2,0:0:0:0:
64,192,263102,1,0,0:0:0:0:
448,192,263264,128,0,263426:0:0:0:0:
64,192,263426,1,0,0:0:0:0:
320,192,263426,1,2,0:0:0:0:
192,192,263588,128,0,263750:0:0:0:0:
320,192,263750,1,2,0:0:0:0:
448,192,263750,1,0,0:0:0:0:
64,192,263912,128,0,264074:0:0:0:0:
192,192,264074,1,2,0:0:0:0:
448,192,264074,1,0,0:0:0:0:
320,192,264237,128,0,264399:0:0:0:0:
192,192,264399,1,2,0:0:0:0:
64,192,264399,1,0,0:0:0:0:
320,192,264561,1,2,0:0:0:0:
448,192,264561,128,0,264723:0:0:0:0:
192,192,264723,1,2,0:0:0:0:
64,192,264723,1,0,0:0:0:0:
320,192,264885,128,0,265047:0:0:0:0:
192,192,265047,1,2,0:0:0:0:
64,192,265047,1,0,0:0:0:0:
448,192,265210,128,0,265372:0:0:0:0:
64,192,265372,1,0,0:0:0:0:
192,192,265372,1,2,0:0:0:0:
320,192,265534,128,0,265696:0:0:0:0:
192,192,265696,1,2,0:0:0:0:
64,192,265696,1,0,0:0:0:0:
448,192,265858,128,0,266020:0:0:0:0:
64,192,266020,1,0,0:0:0:0:
192,192,266020,1,2,0:0:0:0:
64,192,266183,128,0,266345:0:0:0:0:
192,192,266345,1,0,0:0:0:0:
320,192,266345,1,2,0:0:0:0:
448,192,266507,128,0,266669:0:0:0:0:
320,192,266669,1,2,0:0:0:0:
192,192,266669,1,0,0:0:0:0:
64,192,266831,128,0,266993:0:0:0:0:
320,192,266993,1,2,0:0:0:0:
192,192,266993,1,0,0:0:0:0:
448,192,267156,128,0,267318:0:0:0:0:
320,192,267318,1,2,0:0:0:0:
192,192,267318,1,0,0:0:0:0:
64,192,267480,128,0,267642:0:0:0:0:
320,192,267642,1,2,0:0:0:0:
448,192,267642,1,0,0:0:0:0:
192,192,267804,128,0,267966:0:0:0:0:
320,192,267966,1,2,0:0:0:0:
448,192,267966,1,0,0:0:0:0:
64,192,268129,128,0,268291:0:0:0:0:
320,192,268291,1,2,0:0:0:0:
448,192,268291,1,0,0:0:0:0:
192,192,268453,128,0,268615:0:0:0:0:
448,192,268615,1,0,0:0:0:0:
320,192,268615,1,2,0:0:0:0:
320,192,268777,128,0,268939:0:0:0:0:
64,192,268939,1,2,0:0:0:0:
448,192,268939,1,0,0:0:0:0:
192,192,269102,128,0,269264:0:0:0:0:
64,192,269264,1,2,0:0:0:0:
448,192,269264,1,0,0:0:0:0:
320,192,269426,128,0,269588:0:0:0:0:
64,192,269588,1,2,0:0:0:0:
448,192,269588,1,0,0:0:0:0:
192,192,269750,128,0,269912:0:0:0:0:
320,192,269750,1,2,0:0:0:0:
64,192,269912,1,2,0:0:0:0:
448,192,269912,1,0,0:0:0:0:
320,192,270074,128,0,270237:0:0:0:0:
64,192,270237,1,2,0:0:0:0:
448,192,270237,1,0,0:0:0:0:
192,192,270399,128,0,270561:0:0:0:0:
320,192,270561,1,2,0:0:0:0:
448,192,270561,1,0,0:0:0:0:
64,192,270723,128,0,270885:0:0:0:0:
192,192,270885,1,0,0:0:0:0:
320,192,270885,1,2,0:0:0:0:
448,192,271047,128,0,271210:0:0:0:0:
64,192,271210,1,0,0:0:0:0:
320,192,271210,1,2,0:0:0:0:
192,192,271372,128,0,271534:0:0:0:0:
320,192,271534,1,2,0:0:0:0:
64,192,271534,1,0,0:0:0:0:
448,192,271696,128,0,271858:0:0:0:0:
192,192,271858,1,2,0:0:0:0:
64,192,271858,1,0,0:0:0:0:
320,192,272020,128,0,272183:0:0:0:0:
192,192,272183,1,2,0:0:0:0:
448,192,272183,1,0,0:0:0:0:
64,192,272345,128,0,272507:0:0:0:0:
192,192,272507,1,2,0:0:0:0:
320,192,272507,1,0,0:0:0:0:
448,192,272669,128,0,272831:0:0:0:0:
64,192,272831,1,0,0:0:0:0:
192,192,272831,1,2,0:0:0:0:
320,192,272993,128,0,273156:0:0:0:0:
64,192,273156,1,0,0:0:0:0:
448,192,273156,1,2,0:0:0:0:
192,192,273318,128,0,273480:0:0:0:0:
320,192,273480,1,0,0:0:0:0:
448,192,273480,1,2,0:0:0:0:
64,192,273642,128,0,273804:0:0:0:0:
192,192,273804,1,0,0:0:0:0:
448,192,273804,1,2,0:0:0:0:
320,192,273966,128,0,274129:0:0:0:0:
192,192,274129,1,0,0:0:0:0:
64,192,274129,1,2,0:0:0:0:
448,192,274291,128,0,274453:0:0:0:0:
320,192,274453,1,0,0:0:0:0:
64,192,274453,1,2,0:0:0:0:
192,192,274615,128,0,274777:0:0:0:0:
64,192,274777,1,2,0:0:0:0:
448,192,274777,1,0,0:0:0:0:
192,192,274939,1,2,0:0:0:0:
320,192,274939,128,0,275102:0:0:0:0:
64,192,275102,1,2,0:0:0:0:
448,192,275102,1,0,0:0:0:0:
64,192,275264,128,0,275426:0:0:0:0:
192,192,275426,1,2,0:0:0:0:
320,192,275426,1,0,0:0:0:0:
320,192,275588,128,0,275750:0:0:0:0:
192,192,275750,1,2,0:0:0:0:
448,192,275750,1,0,0:0:0:0:
192,192,275912,128,0,276074:0:0:0:0:
64,192,276074,1,2,0:0:0:0:
448,192,276074,1,0,0:0:0:0:
448,192,276237,128,0,276399:0:0:0:0:
320,192,276399,1,0,0:0:0:0:
64,192,276399,1,2,0:0:0:0:
64,192,276561,128,0,276723:0:0:0:0:
192,192,276723,1,2,0:0:0:0:
448,192,276723,1,0,0:0:0:0:
448,192,276885,128,0,277047:0:0:0:0:
192,192,277047,1,2,0:0:0:0:
320,192,277047,1,0,0:0:0:0:
192,192,277210,128,0,277372:0:0:0:0:
64,192,277372,1,2,0:0:0:0:
320,192,277372,1,0,0:0:0:0:
320,192,277534,128,0,277696:0:0:0:0:
192,192,277696,1,0,0:0:0:0:
64,192,277696,1,2,0:0:0:0:
192,192,277858,128,0,278020:0:0:0:0:
320,192,278020,1,2,0:0:0:0:
448,192,278020,1,0,0:0:0:0:
448,192,278183,128,0,278345:0:0:0:0:
64,192,278345,1,0,0:0:0:0:
192,192,278345,1,2,0:0:0:0:
64,192,278507,128,0,278669:0:0:0:0:
320,192,278669,1,2,0:0:0:0:
448,192,278669,1,0,0:0:0:0:
320,192,278831,128,0,278993:0:0:0:0:
448,192,278993,1,0,0:0:0:0:
64,192,278993,1,2,0:0:0:0:
192,192,279156,128,0,279318:0:0:0:0:
320,192,279318,1,0,0:0:0:0:
448,192,279480,128,0,279642:0:0:0:0:
192,192,279642,1,0,0:0:0:0:
64,192,279804,128,0,279966:0:0:0:0:
448,192,279966,1,0,0:0:0:0:
320,192,280129,128,0,280291:0:0:0:0:
64,192,280291,1,2,0:0:0:0:
448,192,280291,1,4,0:0:0:0:
192,192,280453,1,0,0:0:0:0:
320,192,280615,1,0,0:0:0:0:
448,192,280615,1,0,0:0:0:0:
64,192,280777,1,0,0:0:0:0:
192,192,280939,1,0,0:0:0:0:
448,192,280939,1,0,0:0:0:0:
320,192,281102,1,0,0:0:0:0:
192,192,281264,1,0,0:0:0:0:
64,192,281264,1,0,0:0:0:0:
448,192,281426,1,0,0:0:0:0:
320,192,281588,1,0,0:0:0:0:
64,192,281588,1,0,0:0:0:0:
192,192,281750,1,0,0:0:0:0:
64,192,281912,1,0,0:0:0:0:
448,192,281912,1,0,0:0:0:0:
320,192,282074,1,0,0:0:0:0:
192,192,282237,1,0,0:0:0:0:
448,192,282237,1,0,0:0:0:0:
64,192,282399,1,0,0:0:0:0:
192,192,282561,1,0,0:0:0:0:
320,192,282561,1,0,0:0:0:0:
448,192,282723,1,0,0:0:0:0:
192,192,282885,1,0,0:0:0:0:
64,192,282885,1,0,0:0:0:0:
320,192,283047,1,0,0:0:0:0:
64,192,283210,1,0,0:0:0:0:
448,192,283210,1,0,0:0:0:0:
192,192,283372,1,0,0:0:0:0:
64,192,283534,1,0,0:0:0:0:
320,192,283534,1,0,0:0:0:0:
448,192,283696,1,0,0:0:0:0:
192,192,283858,1,0,0:0:0:0:
64,192,283858,1,0,0:0:0:0:
448,192,284020,1,0,0:0:0:0:
320,192,284183,1,0,0:0:0:0:
64,192,284183,1,0,0:0:0:0:
192,192,284345,1,0,0:0:0:0:
320,192,284507,1,0,0:0:0:0:
448,192,284507,1,0,0:0:0:0:
64,192,284669,1,0,0:0:0:0:
192,192,284831,1,0,0:0:0:0:
448,192,284831,1,0,0:0:0:0:
320,192,284993,1,0,0:0:0:0:
192,192,285156,1,0,0:0:0:0:
64,192,285156,1,0,0:0:0:0:
320,192,285318,1,0,0:0:0:0:
448,192,285318,1,0,0:0:0:0:
192,192,285480,1,0,0:0:0:0:
64,192,285480,1,0,0:0:0:0:
448,192,285642,1,0,0:0:0:0:
320,192,285804,1,0,0:0:0:0:
64,192,285804,1,0,0:0:0:0:
192,192,285966,1,0,0:0:0:0:
448,192,286129,1,0,0:0:0:0:
320,192,286129,1,0,0:0:0:0:
64,192,286291,1,0,0:0:0:0:
192,192,286453,1,0,0:0:0:0:
448,192,286453,1,0,0:0:0:0:
320,192,286615,1,0,0:0:0:0:
192,192,286777,1,0,0:0:0:0:
64,192,286777,1,0,0:0:0:0:
448,192,286939,1,0,0:0:0:0:
64,192,287102,1,0,0:0:0:0:
320,192,287102,1,0,0:0:0:0:
192,192,287264,1,0,0:0:0:0:
320,192,287426,1,0,0:0:0:0:
448,192,287426,1,0,0:0:0:0:
64,192,287588,1,0,0:0:0:0:
192,192,287750,1,0,0:0:0:0:
448,192,287750,1,0,0:0:0:0:
320,192,287912,1,0,0:0:0:0:
192,192,288074,1,0,0:0:0:0:
64,192,288074,1,0,0:0:0:0:
448,192,288237,1,0,0:0:0:0:
320,192,288399,1,0,0:0:0:0:
192,192,288399,1,0,0:0:0:0:
64,192,288561,1,0,0:0:0:0:
192,192,288723,1,0,0:0:0:0:
448,192,288723,1,0,0:0:0:0:
320,192,288885,1,0,0:0:0:0:
192,192,289047,1,0,0:0:0:0:
64,192,289047,1,0,0:0:0:0:
320,192,289210,1,0,0:0:0:0:
64,192,289372,1,0,0:0:0:0:
448,192,289372,1,0,0:0:0:0:
192,192,289534,1,0,0:0:0:0:
320,192,289696,1,0,0:0:0:0:
448,192,289696,1,0,0:0:0:0:
64,192,289858,1,0,0:0:0:0:
192,192,290020,1,0,0:0:0:0:
448,192,290020,1,0,0:0:0:0:
320,192,290183,1,0,0:0:0:0:
192,192,290345,1,0,0:0:0:0:
64,192,290345,1,0,0:0:0:0:
320,192,290507,1,0,0:0:0:0:
448,192,290507,1,0,0:0:0:0:
192,192,290669,1,0,0:0:0:0:
64,192,290669,1,0,0:0:0:0:
64,192,290831,1,0,0:0:0:0:
192,192,290993,1,0,0:0:0:0:
448,192,290993,1,0,0:0:0:0:
448,192,291156,1,0,0:0:0:0:
320,192,291318,1,0,0:0:0:0:
192,192,291318,1,0,0:0:0:0:
192,192,291480,1,0,0:0:0:0:
64,192,291642,1,0,0:0:0:0:
320,192,291642,1,0,0:0:0:0:
320,192,291804,1,0,0:0:0:0:
448,192,291966,1,0,0:0:0:0:
64,192,291966,1,0,0:0:0:0:
64,192,292129,1,0,0:0:0:0:
192,192,292291,1,0,0:0:0:0:
320,192,292291,1,0,0:0:0:0:
320,192,292453,1,0,0:0:0:0:
448,192,292615,1,0,0:0:0:0:
192,192,292615,1,0,0:0:0:0:
192,192,292777,1,0,0:0:0:0:
64,192,292939,1,0,0:0:0:0:
448,192,292939,1,0,0:0:0:0:
448,192,293102,1,0,0:0:0:0:
320,192,293264,1,0,0:0:0:0:
64,192,293264,1,0,0:0:0:0:
64,192,293426,1,0,0:0:0:0:
192,192,293588,1,0,0:0:0:0:
448,192,293588,1,0,0:0:0:0:
448,192,293750,1,0,0:0:0:0:
320,192,293912,1,0,0:0:0:0:
192,192,293912,1,0,0:0:0:0:
192,192,294074,1,0,0:0:0:0:
64,192,294237,1,0,0:0:0:0:
320,192,294237,1,0,0:0:0:0:
320,192,294399,1,0,0:0:0:0:
448,192,294561,1,0,0:0:0:0:
192,192,294561,1,0,0:0:0:0:
192,192,294723,1,0,0:0:0:0:
64,192,294885,1,0,0:0:0:0:
448,192,294885,1,0,0:0:0:0:
448,192,295047,1,0,0:0:0:0:
320,192,295210,1,0,0:0:0:0:
64,192,295210,1,0,0:0:0:0:
64,192,295372,1,0,0:0:0:0:
192,192,295534,1,0,0:0:0:0:
320,192,295534,1,0,0:0:0:0:
64,192,295696,1,0,0:0:0:0:
448,192,295696,1,0,0:0:0:0:
192,192,295858,1,0,0:0:0:0:
320,192,295858,1,0,0:0:0:0:
448,192,296020,1,0,0:0:0:0:
64,192,296183,1,0,0:0:0:0:
192,192,296183,1,0,0:0:0:0:
320,192,296345,1,0,0:0:0:0:
64,192,296507,1,0,0:0:0:0:
448,192,296507,1,0,0:0:0:0:
192,192,296669,1,0,0:0:0:0:
320,192,296831,1,0,0:0:0:0:
448,192,296831,1,0,0:0:0:0:
64,192,296993,1,0,0:0:0:0:
192,192,297156,1,0,0:0:0:0:
448,192,297156,1,0,0:0:0:0:
320,192,297318,1,0,0:0:0:0:
192,192,297480,1,0,0:0:0:0:
64,192,297480,1,0,0:0:0:0:
448,192,297642,1,0,0:0:0:0:
320,192,297804,1,0,0:0:0:0:
64,192,297804,1,0,0:0:0:0:
192,192,297966,1,0,0:0:0:0:
320,192,298129,1,0,0:0:0:0:
448,192,298129,1,0,0:0:0:0:
64,192,298291,1,0,0:0:0:0:
192,192,298453,1,0,0:0:0:0:
448,192,298453,1,0,0:0:0:0:
320,192,298615,1,0,0:0:0:0:
192,192,298777,1,0,0:0:0:0:
64,192,298777,1,0,0:0:0:0:
448,192,298939,1,0,0:0:0:0:
320,192,299102,1,0,0:0:0:0:
64,192,299102,1,0,0:0:0:0:
192,192,299264,1,0,0:0:0:0:
320,192,299426,1,0,0:0:0:0:
448,192,299426,1,0,0:0:0:0:
64,192,299588,1,0,0:0:0:0:
192,192,299750,1,0,0:0:0:0:
448,192,299750,1,0,0:0:0:0:
320,192,299912,1,0,0:0:0:0:
64,192,300237,1,0,0:0:0:0:
192,192,300561,1,0,0:0:0:0:
320,192,300885,1,0,0:0:0:0:
64,192,301047,1,0,0:0:0:0:
448,192,301047,1,0,0:0:0:0:
