osu file format v14

[General]
AudioFilename: audio.ogg
AudioLeadIn: 0
PreviewTime: 34773
Countdown: 0
SampleSet: Normal
StackLeniency: 0.7
Mode: 1
LetterboxInBreaks: 0
WidescreenStoryboard: 1

[Editor]
DistanceSpacing: 1.4
BeatDivisor: 4
GridSize: 4
TimelineZoom: 2.2

[Metadata]
Title:SATELLITE
TitleUnicode:SATELLITE
Artist:NOMA
ArtistUnicode:ノマ
Creator:Miyoi
Version:ONI
Source:
Tags:Midnaait Reficul Electronic Instrumental ELECAT RECORDS Nominalism DnB Drum and 'n' Bass Drum'n'Bass Drum&Bass D'n'B D&B Hardcore Drumstep
BeatmapID:3610380
BeatmapSetID:1763930

[Difficulty]
HPDrainRate:5.5
CircleSize:5
OverallDifficulty:6
ApproachRate:9
SliderMultiplier:1.4
SliderTickRate:1

[Events]
//Background and Video events
0,0,"82757552_p0.jpg",0,40
//Break Periods
//Storyboard Layer 0 (Background)
//Storyboard Layer 1 (Fail)
//Storyboard Layer 2 (Pass)
//Storyboard Layer 3 (Foreground)
//Storyboard Layer 4 (Overlay)
//Storyboard Sound Samples

[TimingPoints]
2852,333.333333333333,4,1,0,50,1,0
13463,-100,4,1,0,66,0,0
24129,-100,4,1,0,80,0,0
29680,-99.58696056,4,1,0,80,0,0
29846,-99.05950066,4,1,0,80,0,0
30013,-98.47724796,4,1,0,80,0,0
30180,-97.86158241,4,1,0,80,0,0
30346,-97.22612888,4,1,0,80,0,0
30513,-96.56940967,4,1,0,80,0,0
30680,-95.89955581,4,1,0,80,0,0
30846,-95.22392079,4,1,0,80,0,0
30930,-94.87912949,4,1,0,80,0,0
31013,-94.53688811,4,1,0,80,0,0
31180,-93.84453337,4,1,0,80,0,0
31346,-93.15269513,4,1,0,80,0,0
31513,-92.45441473,4,1,0,80,0,0
31596,-92.10688381,4,1,0,80,0,0
31680,-91.75501645,4,1,0,80,0,0
31846,-91.05967953,4,1,0,80,0,0
32013,-90.36087283,4,1,0,80,0,0
32180,-89.66351964,4,1,0,80,0,0
32263,-89.31767197,4,1,0,80,0,0
32346,-88.97241191,4,1,0,80,0,0
32513,-88.27977365,4,1,0,80,0,0
32596,-87.9366622,4,1,0,80,0,0
32680,-87.59025771,4,1,0,80,0,0
32846,-86.90838203,4,1,0,80,0,0
32902,-86.6792066,4,1,0,80,0,0
32958,-86.45048398,4,1,0,80,0,0
33013,-86.22629817,4,1,0,80,0,0
33096,-85.8888547,4,1,0,80,0,0
33180,-85.54844744,4,1,0,80,0,0
33235,-85.32617883,4,1,0,80,0,0
33346,-84.87912984,4,1,0,80,0,0
33430,-84.54221717,4,1,0,80,0,0
33513,-84.21052632,4,1,0,80,0,0
34851,-84.21052632,4,1,0,100,0,1
44101,-72.72727273,4,1,0,100,0,1
44407,-70.79646018,4,1,0,100,0,1
44629,-68.08510638,4,1,0,100,0,1
45185,-84.21052632,4,1,0,100,0,1
50930,-84.19749642,4,1,0,100,0,1
51096,-84.12273303,4,1,0,100,0,1
51180,-84.06487185,4,1,0,100,0,1
51346,-83.91595195,4,1,0,100,0,1
51513,-83.72386993,4,1,0,100,0,1
51596,-83.6137824,4,1,0,100,0,1
51680,-83.4929906,4,1,0,100,0,1
51763,-83.36469951,4,1,0,100,0,1
51846,-83.22782516,4,1,0,100,0,1
52013,-82.92752931,4,1,0,100,0,1
52180,-82.59567359,4,1,0,100,0,1
52263,-82.41958813,4,1,0,100,0,1
52430,-82.04396434,4,1,0,100,0,1
52513,-81.84709234,4,1,0,100,0,1
52680,-81.43149056,4,1,0,100,0,1
52846,-80.99384933,4,1,0,100,0,1
53013,-80.53037451,4,1,0,100,0,1
53096,-80.29181216,4,1,0,100,0,1
53180,-80.0450571,4,1,0,100,0,1
53263,-79.79615344,4,1,0,100,0,1
53346,-79.54235912,4,1,0,100,0,1
53513,-79.01754534,4,1,0,100,0,1
53680,-78.47486834,4,1,0,100,0,1
53763,-78.19889566,4,1,0,100,0,1
53846,-77.91896692,4,1,0,100,0,1
54013,-77.34434023,4,1,0,100,0,1
54180,-76.7554525,4,1,0,100,0,1
54235,-76.55857807,4,1,0,100,0,1
54346,-76.15707139,4,1,0,100,0,1
54430,-75.84967248,4,1,0,100,0,1
54513,-75.54307035,4,1,0,100,0,1
54569,-75.33466342,4,1,0,100,0,1
54680,-74.91806691,4,1,0,100,0,1
54846,-74.28690528,4,1,0,100,0,1
55096,-73.31984423,4,1,0,100,0,1
55346,-72.33569434,4,1,0,100,0,1
55680,-70.99928757,4,1,0,100,0,1
55846,-70.327728,4,1,0,100,0,1
55930,-69.9863817,4,1,0,100,0,1
56013,-69.64821759,4,1,0,100,0,1
56185,-68.96551724,4,1,0,100,0,0
56351,-100,4,1,0,50,0,0
68018,-100,4,1,0,66,0,0
77351,-100,4,1,0,80,0,0
82846,-80.16032064,4,1,0,80,0,0
83013,-81.3796381,4,1,0,80,0,0
83180,-82.61457103,4,1,0,80,0,0
83346,-83.85669705,4,1,0,80,0,0
83513,-85.11992408,4,1,0,80,0,0
83680,-86.39556386,4,1,0,80,0,0
83846,-87.67442396,4,1,0,80,0,0
84013,-88.97022522,4,1,0,80,0,0
84180,-90.27333158,4,1,0,80,0,0
84263,-90.92301147,4,1,0,80,0,0
84346,-91.57363164,4,1,0,80,0,0
84513,-92.88419025,4,1,0,80,0,0
84680,-94.19417592,4,1,0,80,0,0
84846,-95.49231869,4,1,0,80,0,0
84930,-96.14646045,4,1,0,80,0,0
85013,-96.79027762,4,1,0,80,0,0
85180,-98.0755906,4,1,0,80,0,0
85346,-99.33536053,4,1,0,80,0,0
85513,-100.5785163,4,1,0,80,0,0
85596,-101.1851039,4,1,0,80,0,0
85680,-101.7899996,4,1,0,80,0,0
85846,-102.9540712,4,1,0,80,0,0
85930,-103.5245675,4,1,0,80,0,0
86013,-104.0739847,4,1,0,80,0,0
86180,-105.1289721,4,1,0,80,0,0
86235,-105.4593233,4,1,0,80,0,0
86346,-106.0955011,4,1,0,80,0,0
86430,-106.5457847,4,1,0,80,0,0
86513,-106.9595696,4,1,0,80,0,0
86569,-107.2184052,4,1,0,80,0,0
86680,-107.671836,4,1,0,80,0,0
86763,-107.9423765,4,1,0,80,0,0
86846,-108.1081081,4,1,0,80,0,0
88180,-89.88764045,4,1,0,100,0,0
88346,-93.67681499,4,1,0,100,0,0
88430,-95.6937799,4,1,0,100,0,0
88513,-96.73518742,4,1,0,100,0,0
88831,-89.88764045,4,1,0,100,0,0
88997,-93.67681499,4,1,0,100,0,0
89081,-95.6937799,4,1,0,100,0,0
89164,-96.73518742,4,1,0,100,0,0
89513,-89.88764045,4,1,0,100,0,0
89596,-90.72671393,4,1,0,100,0,0
89763,-92.40163419,4,1,0,100,0,0
89846,-93.22355474,4,1,0,100,0,0
89930,-94.04507741,4,1,0,100,0,0
90096,-95.62605469,4,1,0,100,0,0
90180,-96.39683468,4,1,0,100,0,0
90263,-97.13251013,4,1,0,100,0,0
90346,-97.83564776,4,1,0,100,0,0
90513,-99.10955449,4,1,0,100,0,0
90851,333.333333333333,4,1,0,100,1,8
90852,333.333333333333,4,1,0,100,1,1
90852,-84.21052632,4,1,0,100,0,1
91013,-84.2044213,4,1,0,100,0,1
91097,-84.19668074,4,1,0,100,0,1
91180,-84.18596429,4,1,0,100,0,1
91347,-84.15517132,4,1,0,100,0,1
91513,-84.11236412,4,1,0,100,0,1
91597,-84.08607984,4,1,0,100,0,1
91680,-84.05706454,4,1,0,100,0,1
91847,-83.98954213,4,1,0,100,0,1
92013,-83.91036915,4,1,0,100,0,1
92097,-83.86574745,4,1,0,100,0,1
92180,-83.81866084,4,1,0,100,0,1
92347,-83.71493754,4,1,0,100,0,1
92513,-83.60001693,4,1,0,100,0,1
92597,-83.53740543,4,1,0,100,0,1
92680,-83.47261372,4,1,0,100,0,1
92763,-83.40492771,4,1,0,100,0,1
92847,-83.33349406,4,1,0,100,0,1
92930,-83.2600286,4,1,0,100,0,1
93013,-83.18371371,4,1,0,100,0,1
93097,-83.1035946,4,1,0,100,0,1
93180,-83.02159563,4,1,0,100,0,1
93347,-82.84814466,4,1,0,100,0,1
93513,-82.66464524,4,1,0,100,0,1
93680,-82.46903998,4,1,0,100,0,1
93763,-82.36776825,4,1,0,100,0,1
93847,-82.26256319,4,1,0,100,0,1
94013,-82.04671687,4,1,0,100,0,1
94097,-81.93351957,4,1,0,100,0,1
94180,-81.81907697,4,1,0,100,0,1
94263,-81.70207995,4,1,0,100,0,1
94347,-81.58109634,4,1,0,100,0,1
94513,-81.33448177,4,1,0,100,0,1
94680,-81.07645848,4,1,0,100,0,1
94763,-80.94457941,4,1,0,100,0,1
94847,-80.80868534,4,1,0,100,0,1
95013,-80.5330599,4,1,0,100,0,1
95097,-80.3900615,4,1,0,100,0,1
95180,-80.2464745,4,1,0,100,0,1
95347,-79.95078018,4,1,0,100,0,1
95430,-79.80049875,4,1,0,100,0,1
95513,-79.64805023,4,1,0,100,0,1
95597,-79.49158723,4,1,0,100,0,1
95680,-79.33486362,4,1,0,100,0,1
95763,-79.17605805,4,1,0,100,0,1
95847,-79.01324875,4,1,0,100,0,1
96013,-78.68543884,4,1,0,100,0,1
96180,-78.34772042,4,1,0,100,0,1
96513,-77.65150557,4,1,0,100,0,1
96680,-77.29140218,4,1,0,100,0,1
96763,-77.10981322,4,1,0,100,0,1
96847,-76.92430949,4,1,0,100,0,1
97013,-76.55273166,4,1,0,100,0,1
97180,-76.17243729,4,1,0,100,0,1
97263,-75.98108786,4,1,0,100,0,1
97347,-75.78589192,4,1,0,100,0,1
97513,-75.39571053,4,1,0,100,0,1
97680,-74.99743765,4,1,0,100,0,1
97763,-74.79742757,4,1,0,100,0,1
97847,-74.59365213,4,1,0,100,0,1
98013,-74.18706373,4,1,0,100,0,1
98096,-73.98189274,4,1,0,100,0,1
98180,-73.77301653,4,1,0,100,0,1
98263,-73.56543838,4,1,0,100,0,1
98346,-73.35670851,4,1,0,100,0,1
98513,-72.93336338,4,1,0,100,0,1
98680,-72.50571363,4,1,0,100,0,1
98763,-72.29164107,4,1,0,100,0,1
98846,-72.07659245,4,1,0,100,0,1
99013,-71.64106248,4,1,0,100,0,1
99180,-71.20192807,4,1,0,100,0,1
99346,-70.76207691,4,1,0,100,0,1
99430,-70.53830109,4,1,0,100,0,1
99513,-70.31643371,4,1,0,100,0,1
99596,-70.09384257,4,1,0,100,0,1
99680,-69.86786024,4,1,0,100,0,1
99763,-69.64389425,4,1,0,100,0,1
99846,-69.41928497,4,1,0,100,0,1
100013,-68.96551724,4,1,0,100,0,1
100164,-64,4,1,0,100,0,1
100956,-84.21052632,4,1,0,100,0,1
106930,-84.17865467,4,1,0,100,0,1
107096,-84.02835268,4,1,0,100,0,1
107180,-83.92131035,4,1,0,100,0,1
107346,-83.66069541,4,1,0,100,0,1
107513,-83.34192491,4,1,0,100,0,1
107596,-83.16485897,4,1,0,100,0,1
107680,-82.97411218,4,1,0,100,0,1
107763,-82.77488746,4,1,0,100,0,1
107846,-82.56556895,4,1,0,100,0,1
108013,-82.11594826,4,1,0,100,0,1
108180,-81.63145972,4,1,0,100,0,1
108263,-81.37875317,4,1,0,100,0,1
108430,-80.84824128,4,1,0,100,0,1
108513,-80.57431392,4,1,0,100,0,1
108680,-80.0041593,4,1,0,100,0,1
108846,-79.41427183,4,1,0,100,0,1
109013,-78.79980614,4,1,0,100,0,1
109096,-78.48722426,4,1,0,100,0,1
109180,-78.16635338,4,1,0,100,0,1
109263,-77.84507163,4,1,0,100,0,1
109346,-77.51981334,4,1,0,100,0,1
109513,-76.85421371,4,1,0,100,0,1
109680,-76.17510785,4,1,0,100,0,1
109763,-75.8330627,4,1,0,100,0,1
109846,-75.48826455,4,1,0,100,0,1
110013,-74.78689915,4,1,0,100,0,1
110180,-74.07651956,4,1,0,100,0,1
110235,-73.84081515,4,1,0,100,0,1
110346,-73.36276263,4,1,0,100,0,1
110430,-72.99907521,4,1,0,100,0,1
110513,-72.63825687,4,1,0,100,0,1
110569,-72.3940638,4,1,0,100,0,1
110680,-71.90843665,4,1,0,100,0,1
110846,-71.17879075,4,1,0,100,0,1
111096,-70.0742124,4,1,0,100,0,1
111346,-68.96551724,4,1,0,100,0,1
112185,-100,4,1,0,80,0,0
128346,-99.827398842545,4,1,0,80,0,0
128513,-99.5744224267269,4,1,0,80,0,0
128680,-99.2802571927497,4,1,0,80,0,0
128763,-99.1226047851271,4,1,0,80,0,0
128846,-98.9585859962652,4,1,0,80,0,0
128930,-98.7868011243128,4,1,0,80,0,0
129013,-98.6118983973188,4,1,0,80,0,0
129180,-98.2462431253061,4,1,0,80,0,0
129513,-97.4717989349594,4,1,0,80,0,0
129680,-97.0648253464391,4,1,0,80,0,0
129763,-96.8586450377368,4,1,0,80,0,0
129846,-96.6500895977881,4,1,0,80,0,0
130013,-96.2238656398806,4,1,0,80,0,0
130096,-96.0090193319912,4,1,0,80,0,0
130180,-95.789716718831,4,1,0,80,0,0
130263,-95.571293017141,4,1,0,80,0,0
130346,-95.3512538618597,4,1,0,80,0,0
130513,-94.9040256935231,4,1,0,80,0,0
130851,345.821325648415,4,1,0,80,1,8
130852,345.821325648415,4,1,0,80,1,0
130852,-90.5997952940289,4,1,0,80,0,0
131019,-90.1415715097835,4,1,0,80,0,0
131192,-89.676982676222,4,1,0,80,0,0
131279,-89.4421093540431,4,1,0,80,0,0
131365,-89.2092042697127,4,1,0,80,0,0
131544,359.281437125749,4,1,0,80,1,8
131544,-85.4115828130934,4,1,0,80,0,8
131718,-84.9406952050235,4,1,0,80,0,8
131808,-84.7031848624375,4,1,0,80,0,8
131898,-84.4652395873899,4,1,0,80,0,8
131988,-84.2269076212073,4,1,0,80,0,8
132077,-83.9908888058423,4,1,0,80,0,8
132263,372.670807453416,4,1,0,80,1,0
132263,-80.5096834201077,4,1,0,80,0,0
132444,-80.0324453675617,4,1,0,80,0,0
132636,392.156862745098,4,1,0,80,1,8
132636,-75.3295668549906,4,1,0,80,0,0
132729,-75.3598424050088,4,1,0,80,0,8
132827,-75.1204715960036,4,1,0,80,0,8
133028,428.571428571429,4,1,0,80,1,8
133028,-68.299685207452,4,1,0,80,0,8
133130,-68.0606818815423,4,1,0,80,0,8
133237,-67.8218066520538,4,1,0,80,0,8
133344,-67.5830970823121,4,1,0,80,0,8
133457,517.241379310345,4,1,0,80,1,8
133457,-55.7979563276952,4,1,0,80,0,8
133581,-55.559967798926,4,1,0,80,0,8
133710,-55.3223110429148,4,1,0,80,0,8
133839,-55.0850309588121,4,1,0,80,0,8
133974,555.555555555556,4,1,0,80,1,0
133974,-51.0638297872339,4,1,0,80,0,0
134043,-40,4,1,0,20,0,0
135918,-57.1428571428571,4,1,0,20,0,0
138140,-75.0187546886722,4,1,0,20,0,0

[HitObjects]
126,143,2852,5,4,0:0:0:0:
139,133,3185,1,8,0:0:0:0:
139,133,3685,1,0,0:0:0:0:
139,133,4018,1,8,0:0:0:0:
139,133,4351,1,8,0:0:0:0:
139,133,4685,1,8,0:0:0:0:
139,133,4851,1,0,0:0:0:0:
139,133,5185,1,8,0:0:0:0:
139,133,5351,1,8,0:0:0:0:
139,133,5518,1,0,0:0:0:0:
139,133,5851,1,8,0:0:0:0:
139,133,6185,1,0,0:0:0:0:
139,133,6351,1,0,0:0:0:0:
139,133,6685,1,8,0:0:0:0:
139,133,7018,1,8,0:0:0:0:
139,133,7351,1,8,0:0:0:0:
139,133,7685,1,0,0:0:0:0:
139,133,7851,1,8,0:0:0:0:
139,133,8018,1,8,0:0:0:0:
139,133,8185,1,0,0:0:0:0:
139,133,8518,1,8,0:0:0:0:
139,133,9018,1,0,0:0:0:0:
139,133,9351,1,8,0:0:0:0:
139,133,9685,1,8,0:0:0:0:
139,133,10018,1,8,0:0:0:0:
139,133,10185,1,0,0:0:0:0:
139,133,10518,1,8,0:0:0:0:
139,133,10685,1,8,0:0:0:0:
139,133,10851,1,0,0:0:0:0:
139,133,11185,1,0,0:0:0:0:
139,133,11518,1,8,0:0:0:0:
139,133,11685,1,8,0:0:0:0:
139,133,12018,1,0,0:0:0:0:
139,133,12351,1,0,0:0:0:0:
139,133,12685,1,8,0:0:0:0:
139,133,13018,1,8,0:0:0:0:
139,133,13185,1,8,0:0:0:0:
139,133,13351,1,8,0:0:0:0:
139,133,13518,1,4,0:0:0:0:
153,134,14185,1,8,0:0:0:0:
151,129,14351,1,0,0:0:0:0:
153,134,14685,1,0,0:0:0:0:
153,134,14851,1,0,0:0:0:0:
145,129,15018,1,0,0:0:0:0:
145,124,15351,1,0,0:0:0:0:
153,134,15518,1,8,0:0:0:0:
145,124,15685,1,0,0:0:0:0:
145,124,15851,1,8,0:0:0:0:
150,128,15935,1,8,0:0:0:0:
145,129,16018,1,8,0:0:0:0:
153,134,16185,1,0,0:0:0:0:
156,106,16518,1,0,0:0:0:0:
148,143,16851,1,8,0:0:0:0:
140,118,17018,1,8,0:0:0:0:
155,141,17351,1,0,0:0:0:0:
148,143,17518,1,0,0:0:0:0:
138,121,17685,1,0,0:0:0:0:
159,121,18018,1,0,0:0:0:0:
157,134,18185,1,8,0:0:0:0:
159,121,18351,1,8,0:0:0:0:
159,121,18518,1,0,0:0:0:0:
150,123,18601,1,0,0:0:0:0:
157,121,18685,1,8,0:0:0:0:
157,134,18851,1,0,0:0:0:0:
157,134,19518,1,8,0:0:0:0:
151,130,19685,1,0,0:0:0:0:
157,134,20018,1,0,0:0:0:0:
157,134,20185,1,0,0:0:0:0:
151,130,20351,1,0,0:0:0:0:
151,130,20685,1,0,0:0:0:0:
157,134,20851,1,8,0:0:0:0:
151,130,21018,1,0,0:0:0:0:
149,130,21185,1,8,0:0:0:0:
144,117,21268,1,8,0:0:0:0:
151,130,21351,1,8,0:0:0:0:
157,134,21518,1,0,0:0:0:0:
215,107,21851,1,8,0:0:0:0:
157,134,22185,1,8,0:0:0:0:
151,130,22351,1,0,0:0:0:0:
157,134,22685,1,0,0:0:0:0:
157,134,22851,1,0,0:0:0:0:
150,126,23018,1,8,0:0:0:0:
151,130,23351,1,0,0:0:0:0:
157,134,23518,1,8,0:0:0:0:
150,126,23685,1,0,0:0:0:0:
150,126,23851,1,8,0:0:0:0:
150,126,23935,1,8,0:0:0:0:
150,126,24018,1,8,0:0:0:0:
151,130,24185,1,4,0:0:0:0:
167,134,24518,1,8,0:0:0:0:
167,134,24685,1,0,0:0:0:0:
167,134,24851,1,8,0:0:0:0:
167,134,25018,1,8,0:0:0:0:
167,134,25185,1,0,0:0:0:0:
167,134,25351,1,8,0:0:0:0:
159,123,25518,1,0,0:0:0:0:
159,123,25685,1,0,0:0:0:0:
159,123,25768,1,0,0:0:0:0:
159,123,25851,1,8,0:0:0:0:
159,123,26018,1,8,0:0:0:0:
203,118,26185,1,0,0:0:0:0:
190,125,26268,1,0,0:0:0:0:
188,118,26351,1,8,0:0:0:0:
143,117,26435,1,8,0:0:0:0:
203,118,26518,1,0,0:0:0:0:
184,117,26685,1,8,0:0:0:0:
184,117,26851,1,4,0:0:0:0:
188,147,27185,1,8,0:0:0:0:
188,146,27351,1,0,0:0:0:0:
188,146,27518,1,8,0:0:0:0:
188,146,27685,1,8,0:0:0:0:
188,146,27851,1,0,0:0:0:0:
188,146,28018,1,8,0:0:0:0:
182,94,28185,1,0,0:0:0:0:
189,113,28268,1,0,0:0:0:0:
154,98,28351,1,8,0:0:0:0:
183,103,28518,1,8,0:0:0:0:
173,102,28685,1,0,0:0:0:0:
169,103,28768,1,0,0:0:0:0:
167,107,28851,1,8,0:0:0:0:
205,102,28935,1,8,0:0:0:0:
174,108,29018,1,0,0:0:0:0:
175,108,29101,1,0,0:0:0:0:
175,108,29185,1,8,0:0:0:0:
213,106,29518,1,4,0:0:0:0:
213,106,29685,1,8,0:0:0:0:
213,106,29851,1,0,0:0:0:0:
213,106,30018,1,8,0:0:0:0:
213,106,30185,1,0,0:0:0:0:
213,106,30351,1,8,0:0:0:0:
213,106,30518,1,0,0:0:0:0:
213,106,30685,1,8,0:0:0:0:
213,106,30851,1,0,0:0:0:0:
213,106,30935,1,0,0:0:0:0:
213,106,31018,1,8,0:0:0:0:
213,106,31185,1,0,0:0:0:0:
213,106,31351,1,8,0:0:0:0:
213,106,31518,1,0,0:0:0:0:
213,106,31601,1,0,0:0:0:0:
213,106,31685,1,8,0:0:0:0:
213,106,31851,1,0,0:0:0:0:
213,106,32018,1,8,0:0:0:0:
234,121,32185,1,0,0:0:0:0:
234,121,32268,1,0,0:0:0:0:
234,121,32351,1,0,0:0:0:0:
234,121,32518,1,8,0:0:0:0:
234,121,32601,1,8,0:0:0:0:
234,121,32685,1,8,0:0:0:0:
234,121,32851,1,0,0:0:0:0:
234,121,32935,1,0,0:0:0:0:
234,121,33018,1,8,0:0:0:0:
234,121,33101,1,8,0:0:0:0:
234,121,33185,1,0,0:0:0:0:
234,121,33268,1,0,0:0:0:0:
234,121,33351,1,8,0:0:0:0:
234,121,33435,1,8,0:0:0:0:
219,115,33518,1,0,0:0:0:0:
179,118,34851,5,0,0:0:0:0:
182,126,34935,1,8,0:0:0:0:
182,126,35101,1,8,0:0:0:0:
183,126,35185,1,0,0:0:0:0:
183,126,35351,1,8,0:0:0:0:
183,126,35518,1,0,0:0:0:0:
191,132,35601,1,8,0:0:0:0:
184,127,35685,1,8,0:0:0:0:
190,129,35768,1,8,0:0:0:0:
191,129,35851,1,0,0:0:0:0:
187,135,36018,1,8,0:0:0:0:
191,131,36185,1,0,0:0:0:0:
195,131,36268,1,8,0:0:0:0:
195,131,36435,1,8,0:0:0:0:
195,131,36518,1,0,0:0:0:0:
195,131,36685,1,8,0:0:0:0:
195,131,36851,1,0,0:0:0:0:
185,121,37018,1,8,0:0:0:0:
190,121,37185,1,0,0:0:0:0:
190,121,37268,1,8,0:0:0:0:
190,121,37351,1,8,0:0:0:0:
183,118,37518,1,0,0:0:0:0:
183,118,37601,1,8,0:0:0:0:
183,118,37768,1,8,0:0:0:0:
183,118,37851,1,0,0:0:0:0:
185,121,38018,1,8,0:0:0:0:
183,117,38185,1,0,0:0:0:0:
183,117,38268,1,8,0:0:0:0:
183,117,38351,1,0,0:0:0:0:
183,118,38435,1,0,0:0:0:0:
183,118,38518,1,8,0:0:0:0:
183,118,38685,1,8,0:0:0:0:
177,114,38851,1,0,0:0:0:0:
177,114,38935,1,8,0:0:0:0:
177,114,39101,1,8,0:0:0:0:
177,114,39185,1,0,0:0:0:0:
178,114,39351,1,8,0:0:0:0:
178,114,39518,1,0,0:0:0:0:
178,114,39685,1,8,0:0:0:0:
177,114,39768,1,8,0:0:0:0:
177,114,39851,1,8,0:0:0:0:
164,119,40185,1,0,0:0:0:0:
164,119,40268,1,8,0:0:0:0:
164,119,40435,1,8,0:0:0:0:
164,119,40518,1,0,0:0:0:0:
164,119,40685,1,8,0:0:0:0:
164,119,40851,1,0,0:0:0:0:
164,119,40935,1,8,0:0:0:0:
165,119,41018,1,8,0:0:0:0:
164,119,41101,1,8,0:0:0:0:
164,119,41185,1,0,0:0:0:0:
164,119,41351,1,8,0:0:0:0:
164,119,41518,1,0,0:0:0:0:
164,119,41601,1,8,0:0:0:0:
164,119,41768,1,8,0:0:0:0:
164,119,41851,1,0,0:0:0:0:
165,119,42018,1,8,0:0:0:0:
164,119,42185,1,0,0:0:0:0:
172,114,42351,1,8,0:0:0:0:
172,114,42518,1,0,0:0:0:0:
172,114,42601,1,8,0:0:0:0:
172,114,42685,1,8,0:0:0:0:
165,102,42851,1,0,0:0:0:0:
163,102,42935,1,8,0:0:0:0:
159,102,43101,1,8,0:0:0:0:
157,102,43185,1,0,0:0:0:0:
159,102,43351,1,8,0:0:0:0:
159,102,43518,1,0,0:0:0:0:
159,102,43601,1,8,0:0:0:0:
159,102,43685,1,0,0:0:0:0:
159,102,43768,1,0,0:0:0:0:
159,102,43851,1,8,0:0:0:0:
166,107,44018,1,0,0:0:0:0:
162,103,44185,1,12,0:0:0:0:
159,102,44435,1,12,0:0:0:0:
159,102,44685,1,4,0:0:0:0:
179,118,45518,5,0,0:0:0:0:
182,126,45601,1,8,0:0:0:0:
182,126,45768,1,8,0:0:0:0:
183,126,45851,1,0,0:0:0:0:
183,126,46018,1,8,0:0:0:0:
183,126,46185,1,0,0:0:0:0:
191,132,46268,1,0,0:0:0:0:
184,127,46351,1,0,0:0:0:0:
190,129,46435,1,0,0:0:0:0:
191,129,46518,1,8,0:0:0:0:
187,135,46685,1,8,0:0:0:0:
191,131,46851,1,0,0:0:0:0:
195,131,46935,1,8,0:0:0:0:
195,131,47101,1,8,0:0:0:0:
195,131,47185,1,0,0:0:0:0:
195,131,47351,1,8,0:0:0:0:
195,131,47518,1,0,0:0:0:0:
185,121,47685,1,8,0:0:0:0:
176,120,47768,1,8,0:0:0:0:
190,121,47851,1,0,0:0:0:0:
176,121,47935,1,0,0:0:0:0:
190,121,48018,1,8,0:0:0:0:
183,118,48185,1,0,0:0:0:0:
183,118,48268,1,8,0:0:0:0:
183,118,48435,1,8,0:0:0:0:
183,118,48518,1,0,0:0:0:0:
185,121,48685,1,8,0:0:0:0:
183,117,48851,1,0,0:0:0:0:
183,117,48935,1,0,0:0:0:0:
183,117,49018,1,0,0:0:0:0:
183,118,49101,1,0,0:0:0:0:
183,118,49185,1,8,0:0:0:0:
183,118,49351,1,8,0:0:0:0:
177,114,49518,1,0,0:0:0:0:
177,114,49601,1,8,0:0:0:0:
177,114,49768,1,8,0:0:0:0:
177,114,49851,1,0,0:0:0:0:
178,114,50018,1,0,0:0:0:0:
178,114,50185,1,8,0:0:0:0:
177,114,50518,1,0,0:0:0:0:
183,115,50685,1,12,0:0:0:0:
164,119,50851,1,0,0:0:0:0:
164,119,50935,1,8,0:0:0:0:
164,119,51101,1,8,0:0:0:0:
164,119,51185,1,0,0:0:0:0:
164,119,51351,1,8,0:0:0:0:
164,119,51518,1,0,0:0:0:0:
164,119,51601,1,0,0:0:0:0:
165,119,51685,1,8,0:0:0:0:
164,119,51768,1,8,0:0:0:0:
164,119,51851,1,0,0:0:0:0:
164,119,52018,1,8,0:0:0:0:
164,119,52185,1,0,0:0:0:0:
164,119,52268,1,8,0:0:0:0:
164,119,52435,1,8,0:0:0:0:
164,119,52518,1,0,0:0:0:0:
165,119,52685,1,8,0:0:0:0:
164,119,52851,1,0,0:0:0:0:
172,114,53018,1,8,0:0:0:0:
144,100,53101,1,8,0:0:0:0:
172,114,53185,1,8,0:0:0:0:
172,114,53268,1,8,0:0:0:0:
172,114,53351,1,0,0:0:0:0:
165,102,53518,1,0,0:0:0:0:
174,100,53685,1,0,0:0:0:0:
159,102,53768,1,0,0:0:0:0:
157,102,53851,1,8,0:0:0:0:
159,102,54018,1,8,0:0:0:0:
159,102,54185,1,0,0:0:0:0:
159,102,54268,1,0,0:0:0:0:
159,102,54351,1,8,0:0:0:0:
159,102,54435,1,8,0:0:0:0:
178,103,54518,1,0,0:0:0:0:
172,97,54601,1,0,0:0:0:0:
166,107,54685,1,8,0:0:0:0:
162,103,54851,1,0,0:0:0:0:
159,102,55101,1,0,0:0:0:0:
159,102,55351,1,8,0:0:0:0:
155,110,55685,1,0,0:0:0:0:
134,112,55851,1,8,0:0:0:0:
134,112,55935,1,8,0:0:0:0:
136,112,56018,1,8,0:0:0:0:
129,115,56185,1,4,0:0:0:0:
131,200,57518,1,8,0:0:0:0:
131,200,58018,1,0,0:0:0:0:
131,200,58518,1,8,0:0:0:0:
131,200,59185,1,8,0:0:0:0:
145,183,61185,1,8,0:0:0:0:
145,183,61268,1,8,0:0:0:0:
145,183,61351,1,8,0:0:0:0:
145,183,61435,1,8,0:0:0:0:
172,174,61851,1,0,0:0:0:0:
149,174,63518,1,8,0:0:0:0:
149,174,63851,1,0,0:0:0:0:
149,174,64185,1,0,0:0:0:0:
149,174,64685,1,8,0:0:0:0:
149,174,65185,1,0,0:0:0:0:
149,174,65685,1,8,0:0:0:0:
149,174,66018,1,8,0:0:0:0:
149,174,66185,1,0,0:0:0:0:
149,174,66351,1,0,0:0:0:0:
149,174,66518,1,8,0:0:0:0:
149,174,66685,1,8,0:0:0:0:
153,171,68185,1,0,0:0:0:0:
165,167,68685,1,0,0:0:0:0:
165,167,69185,1,8,0:0:0:0:
165,167,69851,1,8,0:0:0:0:
161,166,71518,1,8,0:0:0:0:
161,166,71851,1,8,0:0:0:0:
161,166,72185,1,0,0:0:0:0:
161,166,72685,1,0,0:0:0:0:
161,166,73185,1,8,0:0:0:0:
161,166,73518,1,0,0:0:0:0:
161,166,74185,1,8,0:0:0:0:
161,166,74851,1,0,0:0:0:0:
161,166,75351,1,8,0:0:0:0:
161,166,75851,1,8,0:0:0:0:
161,166,76185,1,0,0:0:0:0:
161,166,76851,1,8,0:0:0:0:
161,166,77518,1,4,0:0:0:0:
195,154,77851,1,8,0:0:0:0:
195,154,78018,1,0,0:0:0:0:
195,154,78185,1,8,0:0:0:0:
195,154,78351,1,8,0:0:0:0:
195,154,78518,1,0,0:0:0:0:
195,154,78685,1,0,0:0:0:0:
195,154,78851,1,8,0:0:0:0:
195,154,79018,1,0,0:0:0:0:
195,154,79185,1,8,0:0:0:0:
195,154,79351,1,8,0:0:0:0:
195,154,79518,1,0,0:0:0:0:
195,154,79685,1,0,0:0:0:0:
195,154,79851,1,8,0:0:0:0:
188,135,80018,1,8,0:0:0:0:
190,124,80101,1,8,0:0:0:0:
195,154,80185,1,0,0:0:0:0:
195,154,80351,1,0,0:0:0:0:
195,154,80518,1,8,0:0:0:0:
195,154,80685,1,0,0:0:0:0:
195,154,80851,1,8,0:0:0:0:
195,154,81018,1,8,0:0:0:0:
195,154,81185,1,0,0:0:0:0:
195,154,81351,1,0,0:0:0:0:
195,154,81518,1,8,0:0:0:0:
195,154,81685,1,0,0:0:0:0:
195,154,81851,1,8,0:0:0:0:
195,154,82018,1,8,0:0:0:0:
195,154,82185,1,0,0:0:0:0:
195,154,82351,1,0,0:0:0:0:
195,154,82518,1,8,0:0:0:0:
180,149,82851,1,8,0:0:0:0:
180,149,83018,1,0,0:0:0:0:
180,149,83185,1,8,0:0:0:0:
180,149,83351,1,0,0:0:0:0:
180,149,83518,1,8,0:0:0:0:
180,149,83685,1,0,0:0:0:0:
180,149,83851,1,8,0:0:0:0:
180,149,84018,1,0,0:0:0:0:
180,149,84185,1,8,0:0:0:0:
180,149,84268,1,8,0:0:0:0:
180,149,84351,1,0,0:0:0:0:
180,149,84518,1,8,0:0:0:0:
172,132,84685,1,0,0:0:0:0:
180,149,84851,1,8,0:0:0:0:
180,149,84935,1,8,0:0:0:0:
180,149,85018,1,0,0:0:0:0:
180,149,85185,1,8,0:0:0:0:
180,149,85351,1,0,0:0:0:0:
180,149,85518,1,8,0:0:0:0:
180,149,85601,1,8,0:0:0:0:
180,149,85685,1,8,0:0:0:0:
165,134,85851,1,0,0:0:0:0:
180,149,85935,1,0,0:0:0:0:
168,143,86018,1,0,0:0:0:0:
180,149,86185,1,8,0:0:0:0:
180,149,86268,1,8,0:0:0:0:
180,149,86351,1,0,0:0:0:0:
180,149,86435,1,0,0:0:0:0:
180,149,86518,1,8,0:0:0:0:
180,149,86601,1,8,0:0:0:0:
180,149,86685,1,0,0:0:0:0:
180,149,86768,1,0,0:0:0:0:
180,149,86851,1,8,0:0:0:0:
268,163,88185,5,0,0:0:0:0:
268,163,88351,1,0,0:0:0:0:
257,166,88435,1,0,0:0:0:0:
268,163,88518,1,8,0:0:0:0:
256,165,88851,1,0,0:0:0:0:
256,165,89018,1,0,0:0:0:0:
256,165,89101,1,0,0:0:0:0:
256,165,89185,1,8,0:0:0:0:
244,174,89518,1,0,0:0:0:0:
244,174,89601,1,8,0:0:0:0:
212,165,89768,1,0,0:0:0:0:
244,174,89851,1,0,0:0:0:0:
230,156,89935,1,8,0:0:0:0:
246,180,90101,1,0,0:0:0:0:
242,177,90185,1,0,0:0:0:0:
244,174,90268,1,0,0:0:0:0:
244,174,90351,1,8,0:0:0:0:
244,174,90518,1,8,0:0:0:0:
244,174,90852,1,12,0:0:0:0:
220,172,91018,1,0,0:0:0:0:
220,172,91102,1,0,0:0:0:0:
220,172,91185,1,8,0:0:0:0:
220,172,91352,1,8,0:0:0:0:
220,172,91518,1,0,0:0:0:0:
220,172,91602,1,0,0:0:0:0:
220,172,91685,1,0,0:0:0:0:
220,172,91852,1,8,0:0:0:0:
220,172,92018,1,8,0:0:0:0:
220,172,92102,1,8,0:0:0:0:
220,172,92185,5,0,0:0:0:0:
220,172,92352,1,0,0:0:0:0:
220,172,92518,1,8,0:0:0:0:
220,172,92602,1,0,0:0:0:0:
220,153,92685,1,8,0:0:0:0:
220,153,92852,1,8,0:0:0:0:
220,172,92935,1,8,0:0:0:0:
220,153,93018,1,0,0:0:0:0:
220,172,93102,1,0,0:0:0:0:
220,172,93185,1,8,0:0:0:0:
220,172,93352,1,8,0:0:0:0:
220,172,93518,5,0,0:0:0:0:
220,172,93685,1,8,0:0:0:0:
220,172,93768,1,0,0:0:0:0:
220,172,93852,1,8,0:0:0:0:
220,172,94018,1,0,0:0:0:0:
220,172,94102,1,0,0:0:0:0:
220,172,94185,1,8,0:0:0:0:
220,172,94268,1,8,0:0:0:0:
220,172,94352,1,0,0:0:0:0:
220,172,94518,1,8,0:0:0:0:
220,172,94685,1,8,0:0:0:0:
240,157,94768,1,8,0:0:0:0:
220,172,94852,5,0,0:0:0:0:
220,172,95018,1,0,0:0:0:0:
220,172,95102,1,0,0:0:0:0:
220,172,95185,1,8,0:0:0:0:
220,172,95352,1,8,0:0:0:0:
220,172,95435,1,8,0:0:0:0:
220,172,95518,1,0,0:0:0:0:
220,172,95602,1,0,0:0:0:0:
220,172,95685,1,0,0:0:0:0:
220,172,95768,1,0,0:0:0:0:
220,172,95852,1,8,0:0:0:0:
220,172,96018,1,0,0:0:0:0:
220,172,96185,5,0,0:0:0:0:
220,172,96518,1,8,0:0:0:0:
220,172,96685,1,8,0:0:0:0:
220,172,96768,1,8,0:0:0:0:
220,172,96852,1,0,0:0:0:0:
220,172,97018,1,0,0:0:0:0:
220,172,97185,1,8,0:0:0:0:
220,172,97268,1,0,0:0:0:0:
220,172,97352,1,8,0:0:0:0:
220,172,97518,5,0,0:0:0:0:
220,172,97685,1,0,0:0:0:0:
220,172,97768,1,0,0:0:0:0:
220,172,97852,1,8,0:0:0:0:
220,172,98018,1,8,0:0:0:0:
220,172,98101,1,8,0:0:0:0:
220,172,98185,1,0,0:0:0:0:
220,172,98268,1,0,0:0:0:0:
220,172,98351,1,0,0:0:0:0:
220,172,98518,1,8,0:0:0:0:
220,172,98685,1,0,0:0:0:0:
220,172,98768,1,8,0:0:0:0:
220,172,98851,1,0,0:0:0:0:
220,172,99018,1,0,0:0:0:0:
220,172,99185,1,8,0:0:0:0:
220,172,99351,1,0,0:0:0:0:
218,151,99435,1,0,0:0:0:0:
220,172,99518,1,8,0:0:0:0:
220,172,99601,1,8,0:0:0:0:
220,172,99685,1,0,0:0:0:0:
220,172,99768,1,0,0:0:0:0:
220,172,99851,1,8,0:0:0:0:
220,172,100018,1,0,0:0:0:0:
220,172,100185,1,12,0:0:0:0:
220,172,100435,1,12,0:0:0:0:
220,172,100685,1,4,0:0:0:0:
189,137,101018,1,0,0:0:0:0:
189,137,101185,1,8,0:0:0:0:
189,137,101268,1,8,0:0:0:0:
189,137,101351,1,8,0:0:0:0:
179,118,101518,5,0,0:0:0:0:
182,126,101601,1,8,0:0:0:0:
182,126,101768,1,8,0:0:0:0:
183,126,101851,1,0,0:0:0:0:
183,126,102018,1,8,0:0:0:0:
183,126,102185,1,0,0:0:0:0:
191,132,102268,1,0,0:0:0:0:
184,127,102351,1,0,0:0:0:0:
190,129,102435,1,0,0:0:0:0:
191,129,102518,1,8,0:0:0:0:
187,135,102685,1,8,0:0:0:0:
191,131,102851,1,0,0:0:0:0:
195,131,102935,1,8,0:0:0:0:
195,131,103101,1,8,0:0:0:0:
195,131,103185,1,0,0:0:0:0:
195,131,103351,1,8,0:0:0:0:
195,131,103518,1,0,0:0:0:0:
176,121,103601,1,0,0:0:0:0:
185,121,103685,1,8,0:0:0:0:
176,120,103768,1,0,0:0:0:0:
190,121,103851,1,8,0:0:0:0:
190,121,104018,1,8,0:0:0:0:
183,118,104185,1,0,0:0:0:0:
183,118,104268,1,8,0:0:0:0:
183,118,104435,1,8,0:0:0:0:
183,118,104518,1,0,0:0:0:0:
185,121,104685,1,8,0:0:0:0:
183,117,104851,1,0,0:0:0:0:
183,117,104935,1,0,0:0:0:0:
183,117,105018,1,0,0:0:0:0:
183,118,105101,1,0,0:0:0:0:
183,118,105185,1,8,0:0:0:0:
183,118,105351,1,8,0:0:0:0:
177,114,105518,1,0,0:0:0:0:
177,114,105601,1,8,0:0:0:0:
177,114,105768,1,8,0:0:0:0:
177,114,105851,1,0,0:0:0:0:
178,114,106018,1,0,0:0:0:0:
178,114,106185,1,8,0:0:0:0:
177,114,106518,1,0,0:0:0:0:
183,115,106685,1,12,0:0:0:0:
164,119,106851,1,0,0:0:0:0:
164,119,106935,1,8,0:0:0:0:
164,119,107101,1,8,0:0:0:0:
164,119,107185,1,0,0:0:0:0:
164,119,107351,1,8,0:0:0:0:
164,119,107518,1,0,0:0:0:0:
164,119,107601,1,0,0:0:0:0:
165,119,107685,1,8,0:0:0:0:
164,119,107768,1,8,0:0:0:0:
164,119,107851,1,0,0:0:0:0:
164,119,108018,1,8,0:0:0:0:
164,119,108185,1,0,0:0:0:0:
164,119,108268,1,8,0:0:0:0:
164,119,108435,1,8,0:0:0:0:
164,119,108518,1,0,0:0:0:0:
165,119,108685,1,8,0:0:0:0:
164,119,108851,1,0,0:0:0:0:
172,114,109018,1,8,0:0:0:0:
144,100,109101,1,8,0:0:0:0:
172,114,109185,1,8,0:0:0:0:
172,114,109268,1,8,0:0:0:0:
172,114,109351,1,0,0:0:0:0:
165,102,109518,1,0,0:0:0:0:
174,100,109685,1,0,0:0:0:0:
159,102,109768,1,0,0:0:0:0:
157,102,109851,1,8,0:0:0:0:
159,102,110018,1,8,0:0:0:0:
159,102,110185,1,0,0:0:0:0:
159,102,110268,1,0,0:0:0:0:
159,102,110351,1,8,0:0:0:0:
159,102,110435,1,8,0:0:0:0:
178,103,110518,1,0,0:0:0:0:
172,97,110601,1,0,0:0:0:0:
166,107,110685,1,8,0:0:0:0:
162,103,110851,1,0,0:0:0:0:
159,102,111101,1,0,0:0:0:0:
159,102,111351,1,8,0:0:0:0:
129,115,112185,5,4,0:0:0:0:
173,120,112518,1,8,0:0:0:0:
188,102,112685,1,0,0:0:0:0:
173,120,112768,1,0,0:0:0:0:
173,120,112851,1,0,0:0:0:0:
173,120,113018,1,0,0:0:0:0:
188,102,113185,1,8,0:0:0:0:
173,120,113518,1,0,0:0:0:0:
182,103,113685,1,0,0:0:0:0:
188,102,113851,1,8,0:0:0:0:
173,120,114018,1,0,0:0:0:0:
160,102,114101,1,8,0:0:0:0:
160,102,114268,1,8,0:0:0:0:
173,120,114351,1,0,0:0:0:0:
173,120,114518,1,8,0:0:0:0:
173,120,114685,1,8,0:0:0:0:
173,120,114851,1,0,0:0:0:0:
188,102,115185,1,8,0:0:0:0:
188,102,115351,1,0,0:0:0:0:
179,110,115435,1,8,0:0:0:0:
178,109,115518,1,0,0:0:0:0:
188,102,115685,1,0,0:0:0:0:
188,102,115851,1,8,0:0:0:0:
188,102,116185,1,0,0:0:0:0:
165,104,116351,1,0,0:0:0:0:
188,102,116518,1,8,0:0:0:0:
188,102,116685,1,0,0:0:0:0:
167,104,116768,1,8,0:0:0:0:
169,102,116935,1,8,0:0:0:0:
188,102,117018,1,0,0:0:0:0:
188,102,117185,1,8,0:0:0:0:
170,102,117268,1,0,0:0:0:0:
188,102,117351,1,8,0:0:0:0:
188,102,117518,1,0,0:0:0:0:
197,96,117851,1,8,0:0:0:0:
197,96,118018,1,8,0:0:0:0:
178,92,118101,1,8,0:0:0:0:
179,90,118185,1,0,0:0:0:0:
197,95,118351,1,0,0:0:0:0:
197,95,118518,1,8,0:0:0:0:
197,96,118851,1,0,0:0:0:0:
197,90,119018,1,0,0:0:0:0:
197,95,119185,1,8,0:0:0:0:
197,95,119351,1,0,0:0:0:0:
183,89,119435,1,8,0:0:0:0:
184,89,119601,1,8,0:0:0:0:
197,96,119685,1,0,0:0:0:0:
197,96,119851,1,8,0:0:0:0:
197,95,120018,1,8,0:0:0:0:
197,95,120185,1,0,0:0:0:0:
191,75,120351,1,8,0:0:0:0:
197,96,120685,1,8,0:0:0:0:
197,96,120851,1,0,0:0:0:0:
190,78,120935,1,8,0:0:0:0:
197,95,121018,1,0,0:0:0:0:
197,95,121185,1,8,0:0:0:0:
197,95,121351,1,8,0:0:0:0:
190,85,121435,1,8,0:0:0:0:
197,96,121518,1,0,0:0:0:0:
197,96,121685,1,8,0:0:0:0:
197,95,122018,1,8,0:0:0:0:
201,88,122185,1,0,0:0:0:0:
197,95,122268,1,8,0:0:0:0:
197,95,122351,1,0,0:0:0:0:
197,96,122518,1,8,0:0:0:0:
222,81,122601,1,0,0:0:0:0:
197,96,122685,1,8,0:0:0:0:
197,95,122851,1,4,0:0:0:0:
197,95,123185,1,8,0:0:0:0:
197,95,123351,1,8,0:0:0:0:
185,91,123435,1,0,0:0:0:0:
180,91,123518,1,0,0:0:0:0:
197,96,123685,1,0,0:0:0:0:
197,95,123851,1,8,0:0:0:0:
197,95,124185,1,0,0:0:0:0:
191,96,124351,1,0,0:0:0:0:
197,96,124518,1,8,0:0:0:0:
197,96,124685,1,0,0:0:0:0:
185,86,124768,1,8,0:0:0:0:
186,91,124935,1,8,0:0:0:0:
197,95,125018,1,0,0:0:0:0:
197,95,125185,1,8,0:0:0:0:
197,96,125351,1,8,0:0:0:0:
197,96,125518,1,0,0:0:0:0:
195,107,125851,1,8,0:0:0:0:
189,106,126018,1,8,0:0:0:0:
183,83,126101,1,8,0:0:0:0:
183,83,126185,1,0,0:0:0:0:
187,106,126351,1,0,0:0:0:0:
187,106,126518,1,8,0:0:0:0:
187,106,126851,1,0,0:0:0:0:
180,88,127018,1,0,0:0:0:0:
187,106,127185,1,8,0:0:0:0:
187,106,127351,1,0,0:0:0:0:
179,88,127435,1,8,0:0:0:0:
185,86,127601,1,8,0:0:0:0:
187,106,127685,1,0,0:0:0:0:
187,106,127851,1,8,0:0:0:0:
182,95,127935,1,0,0:0:0:0:
187,106,128018,1,0,0:0:0:0:
156,125,128185,5,4,0:0:0:0:
156,125,128351,1,0,0:0:0:0:
156,125,128518,1,8,0:0:0:0:
156,125,128685,1,8,0:0:0:0:
160,121,128768,1,0,0:0:0:0:
160,121,128851,1,8,0:0:0:0:
145,102,128935,1,8,0:0:0:0:
162,117,129018,1,0,0:0:0:0:
166,114,129185,1,8,0:0:0:0:
166,114,129518,1,4,0:0:0:0:
166,114,129685,1,0,0:0:0:0:
166,114,129768,1,0,0:0:0:0:
166,114,129851,1,8,0:0:0:0:
166,114,130018,1,0,0:0:0:0:
166,114,130101,1,0,0:0:0:0:
166,114,130185,1,8,0:0:0:0:
166,114,130268,1,8,0:0:0:0:
166,114,130351,1,0,0:0:0:0:
166,114,130518,1,8,0:0:0:0:
166,114,130852,1,4,0:0:0:0:
166,114,131024,1,0,0:0:0:0:
166,114,131197,1,8,0:0:0:0:
171,112,131284,1,0,0:0:0:0:
171,112,131370,1,8,0:0:0:0:
172,112,131544,1,4,0:0:0:0:
172,112,131723,1,8,0:0:0:0:
169,96,131813,1,0,0:0:0:0:
173,97,131903,1,8,0:0:0:0:
172,98,131993,1,8,0:0:0:0:
166,90,132082,1,0,0:0:0:0:
162,86,132263,1,4,0:0:0:0:
165,85,132449,1,0,0:0:0:0:
165,85,132636,1,8,0:0:0:0:
165,85,132734,1,8,0:0:0:0:
165,85,132832,1,8,0:0:0:0:
152,88,133028,1,0,0:0:0:0:
179,84,133135,1,0,0:0:0:0:
180,90,133242,1,8,0:0:0:0:
178,89,133349,1,8,0:0:0:0:
235,111,133457,5,0,0:0:0:0:
178,88,133586,1,8,0:0:0:0:
235,111,133715,1,0,0:0:0:0:
209,97,133844,1,8,0:0:0:0:
184,116,133974,1,4,0:0:0:0:
256,192,134112,12,0,139529,0:0:0:0:
