osu file format v14

[General]
AudioFilename: audio.ogg
AudioLeadIn: 0
PreviewTime: 34773
Countdown: 0
SampleSet: Normal
StackLeniency: 0.7
Mode: 1
LetterboxInBreaks: 0
WidescreenStoryboard: 0

[Editor]
DistanceSpacing: 1.4
BeatDivisor: 4
GridSize: 4
TimelineZoom: 2.699999

[Metadata]
Title:SATELLITE
TitleUnicode:SATELLITE
Artist:NOMA
ArtistUnicode:ノマ
Creator:Miyoi
Version:NEXTAR
Source:
Tags:Midnaait Reficul Electronic Instrumental ELECAT RECORDS Nominalism DnB Drum and 'n' Bass Drum'n'Bass Drum&Bass D'n'B D&B Hardcore Drumstep
BeatmapID:3610379
BeatmapSetID:1763930

[Difficulty]
HPDrainRate:6
CircleSize:5
OverallDifficulty:6.6
ApproachRate:9
SliderMultiplier:1.4
SliderTickRate:1

[Events]
//Background and Video events
0,0,"82757552_p0.jpg",0,40
//Break Periods
//Storyboard Layer 0 (Background)
//Storyboard Layer 1 (Fail)
//Storyboard Layer 2 (Pass)
//Storyboard Layer 3 (Foreground)
//Storyboard Layer 4 (Overlay)
//Storyboard Sound Samples

[TimingPoints]
2852,333.333333333333,4,1,0,50,1,0
13463,-100,4,1,0,66,0,0
24129,-100,4,1,0,80,0,0
29680,-99.4500379304783,4,1,0,80,0,0
29846,-98.7499198727005,4,1,0,80,0,0
30013,-97.9799175575919,4,1,0,80,0,0
30180,-97.1689563978537,4,1,0,80,0,0
30346,-96.3353890383972,4,1,0,80,0,0
30513,-95.477594627874,4,1,0,80,0,0
30680,-94.6064607673652,4,1,0,80,0,0
30846,-93.7316875720044,4,1,0,80,0,0
30930,-93.2867646812572,4,1,0,80,0,0
31013,-92.8461255295565,4,1,0,80,0,0
31096,-92.4047929876311,4,1,0,80,0,0
31180,-91.9577243546216,4,1,0,80,0,0
31263,-91.5158203751312,4,1,0,80,0,0
31346,-91.0739905307751,4,1,0,80,0,0
31430,-90.6271263243464,4,1,0,80,0,0
31513,-90.1860593986328,4,1,0,80,0,0
31596,-89.7456412324779,4,1,0,80,0,0
31680,-89.3007393605563,4,1,0,80,0,0
31763,-88.8620931901077,4,1,0,80,0,0
31846,-88.424533959907,4,1,0,80,0,0
31930,-87.9829341551981,4,1,0,80,0,0
32013,-87.5479210121777,4,1,0,80,0,0
32096,-87.1143325241743,4,1,0,80,0,0
32180,-86.6770669688004,4,1,0,80,0,0
32263,-86.246622915611,4,1,0,80,0,0
32346,-85.8178650217602,4,1,0,80,0,0
32430,-85.3857327854538,4,1,0,80,0,0
32513,-84.9605827829309,4,1,0,80,0,0
32596,-84.537321318032,4,1,0,80,0,0
32680,-84.1109407181964,4,1,0,80,0,0
32763,-83.6916450041845,4,1,0,80,0,0
32846,-83.2743935383582,4,1,0,80,0,0
32902,-82.9940512371474,4,1,0,80,0,0
32958,-82.714671423262,4,1,0,80,0,0
33013,-82.4412285033922,4,1,0,80,0,0
33096,-82.0303793549205,4,1,0,80,0,0
33180,-81.6168151310546,4,1,0,80,0,0
33235,-81.3472615979687,4,1,0,80,0,0
33291,-81.0738188134781,4,1,0,80,0,0
33346,-80.8062599568219,4,1,0,80,0,0
33430,-80.3995543312014,4,1,0,80,0,0
33513,-80,4,1,0,80,0,0
34851,-80,4,1,0,100,0,1
44101,-66.6666666666667,4,1,0,100,0,1
44407,-64.5161290322581,4,1,0,100,0,1
44629,-61.5384615384615,4,1,0,100,0,1
45185,-80,4,1,0,100,0,1
50930,-79.9843213423831,4,1,0,100,0,1
51096,-79.8943847738128,4,1,0,100,0,1
51180,-79.8248099358944,4,1,0,100,0,1
51263,-79.7419284726762,4,1,0,100,0,1
51346,-79.6458591945351,4,1,0,100,0,1
51513,-79.4152912355252,4,1,0,100,0,1
51596,-79.2832725457107,4,1,0,100,0,1
51680,-79.1385227966122,4,1,0,100,0,1
51763,-78.9849072836192,4,1,0,100,0,1
51846,-78.8211513891568,4,1,0,100,0,1
51930,-78.6454651268934,4,1,0,100,0,1
52013,-78.4623740352744,4,1,0,100,0,1
52180,-78.0666803052481,4,1,0,100,0,1
52263,-77.8570576563372,4,1,0,100,0,1
52430,-77.4106685870153,4,1,0,100,0,1
52513,-77.1771280735327,4,1,0,100,0,1
52596,-76.9361852989723,4,1,0,100,0,1
52680,-76.6850659931804,4,1,0,100,0,1
52846,-76.1682956521704,4,1,0,100,0,1
52930,-75.8969161517872,4,1,0,100,0,1
53013,-75.6225644841965,4,1,0,100,0,1
53096,-75.3422794995786,4,1,0,100,0,1
53180,-75.0528087290815,4,1,0,100,0,1
53263,-74.7612693894526,4,1,0,100,0,1
53346,-74.4644679756085,4,1,0,100,0,1
53513,-73.8522098602834,4,1,0,100,0,1
53596,-73.5408397367968,4,1,0,100,0,1
53680,-73.221214098162,4,1,0,100,0,1
53763,-72.9011441586567,4,1,0,100,0,1
53846,-72.5770463760705,4,1,0,100,0,1
53930,-72.2451386604262,4,1,0,100,0,1
54013,-71.9135132614965,4,1,0,100,0,1
54096,-71.5784256852764,4,1,0,100,0,1
54180,-71.2359602892648,4,1,0,100,0,1
54235,-71.0099939759942,4,1,0,100,0,1
54291,-70.7785715498514,4,1,0,100,0,1
54346,-70.550008660668,4,1,0,100,0,1
54430,-70.198607906048,4,1,0,100,0,1
54513,-69.8487812474293,4,1,0,100,0,1
54569,-69.6113704757414,4,1,0,100,0,1
54624,-69.3771693809773,4,1,0,100,0,1
54680,-69.1377089476548,4,1,0,100,0,1
54763,-68.7810366607539,4,1,0,100,0,1
54846,-68.4223997951709,4,1,0,100,0,1
55096,-67.331770475612,4,1,0,100,0,1
55346,-66.2284781321839,4,1,0,100,0,1
55680,-64.7408515086685,4,1,0,100,0,1
55763,-64.3695610766848,4,1,0,100,0,1
55846,-63.9978554187825,4,1,0,100,0,1
55930,-63.6213578696557,4,1,0,100,0,1
56013,-63.2491374065067,4,1,0,100,0,1
56096,-62.8768141274266,4,1,0,100,0,1
56185,-62.5,4,1,0,100,0,0
56351,-100,4,1,0,50,0,0
68018,-100,4,1,0,66,0,0
77351,-100,4,1,0,80,0,0
82846,-75.187969924812,4,1,0,80,0,0
83013,-76.6237640473651,4,1,0,80,0,0
83180,-78.0891907675603,4,1,0,80,0,0
83346,-79.5747019819111,4,1,0,80,0,0
83513,-81.0974690928099,4,1,0,80,0,0
83680,-82.6476483464491,4,1,0,80,0,0
83846,-84.2144518547739,4,1,0,80,0,0
84013,-85.8151525358275,4,1,0,80,0,0
84180,-87.4383843353459,4,1,0,80,0,0
84263,-88.2527799028679,4,1,0,80,0,0
84346,-89.0717925267468,4,1,0,80,0,0
84430,-89.9049813126068,4,1,0,80,0,0
84513,-90.7320827852572,4,1,0,80,0,0
84596,-91.562528985214,4,1,0,80,0,0
84680,-92.4058685274228,4,1,0,80,0,0
84763,-93.2414624849966,4,1,0,80,0,0
84846,-94.0787289332833,4,1,0,80,0,0
84930,-94.9271092175626,4,1,0,80,0,0
85013,-95.765673540403,4,1,0,80,0,0
85096,-96.6037270464871,4,1,0,80,0,0
85180,-97.4504752302234,4,1,0,80,0,0
85263,-98.2848045059873,4,1,0,80,0,0
85346,-99.1157730137521,4,1,0,80,0,0
85430,-99.9521756735422,4,1,0,80,0,0
85513,-100.772845426928,4,1,0,80,0,0
85596,-101.58640532472,4,1,0,80,0,0
85680,-102.400992024331,4,1,0,80,0,0
85763,-103.19553203219,4,1,0,80,0,0
85846,-103.977931927074,4,1,0,80,0,0
85930,-104.75529110802,4,1,0,80,0,0
86013,-105.506761092142,4,1,0,80,0,0
86096,-106.239058812003,4,1,0,80,0,0
86180,-106.957580189401,4,1,0,80,0,0
86235,-107.41401613501,4,1,0,80,0,0
86291,-107.86594822634,4,1,0,80,0,0
86346,-108.295893610441,4,1,0,80,0,0
86430,-108.922393179492,4,1,0,80,0,0
86513,-109.499808010131,4,1,0,80,0,0
86569,-109.861829174295,4,1,0,80,0,0
86624,-110.191961859693,4,1,0,80,0,0
86680,-110.497566711884,4,1,0,80,0,0
86763,-110.877821192905,4,1,0,80,0,0
86846,-111.111111111111,4,1,0,80,0,0
88180,-86.9565217391304,4,1,0,100,0,0
88263,-89.2857142857143,4,1,0,100,0,0
88346,-91.743119266055,4,1,0,100,0,0
88430,-94.3396226415094,4,1,0,100,0,0
88513,-95.6937799043062,4,1,0,100,0,0
88831,-86.9565217391304,4,1,0,100,0,0
88914,-89.2857142857143,4,1,0,100,0,0
88997,-91.743119266055,4,1,0,100,0,0
89081,-94.3396226415094,4,1,0,100,0,0
89164,-95.6937799043062,4,1,0,100,0,0
89513,-86.9565217391304,4,1,0,100,0,0
89596,-88.0063536136308,4,1,0,100,0,0
89763,-90.1191077008876,4,1,0,100,0,0
89846,-91.1643212948516,4,1,0,100,0,0
89930,-92.2146405897987,4,1,0,100,0,0
90096,-94.2518794632592,4,1,0,100,0,0
90180,-95.2527961092427,4,1,0,100,0,0
90263,-96.2128786075451,4,1,0,100,0,0
90346,-97.1348675375588,4,1,0,100,0,0
90430,-98.0161053807579,4,1,0,100,0,0
90513,-98.8162528673984,4,1,0,100,0,0
90596,-99.5120918487344,4,1,0,100,0,0
90680,-100,4,1,0,100,0,0
90851,333.333333333333,4,1,0,100,1,8
90852,333.333333333333,4,1,0,100,1,1
90852,-80,4,1,0,100,0,1
91013,-79.9926537685613,4,1,0,100,0,1
91097,-79.9833398894835,4,1,0,100,0,1
91180,-79.9704459971659,4,1,0,100,0,1
91263,-79.9538868735559,4,1,0,100,0,1
91347,-79.9334011658316,4,1,0,100,0,1
91430,-79.9094822496508,4,1,0,100,0,1
91513,-79.8819148594854,4,1,0,100,0,1
91597,-79.8503083932226,4,1,0,100,0,1
91680,-79.8154240324897,4,1,0,100,0,1
91763,-79.776916976682,4,1,0,100,0,1
91847,-79.7342683165884,4,1,0,100,0,1
91930,-79.6885051156307,4,1,0,100,0,1
92013,-79.6391538603824,4,1,0,100,0,1
92097,-79.5855685790695,4,1,0,100,0,1
92180,-79.5290396317011,4,1,0,100,0,1
92263,-79.468965919353,4,1,0,100,0,1
92347,-79.4045759472594,4,1,0,100,0,1
92430,-79.3374201420714,4,1,0,100,0,1
92513,-79.2667712452146,4,1,0,100,0,1
92597,-79.1917340645776,4,1,0,100,0,1
92680,-79.114115238967,4,1,0,100,0,1
92763,-79.033063066285,4,1,0,100,0,1
92847,-78.9475607582806,4,1,0,100,0,1
92930,-78.8596667107484,4,1,0,100,0,1
93013,-78.7684067746228,4,1,0,100,0,1
93097,-78.6726449303183,4,1,0,100,0,1
93180,-78.5746863020168,4,1,0,100,0,1
93263,-78.4734365593133,4,1,0,100,0,1
93347,-78.3676430664077,4,1,0,100,0,1
93430,-78.2598521041661,4,1,0,100,0,1
93513,-78.148851682801,4,1,0,100,0,1
93597,-78.0332754012583,4,1,0,100,0,1
93680,-77.9159046153585,4,1,0,100,0,1
93763,-77.7954124402126,4,1,0,100,0,1
93847,-77.6703217807949,4,1,0,100,0,1
93930,-77.5436425115853,4,1,0,100,0,1
94013,-77.4139358440742,4,1,0,100,0,1
94097,-77.2796172644549,4,1,0,100,0,1
94180,-77.1439181724766,4,1,0,100,0,1
94263,-77.0052910785964,4,1,0,100,0,1
94347,-76.8620475121686,4,1,0,100,0,1
94430,-76.7176330068253,4,1,0,100,0,1
94513,-76.5703947687693,4,1,0,100,0,1
94597,-76.4185440014728,4,1,0,100,0,1
94680,-76.2657326233982,4,1,0,100,0,1
94763,-76.1102061098936,4,1,0,100,0,1
94847,-75.9500791203572,4,1,0,100,0,1
94930,-75.7892018925428,4,1,0,100,0,1
95013,-75.6257219028903,4,1,0,100,0,1
95097,-75.4576611809524,4,1,0,100,0,1
95180,-75.2890599433938,4,1,0,100,0,1
95263,-75.1179715398268,4,1,0,100,0,1
95347,-74.9423293980583,4,1,0,100,0,1
95430,-74.7663551401869,4,1,0,100,0,1
95513,-74.5880119826111,4,1,0,100,0,1
95597,-74.4051488748482,4,1,0,100,0,1
95680,-74.2221600793475,4,1,0,100,0,1
95763,-74.0369227758086,4,1,0,100,0,1
95847,-73.8472056359245,4,1,0,100,0,1
95930,-73.6575666467153,4,1,0,100,0,1
96013,-73.4658011320761,4,1,0,100,0,1
96097,-73.2696017453076,4,1,0,100,0,1
96180,-73.0736811715445,4,1,0,100,0,1
96263,-72.8757571258778,4,1,0,100,0,1
96347,-72.6734505439963,4,1,0,100,0,1
96430,-72.4716197108705,4,1,0,100,0,1
96513,-72.2679090279982,4,1,0,100,0,1
96597,-72.0598720385017,4,1,0,100,0,1
96680,-71.8525034945249,4,1,0,100,0,1
96763,-71.6433788099906,4,1,0,100,0,1
96847,-71.4299884683183,4,1,0,100,0,1
96930,-71.2174545575833,4,1,0,100,0,1
97013,-71.003287844158,4,1,0,100,0,1
97097,-70.7849200767166,4,1,0,100,0,1
97180,-70.5675915834268,4,1,0,100,0,1
97263,-70.3487528210341,4,1,0,100,0,1
97347,-70.1257811055945,4,1,0,100,0,1
97430,-69.9040259769379,4,1,0,100,0,1
97513,-69.6808819026753,4,1,0,100,0,1
97597,-69.4536760314772,4,1,0,100,0,1
97680,-69.2278581837204,4,1,0,100,0,1
97763,-69.000771126457,4,1,0,100,0,1
97847,-68.769696056162,4,1,0,100,0,1
97930,-68.540174267667,4,1,0,100,0,1
98013,-68.3095010705434,4,1,0,100,0,1
98096,-68.0777150913014,4,1,0,100,0,1
98180,-67.8420427557621,4,1,0,100,0,1
98263,-67.6081337888091,4,1,0,100,0,1
98346,-67.3732267746591,4,1,0,100,0,1
98430,-67.134511755736,4,1,0,100,0,1
98513,-66.8977100197884,4,1,0,100,0,1
98596,-66.6600223425953,4,1,0,100,0,1
98680,-66.4186063491199,4,1,0,100,0,1
98763,-66.1792466712327,4,1,0,100,0,1
98846,-65.9391102820993,4,1,0,100,0,1
98930,-65.695326259416,4,1,0,100,0,1
99013,-65.453734579104,4,1,0,100,0,1
99096,-65.2114723244737,4,1,0,100,0,1
99180,-64.9656437925126,4,1,0,100,0,1
99263,-64.7221365373347,4,1,0,100,0,1
99346,-64.4780615637868,4,1,0,100,0,1
99430,-64.230502044158,4,1,0,100,0,1
99513,-63.9853855924597,4,1,0,100,0,1
99596,-63.7398008377961,4,1,0,100,0,1
99680,-63.4908133672656,4,1,0,100,0,1
99763,-63.2443835952747,4,1,0,100,0,1
99846,-62.9975813629084,4,1,0,100,0,1
99930,-62.7474580900531,4,1,0,100,0,1
100013,-62.5,4,1,0,100,0,1
100164,-57.1428571428571,4,1,0,100,0,1
100956,-80,4,1,0,100,0,1
106930,-79.9616516552374,4,1,0,100,0,1
107096,-79.7809107780382,4,1,0,100,0,1
107180,-79.6522952281085,4,1,0,100,0,1
107263,-79.5049717487074,4,1,0,100,0,1
107346,-79.3395201302362,4,1,0,100,0,1
107513,-78.9576500310998,4,1,0,100,0,1
107596,-78.7458664197753,4,1,0,100,0,1
107680,-78.5179842068356,4,1,0,100,0,1
107763,-78.2802661489895,4,1,0,100,0,1
107846,-78.0308254668003,4,1,0,100,0,1
107930,-77.7671425262246,4,1,0,100,0,1
108013,-77.496132136131,4,1,0,100,0,1
108180,-76.9216640963912,4,1,0,100,0,1
108263,-76.622718016493,4,1,0,100,0,1
108430,-75.9966746870937,4,1,0,100,0,1
108513,-75.6742341903948,4,1,0,100,0,1
108596,-75.3448623134596,4,1,0,100,0,1
108680,-75.004874240888,4,1,0,100,0,1
108846,-74.3148538904757,4,1,0,100,0,1
108930,-73.9572438282671,4,1,0,100,0,1
109013,-73.5987782465819,4,1,0,100,0,1
109096,-73.2355572043316,4,1,0,100,0,1
109180,-72.8634381781108,4,1,0,100,0,1
109263,-72.4915853627254,4,1,0,100,0,1
109346,-72.1158848316966,4,1,0,100,0,1
109513,-71.3494190287073,4,1,0,100,0,1
109596,-70.9637751209697,4,1,0,100,0,1
109680,-70.5706476232456,4,1,0,100,0,1
109763,-70.179639537682,4,1,0,100,0,1
109846,-69.7863186185665,4,1,0,100,0,1
109930,-69.3861320828649,4,1,0,100,0,1
110013,-68.9888251311176,4,1,0,100,0,1
110096,-68.5898525636451,4,1,0,100,0,1
110180,-68.1845807471216,4,1,0,100,0,1
110235,-67.9185059745269,4,1,0,100,0,1
110291,-67.6470752529379,4,1,0,100,0,1
110346,-67.3800359287315,4,1,0,100,0,1
110430,-66.9714392305307,4,1,0,100,0,1
110513,-66.566963057886,4,1,0,100,0,1
110569,-66.2937289620754,4,1,0,100,0,1
110624,-66.0251665578268,4,1,0,100,0,1
110680,-65.7515565954961,4,1,0,100,0,1
110763,-65.3458196098917,4,1,0,100,0,1
110846,-64.9399631852488,4,1,0,100,0,1
111096,-63.7181587805663,4,1,0,100,0,1
111346,-62.5,4,1,0,100,0,1
112185,-100,4,1,0,80,0,0
128346,-99.53289307342,4,1,0,80,0,0
128513,-98.9295190283763,4,1,0,80,0,0
128596,-98.6064033646382,4,1,0,80,0,0
128680,-98.2682029585867,4,1,0,80,0,0
128763,-97.925010672568,4,1,0,80,0,0
128846,-97.5743686396554,4,1,0,80,0,0
128914,-97.1543686396554,4,1,0,80,0,0
129013,-96.8508214526166,4,1,0,80,0,0
129180,-96.1088036552791,4,1,0,80,0,0
129263,-95.7347571659119,4,1,0,80,0,0
129346,-95.3578957079593,4,1,0,80,0,0
129513,-94.592778790131,4,1,0,80,0,0
129680,-93.8208485285438,4,1,0,80,0,0
129763,-93.4353964323672,4,1,0,80,0,0
129846,-93.04908351626,4,1,0,80,0,0
130013,-92.2700663709316,4,1,0,80,0,0
130096,-91.8824126583204,4,1,0,80,0,0
130180,-91.4899993486388,4,1,0,80,0,0
130263,-91.1023246246361,4,1,0,80,0,0
130346,-90.714858155963,4,1,0,80,0,0
130513,-89.9364043005417,4,1,0,80,0,0
130596,-89.550310502285,4,1,0,80,0,0
130680,-89.160250091063,4,1,0,80,0,0
130851,345.821325648415,4,1,0,80,1,8
130852,345.821325648415,4,1,0,80,1,0
130852,-85.1954394868715,4,1,0,80,0,0
131019,-84.4318232643405,4,1,0,80,0,0
131192,-83.6683085700492,4,1,0,80,0,0
131279,-83.2862395258837,4,1,0,80,0,0
131365,-82.9098900142021,4,1,0,80,0,0
131452,-82.5305639316485,4,1,0,80,0,0
131544,359.281437125749,4,1,0,80,1,8
131544,-79.0749310351069,4,1,0,80,0,8
131628,-78.7043629090028,4,1,0,80,0,8
131718,-78.3312233658263,4,1,0,80,0,8
131808,-77.9597287472875,4,1,0,80,0,8
131898,-77.5899194452207,4,1,0,80,0,8
131988,-77.2218325502423,4,1,0,80,0,8
132077,-76.8595626450817,4,1,0,80,0,8
132263,372.670807453416,4,1,0,80,1,0
132263,-73.3930861292629,4,1,0,80,0,0
132351,-73.0336005701392,4,1,0,80,0,0
132444,-72.6760361049236,4,1,0,80,0,0
132537,-72.3204153304736,4,1,0,80,0,0
132636,392.156862745098,4,1,0,80,1,8
132636,-68.259385665529,4,1,0,80,0,0
132729,-68.0350743095981,4,1,0,80,0,8
132827,-67.6850914850011,4,1,0,80,0,8
132925,-67.3372342651347,4,1,0,80,0,8
133028,428.571428571429,4,1,0,80,1,8
133028,-61.2994267518825,4,1,0,80,0,8
133076,-61.1291627054073,4,1,0,80,0,8
133130,-60.9562798330652,4,1,0,80,0,8
133183,-60.7871825999587,4,1,0,80,0,8
133237,-60.6154912731106,4,1,0,80,0,8
133290,-60.4475659251435,4,1,0,80,0,8
133344,-60.2770707869016,4,1,0,80,0,8
133398,-60.1071807777783,4,1,0,80,0,8
133457,517.241379310345,4,1,0,80,1,8
133457,-49.6628286986226,4,1,0,80,0,8
133516,-49.4972408610971,4,1,0,80,0,8
133581,-49.3297891808585,4,1,0,80,0,8
133645,-49.1656266316844,4,1,0,80,0,8
133710,-48.9996235853078,4,1,0,80,0,8
133775,-48.8343509827245,4,1,0,80,0,8
133839,-48.6723348286693,4,1,0,80,0,8
133974,555.555555555556,4,1,0,80,1,0
133974,-45.0112528132032,4,1,0,80,0,0
134066,-30.03003003003,4,1,0,20,0,0
136057,-45.045045045045,4,1,0,20,0,0
138325,-66.6666666666667,4,1,0,20,0,0

[HitObjects]
126,143,2852,5,4,0:0:0:0:
139,133,3185,1,8,0:0:0:0:
139,133,3685,1,0,0:0:0:0:
139,133,4018,1,8,0:0:0:0:
139,133,4351,1,8,0:0:0:0:
139,133,4685,1,8,0:0:0:0:
139,133,4851,1,0,0:0:0:0:
139,133,5018,1,0,0:0:0:0:
139,133,5185,1,8,0:0:0:0:
139,133,5351,1,8,0:0:0:0:
139,133,5518,1,0,0:0:0:0:
139,133,5851,1,8,0:0:0:0:
139,133,6185,1,0,0:0:0:0:
139,133,6351,1,0,0:0:0:0:
139,133,6685,1,8,0:0:0:0:
139,133,7018,1,8,0:0:0:0:
139,133,7351,1,8,0:0:0:0:
139,133,7685,1,0,0:0:0:0:
139,133,7851,1,8,0:0:0:0:
139,133,8018,1,8,0:0:0:0:
139,133,8185,1,0,0:0:0:0:
139,133,8518,1,8,0:0:0:0:
139,133,9018,1,0,0:0:0:0:
139,133,9351,1,8,0:0:0:0:
139,133,9685,1,8,0:0:0:0:
139,133,10018,1,8,0:0:0:0:
139,133,10185,1,0,0:0:0:0:
139,133,10351,1,0,0:0:0:0:
139,133,10518,1,8,0:0:0:0:
139,133,10685,1,8,0:0:0:0:
139,133,10851,1,0,0:0:0:0:
139,133,11185,1,0,0:0:0:0:
139,133,11518,1,8,0:0:0:0:
139,133,11685,1,8,0:0:0:0:
139,133,12018,1,0,0:0:0:0:
139,133,12351,1,0,0:0:0:0:
139,133,12685,1,8,0:0:0:0:
139,133,13018,1,8,0:0:0:0:
139,133,13185,1,8,0:0:0:0:
139,133,13351,1,8,0:0:0:0:
139,133,13518,1,4,0:0:0:0:
144,126,13851,1,0,0:0:0:0:
153,134,14185,1,8,0:0:0:0:
151,129,14351,1,0,0:0:0:0:
153,134,14685,1,0,0:0:0:0:
153,134,14851,1,0,0:0:0:0:
145,129,15018,1,0,0:0:0:0:
145,124,15351,1,0,0:0:0:0:
153,134,15518,1,8,0:0:0:0:
145,124,15685,1,0,0:0:0:0:
145,124,15851,1,8,0:0:0:0:
153,134,15935,1,0,0:0:0:0:
145,129,16018,1,8,0:0:0:0:
153,134,16185,1,0,0:0:0:0:
156,106,16518,1,0,0:0:0:0:
148,143,16851,1,8,0:0:0:0:
140,118,17018,1,8,0:0:0:0:
155,141,17351,1,0,0:0:0:0:
154,140,17435,1,0,0:0:0:0:
148,143,17518,1,0,0:0:0:0:
138,121,17685,1,0,0:0:0:0:
159,121,18018,1,0,0:0:0:0:
157,134,18185,1,8,0:0:0:0:
159,121,18351,1,8,0:0:0:0:
159,121,18518,1,0,0:0:0:0:
157,121,18601,1,0,0:0:0:0:
157,121,18685,1,8,0:0:0:0:
157,134,18851,1,0,0:0:0:0:
157,134,19185,1,0,0:0:0:0:
157,134,19518,1,8,0:0:0:0:
151,130,19685,1,0,0:0:0:0:
157,134,20018,1,0,0:0:0:0:
157,134,20185,1,0,0:0:0:0:
151,130,20351,1,0,0:0:0:0:
151,130,20685,1,0,0:0:0:0:
157,134,20851,1,8,0:0:0:0:
151,130,21018,1,0,0:0:0:0:
149,130,21185,1,8,0:0:0:0:
157,134,21268,1,0,0:0:0:0:
151,130,21351,1,8,0:0:0:0:
157,134,21518,1,0,0:0:0:0:
215,107,21851,1,8,0:0:0:0:
157,134,22185,1,8,0:0:0:0:
151,130,22351,1,0,0:0:0:0:
157,134,22685,1,0,0:0:0:0:
157,134,22768,1,0,0:0:0:0:
157,134,22851,1,0,0:0:0:0:
150,126,23018,1,8,0:0:0:0:
151,130,23351,1,0,0:0:0:0:
157,134,23518,1,8,0:0:0:0:
150,126,23685,1,0,0:0:0:0:
150,126,23768,1,0,0:0:0:0:
150,126,23851,1,8,0:0:0:0:
150,126,23935,1,8,0:0:0:0:
150,126,24018,1,8,0:0:0:0:
151,130,24185,1,4,0:0:0:0:
167,134,24351,1,0,0:0:0:0:
167,134,24518,1,8,0:0:0:0:
167,134,24685,1,0,0:0:0:0:
167,134,24851,1,8,0:0:0:0:
167,134,25018,1,8,0:0:0:0:
167,134,25185,1,0,0:0:0:0:
167,134,25351,1,8,0:0:0:0:
159,123,25518,1,0,0:0:0:0:
159,123,25601,1,8,0:0:0:0:
159,123,25685,1,0,0:0:0:0:
159,123,25768,1,0,0:0:0:0:
159,123,25851,1,8,0:0:0:0:
159,123,26018,1,8,0:0:0:0:
203,118,26185,1,0,0:0:0:0:
195,128,26240,1,0,0:0:0:0:
190,125,26296,1,0,0:0:0:0:
188,118,26351,1,8,0:0:0:0:
143,117,26518,1,8,0:0:0:0:
203,118,26601,1,0,0:0:0:0:
184,117,26685,1,8,0:0:0:0:
185,123,26740,1,8,0:0:0:0:
184,117,26796,1,8,0:0:0:0:
184,117,26851,1,0,0:0:0:0:
205,147,27018,1,0,0:0:0:0:
188,147,27185,1,8,0:0:0:0:
188,146,27351,1,0,0:0:0:0:
188,146,27518,1,8,0:0:0:0:
188,146,27685,1,8,0:0:0:0:
188,146,27851,1,0,0:0:0:0:
188,146,28018,1,8,0:0:0:0:
182,94,28185,1,0,0:0:0:0:
189,118,28240,1,0,0:0:0:0:
189,113,28296,1,0,0:0:0:0:
154,98,28351,1,8,0:0:0:0:
183,103,28518,1,0,0:0:0:0:
194,96,28601,1,8,0:0:0:0:
173,102,28685,1,0,0:0:0:0:
283,93,28740,1,0,0:0:0:0:
169,103,28796,1,0,0:0:0:0:
167,107,28851,1,8,0:0:0:0:
174,108,28935,1,0,0:0:0:0:
174,108,29018,1,8,0:0:0:0:
175,108,29101,1,8,0:0:0:0:
175,108,29185,1,0,0:0:0:0:
245,102,29351,1,8,0:0:0:0:
203,111,29407,1,8,0:0:0:0:
213,106,29463,1,8,0:0:0:0:
213,106,29518,1,0,0:0:0:0:
213,106,29685,1,8,0:0:0:0:
213,106,29851,1,0,0:0:0:0:
213,106,30018,1,8,0:0:0:0:
213,106,30185,1,0,0:0:0:0:
213,106,30351,1,8,0:0:0:0:
213,106,30518,1,0,0:0:0:0:
213,106,30685,1,8,0:0:0:0:
213,106,30851,1,0,0:0:0:0:
213,106,30935,1,0,0:0:0:0:
213,106,31018,1,8,0:0:0:0:
213,106,31101,1,8,0:0:0:0:
213,106,31185,1,0,0:0:0:0:
213,106,31268,1,0,0:0:0:0:
213,106,31351,1,8,0:0:0:0:
213,106,31435,1,8,0:0:0:0:
213,106,31518,1,0,0:0:0:0:
213,106,31601,1,0,0:0:0:0:
213,106,31685,1,8,0:0:0:0:
213,106,31768,1,8,0:0:0:0:
213,106,31851,1,0,0:0:0:0:
213,106,31935,1,0,0:0:0:0:
213,106,32018,1,8,0:0:0:0:
213,106,32101,1,8,0:0:0:0:
234,121,32185,1,0,0:0:0:0:
234,121,32268,1,0,0:0:0:0:
234,121,32351,1,0,0:0:0:0:
234,121,32435,1,0,0:0:0:0:
234,121,32518,1,8,0:0:0:0:
234,121,32601,1,8,0:0:0:0:
234,121,32685,1,8,0:0:0:0:
234,121,32768,1,8,0:0:0:0:
234,121,32851,1,0,0:0:0:0:
223,96,32907,1,0,0:0:0:0:
234,121,32963,1,0,0:0:0:0:
234,121,33018,1,8,0:0:0:0:
234,121,33101,1,8,0:0:0:0:
234,121,33185,1,0,0:0:0:0:
264,134,33240,1,0,0:0:0:0:
234,121,33296,1,0,0:0:0:0:
234,121,33351,1,8,0:0:0:0:
234,121,33435,1,8,0:0:0:0:
219,115,33518,1,0,0:0:0:0:
179,118,34851,5,0,0:0:0:0:
182,126,34935,1,8,0:0:0:0:
182,126,35101,1,8,0:0:0:0:
183,126,35185,1,0,0:0:0:0:
183,126,35351,1,8,0:0:0:0:
183,126,35518,1,0,0:0:0:0:
191,132,35601,1,8,0:0:0:0:
184,127,35685,1,8,0:0:0:0:
190,129,35768,1,8,0:0:0:0:
191,129,35851,1,0,0:0:0:0:
191,129,35935,1,0,0:0:0:0:
187,135,36018,1,8,0:0:0:0:
191,131,36185,1,0,0:0:0:0:
195,131,36268,1,8,0:0:0:0:
195,131,36435,1,8,0:0:0:0:
195,131,36518,1,0,0:0:0:0:
195,131,36685,1,8,0:0:0:0:
145,129,36740,1,8,0:0:0:0:
188,120,36796,1,8,0:0:0:0:
195,131,36851,1,0,0:0:0:0:
185,121,37018,1,8,0:0:0:0:
190,121,37185,1,0,0:0:0:0:
190,121,37268,1,8,0:0:0:0:
190,121,37351,1,8,0:0:0:0:
183,118,37518,1,0,0:0:0:0:
183,118,37601,1,8,0:0:0:0:
183,118,37768,1,8,0:0:0:0:
183,118,37851,1,0,0:0:0:0:
185,121,38018,1,8,0:0:0:0:
171,97,38101,1,8,0:0:0:0:
183,117,38185,1,0,0:0:0:0:
183,117,38268,1,8,0:0:0:0:
183,117,38351,1,0,0:0:0:0:
183,118,38435,1,0,0:0:0:0:
183,118,38518,1,8,0:0:0:0:
209,108,38601,1,0,0:0:0:0:
183,118,38685,1,8,0:0:0:0:
177,114,38851,1,0,0:0:0:0:
177,114,38935,1,8,0:0:0:0:
177,114,39101,1,8,0:0:0:0:
177,114,39185,1,0,0:0:0:0:
178,114,39351,1,8,0:0:0:0:
178,114,39518,1,0,0:0:0:0:
178,114,39601,1,0,0:0:0:0:
178,114,39685,1,8,0:0:0:0:
177,114,39768,1,8,0:0:0:0:
177,114,39935,1,8,0:0:0:0:
183,115,40018,1,0,0:0:0:0:
164,119,40185,1,0,0:0:0:0:
164,119,40268,1,8,0:0:0:0:
164,119,40435,1,8,0:0:0:0:
164,119,40518,1,0,0:0:0:0:
164,119,40685,1,8,0:0:0:0:
164,119,40851,1,0,0:0:0:0:
164,119,40935,1,8,0:0:0:0:
165,119,41018,1,8,0:0:0:0:
164,119,41101,1,8,0:0:0:0:
164,119,41185,1,0,0:0:0:0:
164,119,41268,1,0,0:0:0:0:
164,119,41351,1,8,0:0:0:0:
164,119,41518,1,0,0:0:0:0:
164,119,41601,1,8,0:0:0:0:
164,119,41768,1,8,0:0:0:0:
164,119,41851,1,0,0:0:0:0:
165,119,42018,1,8,0:0:0:0:
138,99,42074,1,8,0:0:0:0:
117,102,42129,1,8,0:0:0:0:
164,119,42185,1,0,0:0:0:0:
172,114,42351,1,8,0:0:0:0:
172,114,42518,1,0,0:0:0:0:
172,114,42601,1,8,0:0:0:0:
172,114,42685,1,8,0:0:0:0:
165,102,42851,1,0,0:0:0:0:
163,102,42935,1,8,0:0:0:0:
159,102,43101,1,8,0:0:0:0:
157,102,43185,1,0,0:0:0:0:
159,102,43351,1,8,0:0:0:0:
163,84,43435,1,8,0:0:0:0:
159,102,43518,1,0,0:0:0:0:
159,102,43601,1,8,0:0:0:0:
159,102,43685,1,0,0:0:0:0:
159,102,43768,1,0,0:0:0:0:
159,102,43851,1,8,0:0:0:0:
155,78,43935,1,8,0:0:0:0:
166,107,44018,1,0,0:0:0:0:
162,103,44185,1,12,0:0:0:0:
159,102,44435,1,12,0:0:0:0:
159,102,44685,1,4,0:0:0:0:
179,118,45518,5,0,0:0:0:0:
182,126,45601,1,8,0:0:0:0:
182,126,45768,1,8,0:0:0:0:
183,126,45851,1,0,0:0:0:0:
183,126,46018,1,8,0:0:0:0:
183,126,46185,1,0,0:0:0:0:
191,132,46268,1,0,0:0:0:0:
184,127,46351,1,0,0:0:0:0:
190,129,46435,1,0,0:0:0:0:
191,129,46518,1,8,0:0:0:0:
191,129,46601,1,0,0:0:0:0:
187,135,46685,1,8,0:0:0:0:
191,131,46851,1,0,0:0:0:0:
195,131,46935,1,8,0:0:0:0:
195,131,47101,1,8,0:0:0:0:
195,131,47185,1,0,0:0:0:0:
195,131,47351,1,8,0:0:0:0:
188,120,47435,1,0,0:0:0:0:
195,131,47518,1,0,0:0:0:0:
176,121,47601,1,8,0:0:0:0:
185,121,47685,1,8,0:0:0:0:
176,120,47768,1,0,0:0:0:0:
190,121,47851,1,8,0:0:0:0:
190,121,47935,1,8,0:0:0:0:
190,121,48018,1,0,0:0:0:0:
183,118,48185,1,0,0:0:0:0:
183,118,48268,1,8,0:0:0:0:
183,118,48435,1,8,0:0:0:0:
183,118,48518,1,0,0:0:0:0:
185,121,48685,1,8,0:0:0:0:
183,117,48851,1,0,0:0:0:0:
183,117,48935,1,0,0:0:0:0:
183,117,49018,1,0,0:0:0:0:
183,118,49101,1,0,0:0:0:0:
183,118,49185,1,8,0:0:0:0:
171,97,49268,1,8,0:0:0:0:
183,118,49351,1,8,0:0:0:0:
177,114,49518,1,0,0:0:0:0:
177,114,49601,1,8,0:0:0:0:
177,114,49768,1,8,0:0:0:0:
177,114,49851,1,0,0:0:0:0:
178,114,50018,1,8,0:0:0:0:
178,114,50185,1,0,0:0:0:0:
178,114,50268,1,0,0:0:0:0:
178,114,50351,1,8,0:0:0:0:
177,114,50435,1,8,0:0:0:0:
177,114,50518,1,0,0:0:0:0:
183,115,50685,1,12,0:0:0:0:
164,119,50851,1,0,0:0:0:0:
164,119,50935,1,8,0:0:0:0:
164,119,51101,1,8,0:0:0:0:
164,119,51185,1,0,0:0:0:0:
220,98,51268,1,0,0:0:0:0:
164,119,51351,1,8,0:0:0:0:
164,119,51518,1,0,0:0:0:0:
164,119,51601,1,0,0:0:0:0:
165,119,51685,1,8,0:0:0:0:
164,119,51768,1,8,0:0:0:0:
164,119,51851,1,0,0:0:0:0:
164,119,51935,1,8,0:0:0:0:
164,119,52018,1,8,0:0:0:0:
164,119,52185,1,0,0:0:0:0:
164,119,52268,1,8,0:0:0:0:
164,119,52435,1,8,0:0:0:0:
164,119,52518,1,0,0:0:0:0:
144,100,52601,1,0,0:0:0:0:
165,119,52685,1,8,0:0:0:0:
164,119,52851,1,0,0:0:0:0:
117,102,52935,1,8,0:0:0:0:
172,114,53018,1,8,0:0:0:0:
144,100,53101,1,0,0:0:0:0:
172,114,53185,1,8,0:0:0:0:
172,114,53268,1,8,0:0:0:0:
172,114,53351,1,0,0:0:0:0:
165,102,53518,1,0,0:0:0:0:
163,102,53601,1,8,0:0:0:0:
174,100,53685,1,0,0:0:0:0:
159,102,53768,1,0,0:0:0:0:
157,102,53851,1,8,0:0:0:0:
171,102,53935,1,0,0:0:0:0:
159,102,54018,1,8,0:0:0:0:
163,84,54101,1,8,0:0:0:0:
159,102,54185,1,0,0:0:0:0:
138,101,54240,1,0,0:0:0:0:
159,102,54296,1,0,0:0:0:0:
159,102,54351,1,8,0:0:0:0:
159,102,54435,1,0,0:0:0:0:
159,102,54518,1,8,0:0:0:0:
178,103,54574,1,0,0:0:0:0:
172,97,54629,1,0,0:0:0:0:
166,107,54685,1,8,0:0:0:0:
168,94,54768,1,8,0:0:0:0:
162,103,54851,1,0,0:0:0:0:
159,102,55101,1,0,0:0:0:0:
159,102,55351,1,8,0:0:0:0:
155,110,55685,1,0,0:0:0:0:
155,110,55768,1,0,0:0:0:0:
134,112,55851,1,8,0:0:0:0:
134,112,55935,1,8,0:0:0:0:
136,112,56018,1,8,0:0:0:0:
156,110,56101,1,8,0:0:0:0:
129,115,56185,1,4,0:0:0:0:
131,200,57518,1,8,0:0:0:0:
131,200,58018,1,0,0:0:0:0:
131,200,58518,1,8,0:0:0:0:
131,200,59185,1,8,0:0:0:0:
145,183,61185,1,0,0:0:0:0:
145,183,61268,1,0,0:0:0:0:
145,183,61351,1,8,0:0:0:0:
145,183,61435,1,8,0:0:0:0:
172,174,61851,1,0,0:0:0:0:
149,174,63518,1,8,0:0:0:0:
149,174,63601,1,8,0:0:0:0:
149,174,63851,1,0,0:0:0:0:
149,174,64185,1,0,0:0:0:0:
149,174,64685,1,8,0:0:0:0:
149,174,65185,1,0,0:0:0:0:
149,174,65685,1,8,0:0:0:0:
149,174,65768,1,8,0:0:0:0:
149,174,66018,1,8,0:0:0:0:
149,174,66185,1,0,0:0:0:0:
149,174,66351,1,0,0:0:0:0:
149,174,66518,1,8,0:0:0:0:
149,174,66685,1,8,0:0:0:0:
153,171,68185,1,0,0:0:0:0:
165,167,68685,1,0,0:0:0:0:
165,167,69185,1,8,0:0:0:0:
165,167,69851,1,8,0:0:0:0:
161,166,71518,1,8,0:0:0:0:
161,166,71601,1,8,0:0:0:0:
161,166,71851,1,8,0:0:0:0:
161,166,72185,1,0,0:0:0:0:
161,166,72685,1,0,0:0:0:0:
161,166,73185,1,8,0:0:0:0:
161,166,73518,1,0,0:0:0:0:
161,166,74185,1,8,0:0:0:0:
161,166,74851,1,0,0:0:0:0:
161,166,75351,1,8,0:0:0:0:
161,166,75851,1,8,0:0:0:0:
161,166,76185,1,0,0:0:0:0:
161,166,76851,1,8,0:0:0:0:
161,166,77518,1,4,0:0:0:0:
195,154,77685,1,0,0:0:0:0:
195,154,77851,1,8,0:0:0:0:
195,154,78018,1,0,0:0:0:0:
195,154,78185,1,8,0:0:0:0:
195,154,78351,1,8,0:0:0:0:
195,154,78518,1,0,0:0:0:0:
195,154,78685,1,0,0:0:0:0:
195,154,78851,1,8,0:0:0:0:
195,154,79018,1,0,0:0:0:0:
195,154,79185,1,8,0:0:0:0:
195,154,79351,1,8,0:0:0:0:
195,154,79518,1,0,0:0:0:0:
195,154,79685,1,0,0:0:0:0:
195,154,79851,1,8,0:0:0:0:
188,135,80018,1,8,0:0:0:0:
188,134,80074,1,8,0:0:0:0:
190,124,80129,1,8,0:0:0:0:
195,154,80185,1,0,0:0:0:0:
195,154,80351,1,0,0:0:0:0:
195,154,80518,1,8,0:0:0:0:
195,154,80685,1,0,0:0:0:0:
195,154,80851,1,8,0:0:0:0:
195,154,81018,1,8,0:0:0:0:
195,154,81185,1,0,0:0:0:0:
195,154,81351,1,0,0:0:0:0:
195,154,81518,1,8,0:0:0:0:
195,154,81685,1,0,0:0:0:0:
195,154,81851,1,8,0:0:0:0:
195,154,82018,1,8,0:0:0:0:
195,154,82185,1,0,0:0:0:0:
195,154,82351,1,0,0:0:0:0:
195,154,82518,1,8,0:0:0:0:
180,149,82851,1,8,0:0:0:0:
180,149,83018,1,0,0:0:0:0:
180,149,83185,1,8,0:0:0:0:
180,149,83351,1,0,0:0:0:0:
180,149,83518,1,8,0:0:0:0:
180,149,83685,1,0,0:0:0:0:
180,149,83851,1,8,0:0:0:0:
180,149,84018,1,0,0:0:0:0:
180,149,84185,1,8,0:0:0:0:
180,149,84268,1,8,0:0:0:0:
180,149,84351,1,0,0:0:0:0:
180,149,84435,1,0,0:0:0:0:
180,149,84518,1,8,0:0:0:0:
180,149,84601,1,8,0:0:0:0:
172,132,84685,1,0,0:0:0:0:
180,149,84768,1,0,0:0:0:0:
180,149,84851,1,8,0:0:0:0:
180,149,84935,1,8,0:0:0:0:
180,149,85018,1,0,0:0:0:0:
180,149,85101,1,0,0:0:0:0:
180,149,85185,1,8,0:0:0:0:
180,149,85268,1,8,0:0:0:0:
180,149,85351,1,0,0:0:0:0:
180,149,85435,1,0,0:0:0:0:
180,149,85518,1,8,0:0:0:0:
180,149,85601,1,8,0:0:0:0:
180,149,85685,1,8,0:0:0:0:
180,149,85768,1,8,0:0:0:0:
165,134,85851,1,0,0:0:0:0:
180,149,85935,1,0,0:0:0:0:
168,143,86018,1,0,0:0:0:0:
180,149,86101,1,0,0:0:0:0:
180,149,86185,1,8,0:0:0:0:
122,167,86240,1,8,0:0:0:0:
180,149,86296,1,8,0:0:0:0:
180,149,86351,1,0,0:0:0:0:
180,149,86435,1,0,0:0:0:0:
180,149,86518,1,8,0:0:0:0:
143,157,86574,1,8,0:0:0:0:
180,149,86629,1,8,0:0:0:0:
180,149,86685,1,0,0:0:0:0:
180,149,86768,1,0,0:0:0:0:
180,149,86851,1,8,0:0:0:0:
268,163,88185,5,0,0:0:0:0:
253,166,88268,1,8,0:0:0:0:
268,163,88351,1,0,0:0:0:0:
257,166,88435,1,0,0:0:0:0:
268,163,88518,1,8,0:0:0:0:
256,165,88851,1,0,0:0:0:0:
244,174,88935,1,8,0:0:0:0:
256,165,89018,1,0,0:0:0:0:
256,165,89101,1,0,0:0:0:0:
256,165,89185,1,8,0:0:0:0:
244,174,89518,1,0,0:0:0:0:
244,174,89601,1,8,0:0:0:0:
244,174,89768,1,8,0:0:0:0:
244,174,89851,1,0,0:0:0:0:
244,174,89935,1,8,0:0:0:0:
246,180,90101,1,8,0:0:0:0:
242,177,90185,1,0,0:0:0:0:
244,174,90268,1,0,0:0:0:0:
244,174,90351,1,8,0:0:0:0:
179,172,90435,1,0,0:0:0:0:
244,174,90518,1,8,0:0:0:0:
244,174,90601,1,8,0:0:0:0:
244,174,90685,1,0,0:0:0:0:
244,174,90852,1,12,0:0:0:0:
220,172,91018,1,0,0:0:0:0:
220,172,91102,1,0,0:0:0:0:
220,172,91185,1,8,0:0:0:0:
220,172,91268,1,0,0:0:0:0:
220,172,91352,1,8,0:0:0:0:
220,172,91435,1,8,0:0:0:0:
220,172,91518,1,0,0:0:0:0:
220,172,91602,1,0,0:0:0:0:
220,172,91685,1,0,0:0:0:0:
220,172,91768,1,0,0:0:0:0:
220,172,91852,1,8,0:0:0:0:
220,172,91935,1,8,0:0:0:0:
220,172,92018,1,0,0:0:0:0:
220,172,92102,1,8,0:0:0:0:
220,172,92185,5,0,0:0:0:0:
220,172,92268,1,0,0:0:0:0:
220,172,92352,1,0,0:0:0:0:
220,172,92435,1,0,0:0:0:0:
220,172,92518,1,8,0:0:0:0:
220,172,92602,1,0,0:0:0:0:
220,153,92685,1,8,0:0:0:0:
220,172,92768,1,8,0:0:0:0:
220,153,92852,1,0,0:0:0:0:
220,172,92935,1,0,0:0:0:0:
220,153,93018,1,8,0:0:0:0:
220,172,93102,1,0,0:0:0:0:
220,172,93185,1,8,0:0:0:0:
220,172,93268,1,0,0:0:0:0:
220,172,93352,1,8,0:0:0:0:
220,172,93435,1,8,0:0:0:0:
220,172,93518,5,0,0:0:0:0:
220,172,93602,1,0,0:0:0:0:
220,172,93685,1,0,0:0:0:0:
220,172,93768,1,0,0:0:0:0:
220,172,93852,1,8,0:0:0:0:
220,172,93935,1,0,0:0:0:0:
220,172,94018,1,8,0:0:0:0:
220,172,94102,1,8,0:0:0:0:
220,172,94185,1,0,0:0:0:0:
220,172,94268,1,0,0:0:0:0:
220,172,94352,1,8,0:0:0:0:
220,172,94435,1,8,0:0:0:0:
220,172,94518,1,8,0:0:0:0:
220,172,94602,1,0,0:0:0:0:
220,172,94685,1,8,0:0:0:0:
220,172,94768,1,8,0:0:0:0:
220,172,94852,5,0,0:0:0:0:
220,172,94935,1,0,0:0:0:0:
220,172,95018,1,0,0:0:0:0:
220,172,95102,1,0,0:0:0:0:
220,172,95185,1,8,0:0:0:0:
220,172,95268,1,0,0:0:0:0:
220,172,95352,1,8,0:0:0:0:
220,172,95435,1,8,0:0:0:0:
220,172,95518,1,0,0:0:0:0:
220,172,95602,1,8,0:0:0:0:
220,172,95685,1,8,0:0:0:0:
220,172,95768,1,0,0:0:0:0:
220,172,95852,1,8,0:0:0:0:
220,172,95935,1,8,0:0:0:0:
220,172,96018,1,0,0:0:0:0:
220,172,96102,1,8,0:0:0:0:
220,172,96185,5,0,0:0:0:0:
220,172,96268,1,0,0:0:0:0:
220,172,96352,1,0,0:0:0:0:
220,172,96435,1,0,0:0:0:0:
220,172,96518,1,8,0:0:0:0:
220,172,96602,1,0,0:0:0:0:
220,172,96685,1,8,0:0:0:0:
220,172,96768,1,8,0:0:0:0:
220,172,96852,1,0,0:0:0:0:
220,172,96935,1,0,0:0:0:0:
220,172,97018,1,8,0:0:0:0:
220,172,97102,1,0,0:0:0:0:
220,172,97185,1,8,0:0:0:0:
220,172,97268,1,8,0:0:0:0:
220,172,97352,1,8,0:0:0:0:
220,172,97435,1,8,0:0:0:0:
220,172,97518,5,0,0:0:0:0:
220,172,97602,1,0,0:0:0:0:
220,172,97685,1,0,0:0:0:0:
220,172,97768,1,0,0:0:0:0:
220,172,97852,1,8,0:0:0:0:
220,172,97935,1,8,0:0:0:0:
220,172,98018,1,0,0:0:0:0:
220,172,98101,1,8,0:0:0:0:
220,172,98185,1,0,0:0:0:0:
220,172,98268,1,0,0:0:0:0:
220,172,98351,1,8,0:0:0:0:
220,172,98435,1,0,0:0:0:0:
220,172,98518,1,8,0:0:0:0:
220,172,98601,1,8,0:0:0:0:
220,172,98685,1,0,0:0:0:0:
220,172,98768,1,8,0:0:0:0:
220,172,98851,1,0,0:0:0:0:
220,172,98935,1,0,0:0:0:0:
220,172,99018,1,0,0:0:0:0:
220,172,99101,1,0,0:0:0:0:
220,172,99185,1,8,0:0:0:0:
220,172,99268,1,8,0:0:0:0:
220,172,99351,1,8,0:0:0:0:
218,151,99435,1,8,0:0:0:0:
220,172,99518,1,0,0:0:0:0:
220,172,99601,1,0,0:0:0:0:
220,172,99685,1,8,0:0:0:0:
220,172,99768,1,0,0:0:0:0:
220,172,99851,1,8,0:0:0:0:
220,172,99935,1,8,0:0:0:0:
220,172,100018,1,0,0:0:0:0:
220,172,100185,1,12,0:0:0:0:
220,172,100435,1,12,0:0:0:0:
220,172,100685,1,4,0:0:0:0:
189,137,101018,1,0,0:0:0:0:
189,137,101185,1,8,0:0:0:0:
189,137,101268,1,0,0:0:0:0:
189,137,101351,1,8,0:0:0:0:
189,137,101435,1,8,0:0:0:0:
179,118,101518,5,0,0:0:0:0:
182,126,101601,1,8,0:0:0:0:
182,126,101768,1,8,0:0:0:0:
183,126,101851,1,0,0:0:0:0:
183,126,102018,1,8,0:0:0:0:
183,126,102185,1,0,0:0:0:0:
191,132,102268,1,8,0:0:0:0:
184,127,102351,1,0,0:0:0:0:
190,129,102435,1,0,0:0:0:0:
191,129,102518,1,8,0:0:0:0:
191,129,102601,1,0,0:0:0:0:
187,135,102685,1,8,0:0:0:0:
191,131,102851,1,0,0:0:0:0:
195,131,102935,1,8,0:0:0:0:
195,131,103101,1,8,0:0:0:0:
195,131,103185,1,0,0:0:0:0:
195,131,103351,1,8,0:0:0:0:
141,137,103407,1,8,0:0:0:0:
188,120,103463,1,8,0:0:0:0:
195,131,103518,1,0,0:0:0:0:
185,121,103685,1,8,0:0:0:0:
176,120,103768,1,0,0:0:0:0:
190,121,103851,1,8,0:0:0:0:
190,121,103935,1,8,0:0:0:0:
190,121,104018,1,8,0:0:0:0:
183,118,104185,1,0,0:0:0:0:
183,118,104268,1,8,0:0:0:0:
183,118,104435,1,8,0:0:0:0:
183,118,104518,1,0,0:0:0:0:
185,121,104685,1,8,0:0:0:0:
183,117,104851,1,0,0:0:0:0:
183,117,104935,1,0,0:0:0:0:
183,117,105018,1,0,0:0:0:0:
183,118,105101,1,0,0:0:0:0:
183,118,105185,1,8,0:0:0:0:
171,97,105268,1,0,0:0:0:0:
183,118,105351,1,8,0:0:0:0:
177,114,105518,1,0,0:0:0:0:
177,114,105601,1,8,0:0:0:0:
177,114,105768,1,8,0:0:0:0:
177,114,105851,1,0,0:0:0:0:
178,114,106018,1,8,0:0:0:0:
178,114,106185,1,0,0:0:0:0:
178,114,106268,1,0,0:0:0:0:
178,114,106351,1,8,0:0:0:0:
177,114,106435,1,8,0:0:0:0:
177,114,106518,1,0,0:0:0:0:
183,115,106685,1,12,0:0:0:0:
164,119,106851,1,0,0:0:0:0:
164,119,106935,1,8,0:0:0:0:
164,119,107101,1,8,0:0:0:0:
164,119,107185,1,0,0:0:0:0:
220,98,107268,1,0,0:0:0:0:
164,119,107351,1,8,0:0:0:0:
164,119,107518,1,0,0:0:0:0:
164,119,107601,1,0,0:0:0:0:
165,119,107685,1,8,0:0:0:0:
164,119,107768,1,8,0:0:0:0:
164,119,107851,1,0,0:0:0:0:
164,119,107935,1,8,0:0:0:0:
164,119,108018,1,8,0:0:0:0:
164,119,108185,1,0,0:0:0:0:
164,119,108268,1,8,0:0:0:0:
164,119,108435,1,8,0:0:0:0:
164,119,108518,1,0,0:0:0:0:
144,100,108601,1,0,0:0:0:0:
165,119,108685,1,8,0:0:0:0:
164,119,108851,1,0,0:0:0:0:
117,102,108935,1,8,0:0:0:0:
172,114,109018,1,8,0:0:0:0:
144,100,109101,1,0,0:0:0:0:
172,114,109185,1,8,0:0:0:0:
172,114,109268,1,8,0:0:0:0:
172,114,109351,1,0,0:0:0:0:
165,102,109518,1,0,0:0:0:0:
163,102,109601,1,8,0:0:0:0:
174,100,109685,1,0,0:0:0:0:
159,102,109768,1,0,0:0:0:0:
157,102,109851,1,8,0:0:0:0:
171,102,109935,1,0,0:0:0:0:
159,102,110018,1,8,0:0:0:0:
163,84,110101,1,8,0:0:0:0:
159,102,110185,1,0,0:0:0:0:
138,101,110240,1,0,0:0:0:0:
159,102,110296,1,0,0:0:0:0:
159,102,110351,1,8,0:0:0:0:
159,102,110435,1,0,0:0:0:0:
159,102,110518,1,8,0:0:0:0:
178,103,110574,1,0,0:0:0:0:
172,97,110629,1,0,0:0:0:0:
166,107,110685,1,8,0:0:0:0:
168,94,110768,1,8,0:0:0:0:
162,103,110851,1,0,0:0:0:0:
159,102,111101,1,0,0:0:0:0:
159,102,111351,1,8,0:0:0:0:
129,115,112185,1,4,0:0:0:0:
173,120,112518,1,8,0:0:0:0:
188,102,112685,1,0,0:0:0:0:
173,120,112768,1,0,0:0:0:0:
173,120,112851,1,0,0:0:0:0:
182,118,112935,1,8,0:0:0:0:
173,120,113018,1,0,0:0:0:0:
188,102,113185,1,8,0:0:0:0:
173,120,113351,1,0,0:0:0:0:
173,114,113435,1,8,0:0:0:0:
173,120,113518,1,0,0:0:0:0:
182,103,113685,1,0,0:0:0:0:
188,102,113851,1,8,0:0:0:0:
173,120,114018,1,0,0:0:0:0:
160,102,114101,1,8,0:0:0:0:
160,102,114268,1,8,0:0:0:0:
173,120,114351,1,0,0:0:0:0:
173,120,114518,1,8,0:0:0:0:
192,97,114601,1,0,0:0:0:0:
173,120,114685,1,8,0:0:0:0:
173,120,114851,1,0,0:0:0:0:
184,109,115018,1,0,0:0:0:0:
160,102,115101,1,0,0:0:0:0:
188,102,115185,1,8,0:0:0:0:
188,102,115351,1,0,0:0:0:0:
179,110,115435,1,0,0:0:0:0:
178,109,115518,1,8,0:0:0:0:
178,109,115601,1,8,0:0:0:0:
188,102,115685,1,0,0:0:0:0:
188,102,115851,1,8,0:0:0:0:
159,104,116018,1,8,0:0:0:0:
165,104,116101,1,8,0:0:0:0:
188,102,116185,1,0,0:0:0:0:
165,104,116351,1,0,0:0:0:0:
188,102,116518,1,8,0:0:0:0:
188,102,116685,1,0,0:0:0:0:
167,104,116768,1,8,0:0:0:0:
169,102,116935,1,8,0:0:0:0:
188,102,117018,1,0,0:0:0:0:
188,102,117185,1,8,0:0:0:0:
170,102,117268,1,0,0:0:0:0:
188,102,117351,1,8,0:0:0:0:
187,92,117435,1,8,0:0:0:0:
188,102,117518,1,0,0:0:0:0:
197,96,117851,1,8,0:0:0:0:
197,96,118018,1,0,0:0:0:0:
178,92,118101,1,8,0:0:0:0:
179,90,118185,1,8,0:0:0:0:
179,90,118268,1,8,0:0:0:0:
197,95,118351,1,0,0:0:0:0:
197,95,118518,1,8,0:0:0:0:
174,82,118685,1,0,0:0:0:0:
174,83,118768,1,8,0:0:0:0:
197,96,118851,1,0,0:0:0:0:
197,90,119018,1,0,0:0:0:0:
197,95,119185,1,8,0:0:0:0:
197,95,119351,1,0,0:0:0:0:
183,89,119435,1,8,0:0:0:0:
184,89,119601,1,8,0:0:0:0:
197,96,119685,1,0,0:0:0:0:
234,79,119768,1,0,0:0:0:0:
197,96,119851,1,8,0:0:0:0:
197,95,120018,1,8,0:0:0:0:
197,95,120185,1,0,0:0:0:0:
197,95,120351,1,8,0:0:0:0:
191,75,120435,1,0,0:0:0:0:
191,75,120601,1,0,0:0:0:0:
197,96,120685,1,8,0:0:0:0:
190,78,120768,1,8,0:0:0:0:
197,96,120851,1,0,0:0:0:0:
190,78,120935,1,8,0:0:0:0:
197,95,121018,1,0,0:0:0:0:
196,77,121101,1,0,0:0:0:0:
197,95,121185,1,8,0:0:0:0:
197,95,121351,1,8,0:0:0:0:
190,85,121435,1,8,0:0:0:0:
197,96,121518,1,0,0:0:0:0:
197,96,121685,1,8,0:0:0:0:
190,85,121768,1,8,0:0:0:0:
190,85,121935,1,8,0:0:0:0:
197,95,122018,1,0,0:0:0:0:
201,88,122185,1,0,0:0:0:0:
197,95,122268,1,8,0:0:0:0:
197,95,122351,1,0,0:0:0:0:
192,107,122435,1,0,0:0:0:0:
197,96,122518,1,8,0:0:0:0:
194,91,122601,1,0,0:0:0:0:
197,96,122685,1,8,0:0:0:0:
197,95,122851,1,4,0:0:0:0:
197,95,123185,1,8,0:0:0:0:
197,95,123351,1,0,0:0:0:0:
185,91,123435,1,8,0:0:0:0:
180,91,123518,1,0,0:0:0:0:
183,90,123601,1,8,0:0:0:0:
197,96,123685,1,0,0:0:0:0:
197,95,123851,1,8,0:0:0:0:
197,95,124018,1,8,0:0:0:0:
192,97,124101,1,8,0:0:0:0:
197,95,124185,1,0,0:0:0:0:
191,96,124351,1,0,0:0:0:0:
197,96,124518,1,8,0:0:0:0:
197,96,124685,1,0,0:0:0:0:
185,86,124768,1,8,0:0:0:0:
186,91,124935,1,8,0:0:0:0:
197,95,125018,1,0,0:0:0:0:
197,95,125185,1,8,0:0:0:0:
183,83,125268,1,0,0:0:0:0:
197,96,125351,1,8,0:0:0:0:
197,96,125518,1,0,0:0:0:0:
189,101,125685,1,0,0:0:0:0:
189,101,125768,1,0,0:0:0:0:
195,107,125851,1,8,0:0:0:0:
189,106,126018,1,8,0:0:0:0:
183,83,126101,1,8,0:0:0:0:
183,83,126185,1,0,0:0:0:0:
183,83,126268,1,8,0:0:0:0:
187,106,126351,1,0,0:0:0:0:
187,106,126518,1,8,0:0:0:0:
182,90,126685,1,8,0:0:0:0:
182,90,126768,1,8,0:0:0:0:
187,106,126851,1,0,0:0:0:0:
180,88,127018,1,0,0:0:0:0:
187,106,127185,1,8,0:0:0:0:
187,106,127351,1,0,0:0:0:0:
179,88,127435,1,8,0:0:0:0:
185,86,127601,1,8,0:0:0:0:
187,106,127685,1,0,0:0:0:0:
187,106,127851,1,8,0:0:0:0:
182,95,127935,1,0,0:0:0:0:
187,106,128018,1,8,0:0:0:0:
156,125,128185,5,4,0:0:0:0:
156,125,128351,1,0,0:0:0:0:
156,125,128518,1,8,0:0:0:0:
156,125,128601,1,8,0:0:0:0:
156,125,128685,1,8,0:0:0:0:
160,121,128768,1,0,0:0:0:0:
160,121,128851,1,8,0:0:0:0:
145,102,128935,1,8,0:0:0:0:
162,117,129018,1,0,0:0:0:0:
166,114,129185,1,8,0:0:0:0:
166,114,129268,1,8,0:0:0:0:
166,114,129351,1,8,0:0:0:0:
166,114,129518,1,4,0:0:0:0:
166,114,129685,1,0,0:0:0:0:
166,114,129768,1,0,0:0:0:0:
166,114,129851,1,8,0:0:0:0:
166,114,130018,1,0,0:0:0:0:
166,114,130101,1,0,0:0:0:0:
166,114,130185,1,8,0:0:0:0:
166,114,130268,1,8,0:0:0:0:
166,114,130351,1,0,0:0:0:0:
166,114,130518,1,8,0:0:0:0:
166,114,130601,1,8,0:0:0:0:
166,114,130685,1,8,0:0:0:0:
166,114,130852,1,4,0:0:0:0:
166,114,131024,1,0,0:0:0:0:
166,114,131197,1,8,0:0:0:0:
171,112,131284,1,0,0:0:0:0:
171,112,131370,1,8,0:0:0:0:
172,112,131544,1,0,0:0:0:0:
172,112,131633,1,0,0:0:0:0:
172,112,131723,1,8,0:0:0:0:
169,96,131813,1,0,0:0:0:0:
173,97,131903,1,8,0:0:0:0:
172,98,131993,1,8,0:0:0:0:
166,90,132082,1,0,0:0:0:0:
162,86,132263,1,0,0:0:0:0:
165,86,132356,1,8,0:0:0:0:
165,85,132449,1,0,0:0:0:0:
165,85,132542,1,0,0:0:0:0:
165,85,132636,1,8,0:0:0:0:
165,85,132734,1,0,0:0:0:0:
165,85,132832,1,8,0:0:0:0:
165,85,132930,1,8,0:0:0:0:
152,88,133028,1,0,0:0:0:0:
181,83,133081,1,0,0:0:0:0:
179,84,133135,1,0,0:0:0:0:
205,105,133188,1,0,0:0:0:0:
180,90,133242,1,8,0:0:0:0:
186,111,133295,1,8,0:0:0:0:
178,89,133349,1,8,0:0:0:0:
240,109,133403,1,8,0:0:0:0:
235,111,133457,5,0,0:0:0:0:
178,88,133521,1,0,0:0:0:0:
178,88,133586,1,8,0:0:0:0:
181,85,133650,1,8,0:0:0:0:
235,111,133715,1,0,0:0:0:0:
209,97,133780,1,0,0:0:0:0:
209,97,133844,1,8,0:0:0:0:
184,116,133974,1,4,0:0:0:0:
256,192,134112,12,0,139529,0:0:0:0:
