osu file format v14

[General]
AudioFilename: audio.ogg
AudioLeadIn: 0
PreviewTime: 34773
Countdown: 0
SampleSet: Normal
StackLeniency: 0.7
Mode: 1
LetterboxInBreaks: 0
WidescreenStoryboard: 1

[Editor]
DistanceSpacing: 1.4
BeatDivisor: 4
GridSize: 4
TimelineZoom: 0.8999994

[Metadata]
Title:SATELLITE
TitleUnicode:SATELLITE
Artist:NOMA
ArtistUnicode:ノマ
Creator:Miyoi
Version:FUTSUU
Source:
Tags:Midnaait Reficul Electronic Instrumental ELECAT RECORDS Nominalism DnB Drum and 'n' Bass Drum'n'Bass Drum&Bass D'n'B D&B Hardcore Drumstep
BeatmapID:3613951
BeatmapSetID:1763930

[Difficulty]
HPDrainRate:7
CircleSize:5
OverallDifficulty:4
ApproachRate:9
SliderMultiplier:1.4
SliderTickRate:1

[Events]
//Background and Video events
0,0,"82757552_p0.jpg",0,40
//Break Periods
//Storyboard Layer 0 (Background)
//Storyboard Layer 1 (Fail)
//Storyboard Layer 2 (Pass)
//Storyboard Layer 3 (Foreground)
//Storyboard Layer 4 (Overlay)
//Storyboard Sound Samples

[TimingPoints]
2852,333.333333333333,4,1,0,50,1,0
13463,-100,4,1,0,66,0,0
24129,-100,4,1,0,80,0,0
30180,-99.27688533,4,1,0,80,0,0
30846,-98.35561553,4,1,0,80,0,0
31180,-97.8603752,4,1,0,80,0,0
31513,-97.351579,4,1,0,80,0,0
31846,-96.83101489,4,1,0,80,0,0
32180,-96.29950599,4,1,0,80,0,0
32346,-96.03245424,4,1,0,80,0,0
32513,-95.7621328,4,1,0,80,0,0
32846,-95.21883986,4,1,0,80,0,0
33013,-94.94455108,4,1,0,80,0,0
33180,-94.66922977,4,1,0,80,0,0
33346,-94.39465906,4,1,0,80,0,0
33513,-94.11764706,4,1,0,80,0,0
34851,-94.11764706,4,1,0,100,0,1
44101,-88.88888889,4,1,0,100,0,1
44407,-87.91208791,4,1,0,100,0,1
44629,-86.48648649,4,1,0,100,0,1
45185,-94.11764706,4,1,0,100,0,1
51180,-94.05693381,4,1,0,100,0,1
51346,-93.99472288,4,1,0,100,0,1
51513,-93.91427646,4,1,0,100,0,1
51846,-93.70545349,4,1,0,100,0,1
52180,-93.43706852,4,1,0,100,0,1
52513,-93.11592416,4,1,0,100,0,1
52680,-92.93605004,4,1,0,100,0,1
52846,-92.7454034,4,1,0,100,0,1
53180,-92.32768113,4,1,0,100,0,1
53513,-91.86837162,4,1,0,100,0,1
53846,-91.3691325,4,1,0,100,0,1
54180,-90.83094769,4,1,0,100,0,1
54346,-90.55030037,4,1,0,100,0,1
54513,-90.25954615,4,1,0,100,0,1
54680,-89.96064632,4,1,0,100,0,1
54846,-89.65575068,4,1,0,100,0,1
55346,-88.6932813,4,1,0,100,0,1
55846,-87.67022677,4,1,0,100,0,1
56013,-87.3162413,4,1,0,100,0,1
56185,-86.95652174,4,1,0,100,0,0
56351,-100,4,1,0,50,0,0
68018,-100,4,1,0,66,0,0
77351,-100,4,1,0,80,0,0
82846,-92.37875289,4,1,0,80,0,0
83513,-94.49375212,4,1,0,80,0,0
84180,-96.53295879,4,1,0,80,0,0
84513,-97.50993803,4,1,0,80,0,0
84846,-98.45088684,4,1,0,80,0,0
85180,-99.35019358,4,1,0,80,0,0
85513,-100.1920979,4,1,0,80,0,0
85680,-100.5896303,4,1,0,80,0,0
85846,-100.9656726,4,1,0,80,0,0
86180,-101.6531316,4,1,0,80,0,0
86346,-101.952491,4,1,0,80,0,0
86513,-102.2169943,4,1,0,80,0,0
86680,-102.4328492,4,1,0,80,0,0
86846,-102.5641026,4,1,0,80,0,0
88180,-97.0873786407767,4,1,0,100,0,0
90851,333.333333333333,4,1,0,100,1,8
90852,333.333333333333,4,1,0,100,1,1
90852,-94.11764706,4,1,0,100,0,1
91180,-94.10741809,4,1,0,100,0,1
91513,-94.07674453,4,1,0,100,0,1
91680,-94.05367576,4,1,0,100,0,1
91847,-94.02548228,4,1,0,100,0,1
92180,-93.95400497,4,1,0,100,0,1
92513,-93.86228256,4,1,0,100,0,1
92847,-93.75006781,4,1,0,100,0,1
93013,-93.68680831,4,1,0,100,0,1
93180,-93.61817745,4,1,0,100,0,1
93513,-93.46647529,4,1,0,100,0,1
93847,-93.29461173,4,1,0,100,0,1
94180,-93.10383464,4,1,0,100,0,1
94347,-93.00093092,4,1,0,100,0,1
94513,-92.89390038,4,1,0,100,0,1
94847,-92.66435765,4,1,0,100,0,1
95180,-92.41686749,4,1,0,100,0,1
95347,-92.28584092,4,1,0,100,0,1
95513,-92.15107758,4,1,0,100,0,1
96180,-91.56499254,4,1,0,100,0,1
96513,-91.24628639,4,1,0,100,0,1
96685,-90.90966474,4,1,0,100,0,1
96852,-90.73616664,4,1,0,100,0,1
97180,-90.55754045,4,1,0,100,0,1
97513,-90.18934166,4,1,0,100,0,1
97847,-89.8043169,4,1,0,100,0,1
98013,-89.60723626,4,1,0,100,0,1
98180,-89.40520955,4,1,0,100,0,1
98513,-88.99133812,4,1,0,100,0,1
98846,-88.56316064,4,1,0,100,0,1
99180,-88.11979628,4,1,0,100,0,1
99346,-87.8944103,4,1,0,100,0,1
99513,-87.66437577,4,1,0,100,0,1
99680,-87.43110134,4,1,0,100,0,1
99846,-87.19607347,4,1,0,100,0,1
100164,-84.21052632,4,1,0,100,0,1
100956,-94.11764706,4,1,0,100,0,1
107180,-93.99696374,4,1,0,100,0,1
107346,-93.88776763,4,1,0,100,0,1
107513,-93.75362434,4,1,0,100,0,1
107846,-93.4242235,4,1,0,100,0,1
108180,-93.02273927,4,1,0,100,0,1
108513,-92.56144432,4,1,0,100,0,1
108680,-92.30953809,4,1,0,100,0,1
108846,-92.04657729,4,1,0,100,0,1
109180,-91.48230169,4,1,0,100,0,1
109513,-90.87701322,4,1,0,100,0,1
109846,-90.23345508,4,1,0,100,0,1
110180,-89.5534302,4,1,0,100,0,1
110346,-89.20369616,4,1,0,100,0,1
110513,-88.84453195,4,1,0,100,0,1
110680,-88.47841703,4,1,0,100,0,1
110846,-88.10798116,4,1,0,100,0,1
111346,-86.95652174,4,1,0,100,0,1
112185,-100,4,1,0,80,0,0
128846,-99.5510077882457,4,1,0,80,0,0
129013,-99.4003428269482,4,1,0,80,0,0
129180,-99.2407814263141,4,1,0,80,0,0
129513,-98.9006024112408,4,1,0,80,0,0
129846,-98.536305569344,4,1,0,80,0,0
130180,-98.1511108973409,4,1,0,80,0,0
130346,-97.9533114523287,4,1,0,80,0,0
130513,-97.7505060787954,4,1,0,80,0,0
130851,345.821325648415,4,1,0,80,1,8
130852,345.821325648415,4,1,0,80,1,0
130852,-93.8196736616185,4,1,0,80,0,0
131192,-93.393155525719,4,1,0,80,0,0
131365,-93.175089704699,4,1,0,80,0,0
131544,359.281437125749,4,1,0,80,1,8
131718,-89.2486804964092,4,1,0,80,0,8
131898,-89.023026242069,4,1,0,80,0,8
132263,372.670807453416,4,1,0,80,1,0
132263,-85.3834558879836,4,1,0,80,0,0
132636,392.156862745098,4,1,0,80,1,8
132636,-81.3008130081301,4,1,0,80,0,0
133028,428.571428571429,4,1,0,80,1,8
133028,-73.4117069090577,4,1,0,80,0,8
133237,-73.1742001320221,4,1,0,80,0,8
133457,517.241379310345,4,1,0,80,1,8
133457,-60.4311109529458,4,1,0,80,0,8
133710,-60.1909074850205,4,1,0,80,0,8
133974,555.555555555556,4,1,0,80,1,0
133974,-55.813953488372,4,1,0,80,0,0
134066,-55.813953488372,4,1,0,20,0,0

[HitObjects]
126,143,2852,5,4,0:0:0:0:
143,136,3518,1,0,0:0:0:0:
139,128,4018,1,0,0:0:0:0:
139,133,4351,1,0,0:0:0:0:
139,133,4851,1,8,0:0:0:0:
139,133,5185,1,8,0:0:0:0:
139,133,5518,1,0,0:0:0:0:
139,133,6185,1,8,0:0:0:0:
139,133,6685,1,8,0:0:0:0:
128,132,7018,1,8,0:0:0:0:
139,133,7351,1,0,0:0:0:0:
139,133,7851,1,8,0:0:0:0:
139,133,8185,1,0,0:0:0:0:
139,133,8851,1,0,0:0:0:0:
139,133,9351,1,0,0:0:0:0:
139,133,9685,1,0,0:0:0:0:
139,133,10185,1,8,0:0:0:0:
139,133,10518,1,8,0:0:0:0:
139,133,10851,1,0,0:0:0:0:
139,133,11518,1,8,0:0:0:0:
139,133,12018,1,0,0:0:0:0:
139,133,12351,1,0,0:0:0:0:
139,133,12685,1,8,0:0:0:0:
139,133,13185,1,8,0:0:0:0:
139,133,13518,1,4,0:0:0:0:
153,134,14185,1,8,0:0:0:0:
153,134,14685,1,0,0:0:0:0:
153,134,14851,1,0,0:0:0:0:
145,124,15185,1,0,0:0:0:0:
153,134,15518,1,8,0:0:0:0:
145,124,15851,1,8,0:0:0:0:
153,134,16185,1,0,0:0:0:0:
148,143,16851,1,8,0:0:0:0:
155,141,17351,1,0,0:0:0:0:
148,143,17518,1,0,0:0:0:0:
159,121,17685,1,0,0:0:0:0:
120,136,18018,1,0,0:0:0:0:
157,134,18185,1,8,0:0:0:0:
159,121,18518,1,8,0:0:0:0:
157,134,18851,1,0,0:0:0:0:
157,134,19518,1,8,0:0:0:0:
157,134,20018,1,0,0:0:0:0:
157,134,20185,1,0,0:0:0:0:
151,130,20518,1,0,0:0:0:0:
157,134,20851,1,8,0:0:0:0:
149,130,21185,1,8,0:0:0:0:
157,134,21518,1,0,0:0:0:0:
157,134,22185,1,8,0:0:0:0:
157,134,22685,1,0,0:0:0:0:
157,134,22851,1,0,0:0:0:0:
150,126,23018,1,0,0:0:0:0:
151,130,23351,1,0,0:0:0:0:
157,134,23518,1,8,0:0:0:0:
150,126,23851,1,8,0:0:0:0:
151,130,24185,1,4,0:0:0:0:
159,123,25518,1,0,0:0:0:0:
159,123,25851,1,8,0:0:0:0:
203,118,26185,1,0,0:0:0:0:
188,118,26351,1,0,0:0:0:0:
203,118,26518,1,8,0:0:0:0:
184,117,26851,1,4,0:0:0:0:
182,94,28185,1,0,0:0:0:0:
183,103,28518,1,8,0:0:0:0:
167,107,28851,1,8,0:0:0:0:
174,108,29018,1,8,0:0:0:0:
175,108,29185,1,0,0:0:0:0:
213,106,29518,1,4,0:0:0:0:
213,106,30185,1,8,0:0:0:0:
213,106,30851,1,0,0:0:0:0:
213,106,31185,1,8,0:0:0:0:
213,106,31518,1,0,0:0:0:0:
213,106,31851,1,8,0:0:0:0:
234,121,32185,1,0,0:0:0:0:
234,121,32351,1,0,0:0:0:0:
234,121,32518,1,8,0:0:0:0:
234,121,32851,1,0,0:0:0:0:
234,121,33018,1,0,0:0:0:0:
234,121,33185,1,8,0:0:0:0:
234,121,33351,1,8,0:0:0:0:
219,115,33518,1,0,0:0:0:0:
179,118,34851,5,4,0:0:0:0:
183,126,35185,1,8,0:0:0:0:
183,126,35518,1,0,0:0:0:0:
184,127,35685,1,0,0:0:0:0:
191,129,35851,1,8,0:0:0:0:
191,131,36185,1,0,0:0:0:0:
195,131,36518,1,8,0:0:0:0:
195,131,36851,1,8,0:0:0:0:
185,121,37018,1,0,0:0:0:0:
190,121,37185,1,8,0:0:0:0:
183,118,37518,1,0,0:0:0:0:
183,118,37851,1,8,0:0:0:0:
183,117,38185,1,0,0:0:0:0:
183,117,38351,1,0,0:0:0:0:
183,118,38518,1,8,0:0:0:0:
177,114,38851,1,0,0:0:0:0:
177,114,39185,1,8,0:0:0:0:
178,114,39351,1,8,0:0:0:0:
178,114,39518,1,0,0:0:0:0:
164,119,40185,1,0,0:0:0:0:
164,119,40518,1,8,0:0:0:0:
164,119,40851,1,0,0:0:0:0:
165,119,41018,1,0,0:0:0:0:
164,119,41185,1,8,0:0:0:0:
164,119,41518,1,0,0:0:0:0:
164,119,41851,1,8,0:0:0:0:
164,119,42185,1,0,0:0:0:0:
172,114,42351,1,8,0:0:0:0:
172,114,42518,1,8,0:0:0:0:
165,102,42851,1,0,0:0:0:0:
157,102,43185,1,8,0:0:0:0:
159,102,43351,1,0,0:0:0:0:
159,102,43518,1,0,0:0:0:0:
159,102,43851,1,8,0:0:0:0:
162,103,44185,1,12,0:0:0:0:
159,102,44685,1,4,0:0:0:0:
179,118,45518,5,4,0:0:0:0:
183,126,45851,1,8,0:0:0:0:
183,126,46185,1,0,0:0:0:0:
191,129,46518,1,8,0:0:0:0:
183,126,46685,1,8,0:0:0:0:
191,131,46851,1,0,0:0:0:0:
195,131,47185,1,8,0:0:0:0:
195,131,47518,1,0,0:0:0:0:
185,121,47685,1,8,0:0:0:0:
190,121,48018,1,8,0:0:0:0:
183,118,48185,1,0,0:0:0:0:
183,118,48518,1,8,0:0:0:0:
183,117,48851,1,0,0:0:0:0:
183,117,49018,1,0,0:0:0:0:
183,118,49185,1,8,0:0:0:0:
183,118,49351,1,8,0:0:0:0:
177,114,49518,1,0,0:0:0:0:
177,114,49851,1,8,0:0:0:0:
178,114,50185,1,0,0:0:0:0:
164,119,50851,1,8,0:0:0:0:
164,119,51185,1,0,0:0:0:0:
164,119,51351,1,8,0:0:0:0:
164,119,51518,1,0,0:0:0:0:
164,119,51851,1,8,0:0:0:0:
164,119,52185,1,0,0:0:0:0:
164,119,52518,1,8,0:0:0:0:
165,119,52685,1,0,0:0:0:0:
164,119,52851,1,8,0:0:0:0:
172,114,53185,1,8,0:0:0:0:
165,102,53518,1,0,0:0:0:0:
157,102,53851,1,8,0:0:0:0:
159,102,54185,1,0,0:0:0:0:
159,102,54351,1,0,0:0:0:0:
178,103,54518,1,8,0:0:0:0:
166,107,54685,1,8,0:0:0:0:
162,103,54851,1,0,0:0:0:0:
159,102,55351,1,8,0:0:0:0:
134,112,55851,1,8,0:0:0:0:
136,112,56018,1,8,0:0:0:0:
129,115,56185,1,4,0:0:0:0:
131,200,57518,1,0,0:0:0:0:
131,200,58018,1,0,0:0:0:0:
131,200,58518,1,8,0:0:0:0:
131,200,59185,1,0,0:0:0:0:
145,183,61185,1,8,0:0:0:0:
145,183,61351,1,8,0:0:0:0:
172,174,61851,1,0,0:0:0:0:
149,174,63518,1,8,0:0:0:0:
149,174,63851,1,0,0:0:0:0:
149,174,64185,1,0,0:0:0:0:
149,174,64685,1,8,0:0:0:0:
149,174,65185,1,0,0:0:0:0:
149,174,65685,1,8,0:0:0:0:
149,174,66185,1,0,0:0:0:0:
149,174,66518,1,8,0:0:0:0:
153,171,68185,1,0,0:0:0:0:
165,167,68685,1,0,0:0:0:0:
165,167,69185,1,8,0:0:0:0:
165,167,69851,1,8,0:0:0:0:
161,166,71518,1,8,0:0:0:0:
161,166,71851,1,8,0:0:0:0:
161,166,72185,1,0,0:0:0:0:
161,166,72685,1,0,0:0:0:0:
161,166,73185,1,8,0:0:0:0:
161,166,73518,1,0,0:0:0:0:
161,166,74185,1,8,0:0:0:0:
161,166,74851,1,0,0:0:0:0:
161,166,75351,1,8,0:0:0:0:
161,166,75851,1,8,0:0:0:0:
161,166,76185,1,0,0:0:0:0:
161,166,76851,1,8,0:0:0:0:
161,166,77518,1,4,0:0:0:0:
195,154,77851,1,8,0:0:0:0:
195,154,78185,1,0,0:0:0:0:
195,154,78351,1,0,0:0:0:0:
195,154,78518,1,8,0:0:0:0:
195,154,78851,1,0,0:0:0:0:
195,154,79185,1,8,0:0:0:0:
195,154,79518,1,0,0:0:0:0:
195,154,79851,1,8,0:0:0:0:
195,154,80018,1,8,0:0:0:0:
195,154,80185,1,0,0:0:0:0:
195,154,80518,1,8,0:0:0:0:
195,154,80851,1,0,0:0:0:0:
195,154,81018,1,0,0:0:0:0:
195,154,81185,1,8,0:0:0:0:
195,154,81518,1,0,0:0:0:0:
195,154,81851,1,8,0:0:0:0:
195,154,82018,1,8,0:0:0:0:
195,154,82185,1,0,0:0:0:0:
180,149,82851,1,8,0:0:0:0:
180,149,83518,1,0,0:0:0:0:
180,149,84185,1,8,0:0:0:0:
180,149,84518,1,0,0:0:0:0:
180,149,84851,1,8,0:0:0:0:
180,149,85185,1,0,0:0:0:0:
180,149,85518,1,8,0:0:0:0:
180,149,85685,1,8,0:0:0:0:
165,134,85851,1,0,0:0:0:0:
180,149,86185,1,8,0:0:0:0:
180,149,86351,1,8,0:0:0:0:
180,149,86518,1,0,0:0:0:0:
180,149,86685,1,0,0:0:0:0:
180,149,86851,1,8,0:0:0:0:
268,163,88185,5,0,0:0:0:0:
268,163,88518,1,8,0:0:0:0:
256,165,88851,1,0,0:0:0:0:
256,165,89185,1,8,0:0:0:0:
244,174,89518,1,0,0:0:0:0:
244,174,89851,1,0,0:0:0:0:
242,177,90185,1,0,0:0:0:0:
244,174,90351,1,0,0:0:0:0:
244,174,90518,1,8,0:0:0:0:
244,174,90852,1,4,0:0:0:0:
220,172,91185,1,8,0:0:0:0:
220,172,91518,1,0,0:0:0:0:
220,172,91685,1,0,0:0:0:0:
220,172,91852,1,8,0:0:0:0:
220,172,92185,5,0,0:0:0:0:
220,172,92518,1,8,0:0:0:0:
220,153,92852,1,8,0:0:0:0:
220,153,93018,1,0,0:0:0:0:
220,172,93185,1,8,0:0:0:0:
220,172,93518,5,0,0:0:0:0:
220,172,93852,1,8,0:0:0:0:
220,172,94185,1,0,0:0:0:0:
220,172,94352,1,0,0:0:0:0:
220,172,94518,1,8,0:0:0:0:
220,172,94852,5,0,0:0:0:0:
220,172,95185,1,8,0:0:0:0:
220,172,95352,1,8,0:0:0:0:
220,172,95518,1,0,0:0:0:0:
220,172,96185,5,0,0:0:0:0:
220,172,96518,1,8,0:0:0:0:
220,172,96685,1,0,0:0:0:0:
220,172,96852,1,0,0:0:0:0:
220,172,97185,1,8,0:0:0:0:
220,172,97518,5,0,0:0:0:0:
220,172,97852,1,8,0:0:0:0:
220,172,98018,1,8,0:0:0:0:
220,172,98185,1,0,0:0:0:0:
220,172,98518,1,8,0:0:0:0:
220,172,98851,1,0,0:0:0:0:
220,172,99185,1,8,0:0:0:0:
220,172,99351,1,8,0:0:0:0:
220,172,99518,1,0,0:0:0:0:
220,172,99685,1,0,0:0:0:0:
220,172,99851,1,8,0:0:0:0:
220,172,100185,1,12,0:0:0:0:
220,172,100685,1,4,0:0:0:0:
179,118,101518,5,4,0:0:0:0:
183,126,101851,1,8,0:0:0:0:
183,126,102185,1,0,0:0:0:0:
191,129,102518,1,8,0:0:0:0:
183,126,102685,1,8,0:0:0:0:
191,131,102851,1,0,0:0:0:0:
195,131,103185,1,8,0:0:0:0:
195,131,103518,1,0,0:0:0:0:
185,121,103685,1,8,0:0:0:0:
190,121,104018,1,8,0:0:0:0:
183,118,104185,1,0,0:0:0:0:
183,118,104518,1,8,0:0:0:0:
183,117,104851,1,0,0:0:0:0:
183,117,105018,1,0,0:0:0:0:
183,118,105185,1,8,0:0:0:0:
183,118,105351,1,8,0:0:0:0:
177,114,105518,1,0,0:0:0:0:
177,114,105851,1,8,0:0:0:0:
178,114,106185,1,0,0:0:0:0:
164,119,106851,1,8,0:0:0:0:
164,119,107185,1,0,0:0:0:0:
164,119,107351,1,8,0:0:0:0:
164,119,107518,1,0,0:0:0:0:
164,119,107851,1,8,0:0:0:0:
164,119,108185,1,0,0:0:0:0:
164,119,108518,1,8,0:0:0:0:
165,119,108685,1,0,0:0:0:0:
164,119,108851,1,8,0:0:0:0:
172,114,109185,1,8,0:0:0:0:
165,102,109518,1,0,0:0:0:0:
157,102,109851,1,8,0:0:0:0:
159,102,110185,1,0,0:0:0:0:
159,102,110351,1,0,0:0:0:0:
178,103,110518,1,8,0:0:0:0:
166,107,110685,1,8,0:0:0:0:
162,103,110851,1,0,0:0:0:0:
159,102,111351,1,8,0:0:0:0:
129,115,112185,5,4,0:0:0:0:
173,120,112518,1,8,0:0:0:0:
188,102,113018,1,8,0:0:0:0:
173,120,113518,1,0,0:0:0:0:
188,102,113851,1,8,0:0:0:0:
160,102,114018,1,0,0:0:0:0:
173,120,114351,1,0,0:0:0:0:
173,120,114518,1,8,0:0:0:0:
173,120,114851,1,0,0:0:0:0:
188,102,115185,1,8,0:0:0:0:
188,102,115685,1,8,0:0:0:0:
188,102,116185,1,0,0:0:0:0:
188,102,116518,1,8,0:0:0:0:
188,102,116685,1,0,0:0:0:0:
188,102,117018,1,8,0:0:0:0:
188,102,117185,1,8,0:0:0:0:
188,102,117518,1,0,0:0:0:0:
197,96,117851,1,8,0:0:0:0:
197,95,118518,1,8,0:0:0:0:
197,96,118851,1,0,0:0:0:0:
197,95,119185,1,8,0:0:0:0:
197,95,119351,1,0,0:0:0:0:
197,96,119685,1,0,0:0:0:0:
197,96,119851,1,8,0:0:0:0:
197,95,120185,1,0,0:0:0:0:
191,75,120351,1,8,0:0:0:0:
197,96,120685,1,8,0:0:0:0:
197,96,120851,1,0,0:0:0:0:
197,95,121185,1,8,0:0:0:0:
197,95,121351,1,8,0:0:0:0:
197,96,121518,1,0,0:0:0:0:
197,96,121685,1,8,0:0:0:0:
197,95,122018,1,8,0:0:0:0:
201,88,122185,1,0,0:0:0:0:
197,95,122351,1,0,0:0:0:0:
197,96,122518,1,8,0:0:0:0:
197,95,122851,1,4,0:0:0:0:
197,95,123185,1,8,0:0:0:0:
197,95,123851,1,8,0:0:0:0:
197,95,124185,1,0,0:0:0:0:
197,96,124518,1,8,0:0:0:0:
197,96,124685,1,0,0:0:0:0:
197,95,125018,1,0,0:0:0:0:
197,95,125185,1,8,0:0:0:0:
197,96,125518,1,0,0:0:0:0:
195,107,125851,1,8,0:0:0:0:
187,106,126351,1,8,0:0:0:0:
187,106,126851,1,0,0:0:0:0:
187,106,127185,1,8,0:0:0:0:
187,106,127351,1,8,0:0:0:0:
187,106,127685,1,8,0:0:0:0:
187,106,127851,1,8,0:0:0:0:
156,125,128185,5,4,0:0:0:0:
160,121,128851,1,8,0:0:0:0:
162,117,129018,1,8,0:0:0:0:
166,114,129185,1,8,0:0:0:0:
166,114,129518,1,4,0:0:0:0:
166,114,129851,1,8,0:0:0:0:
166,114,130185,1,0,0:0:0:0:
166,114,130351,1,0,0:0:0:0:
166,114,130518,1,8,0:0:0:0:
166,114,130852,1,4,0:0:0:0:
166,114,131197,1,8,0:0:0:0:
171,112,131370,1,0,0:0:0:0:
172,112,131723,1,0,0:0:0:0:
173,97,131903,1,8,0:0:0:0:
162,86,132263,1,4,0:0:0:0:
165,85,132636,1,8,0:0:0:0:
152,88,133028,1,0,0:0:0:0:
180,90,133242,1,8,0:0:0:0:
235,111,133457,5,0,0:0:0:0:
235,111,133715,1,8,0:0:0:0:
184,116,133974,1,4,0:0:0:0:
256,192,134251,12,0,139529,0:0:0:0:
