osu file format v14

[General]
AudioFilename: audio.mp3
AudioLeadIn: 0
PreviewTime: 45
Countdown: 1
SampleSet: Normal
StackLeniency: 0.7
Mode: 1
LetterboxInBreaks: 0
WidescreenStoryboard: 1

[Editor]
DistanceSpacing: 0.6
BeatDivisor: 4
GridSize: 4
TimelineZoom: 1.3

[Metadata]
Title:PEPSI MAN
TitleUnicode:PEPSI ☆ MAN
Artist:NOMA
ArtistUnicode:NOMA
Creator:cdhsausageboy
Version:Oni
Source:
Tags:MowtenDoo
BeatmapID:0
BeatmapSetID:-1

[Difficulty]
HPDrainRate:6
CircleSize:5
OverallDifficulty:5.6
ApproachRate:5
SliderMultiplier:1.4
SliderTickRate:1

[Events]
//Background and Video events
0,0,"peak male body.jpg",0,0
//Break Periods
//Storyboard Layer 0 (Background)
//Storyboard Layer 1 (Fail)
//Storyboard Layer 2 (Pass)
//Storyboard Layer 3 (Foreground)
//Storyboard Sound Samples

[TimingPoints]
45,333.333333333333,4,1,0,100,1,0
14711,-100,4,1,0,100,0,1
16044,-100,4,1,0,100,0,0
17378,-100,4,1,0,100,0,1
18711,-100,4,1,0,100,0,0
20044,-100,4,1,0,100,0,1
21378,-100,4,1,0,100,0,0
22711,-100,4,1,0,100,0,1
24044,-100,4,1,0,100,0,0
36044,-100,4,1,0,100,0,1
37377,-100,4,1,0,100,0,0
38711,-100,4,1,0,100,0,1
40044,-100,4,1,0,100,0,0
41377,-100,4,1,0,100,0,1
42711,-100,4,1,0,100,0,0
44044,-100,4,1,0,100,0,1
45377,-100,4,1,0,100,0,0
48044,-25,4,1,0,100,0,1
48211,-100,4,1,0,100,0,0

[HitObjects]
34,204,1378,6,4,L|465:275,1,420
301,190,2711,1,0,0:0:0:0:
303,176,3044,1,8,0:0:0:0:
328,185,3211,1,0,0:0:0:0:
348,206,3544,1,0,0:0:0:0:
342,193,3711,1,8,0:0:0:0:
83,148,3878,1,0,0:0:0:0:
301,190,4044,1,0,0:0:0:0:
286,162,4378,1,8,0:0:0:0:
328,185,4544,1,0,0:0:0:0:
342,193,4877,1,0,0:0:0:0:
348,206,5044,1,8,0:0:0:0:
194,200,5211,1,8,0:0:0:0:
301,190,5378,1,0,0:0:0:0:
414,157,5711,1,8,0:0:0:0:
328,185,5878,1,0,0:0:0:0:
348,206,6211,1,0,0:0:0:0:
342,193,6378,1,8,0:0:0:0:
235,171,6544,1,0,0:0:0:0:
301,190,6711,1,0,0:0:0:0:
328,185,7044,1,8,0:0:0:0:
119,145,7211,1,0,0:0:0:0:
282,147,7378,1,0,0:0:0:0:
248,186,7544,1,0,0:0:0:0:
342,193,7711,1,8,0:0:0:0:
159,185,7878,1,8,0:0:0:0:
301,190,8044,1,0,0:0:0:0:
205,193,8211,1,0,0:0:0:0:
138,135,8294,1,0,0:0:0:0:
316,146,8378,1,8,0:0:0:0:
316,146,8544,1,8,0:0:0:0:
56,141,8711,1,0,0:0:0:0:
206,107,8794,1,0,0:0:0:0:
112,147,8878,1,0,0:0:0:0:
342,193,9044,1,8,0:0:0:0:
301,190,9378,1,0,0:0:0:0:
205,193,9545,1,0,0:0:0:0:
256,97,9628,1,0,0:0:0:0:
316,146,9712,1,8,0:0:0:0:
316,146,9878,1,8,0:0:0:0:
56,141,10045,1,0,0:0:0:0:
112,147,10212,1,8,0:0:0:0:
339,179,10294,1,8,0:0:0:0:
342,193,10378,1,8,0:0:0:0:
301,190,10711,1,0,0:0:0:0:
315,136,10767,1,0,0:0:0:0:
315,136,10822,1,0,0:0:0:0:
315,136,10878,1,0,0:0:0:0:
392,131,11044,1,8,0:0:0:0:
301,190,11378,1,0,0:0:0:0:
315,136,11434,1,0,0:0:0:0:
315,136,11489,1,0,0:0:0:0:
315,136,11545,1,0,0:0:0:0:
392,131,11711,1,8,0:0:0:0:
259,114,12044,1,4,0:0:0:0:
259,114,12378,1,4,0:0:0:0:
259,114,12711,1,4,0:0:0:0:
259,114,13044,1,4,0:0:0:0:
116,154,13378,1,0,0:0:0:0:
116,154,13544,1,0,0:0:0:0:
169,160,13711,1,8,0:0:0:0:
175,87,14044,1,0,0:0:0:0:
244,97,14211,1,8,0:0:0:0:
244,97,14544,1,8,0:0:0:0:
244,152,14711,1,0,0:0:0:0:
285,120,14878,1,8,0:0:0:0:
170,186,14961,1,8,0:0:0:0:
340,203,15044,1,8,0:0:0:0:
334,155,15211,1,0,0:0:0:0:
285,120,15378,1,8,0:0:0:0:
216,158,15461,1,8,0:0:0:0:
160,99,15544,1,8,0:0:0:0:
323,161,15711,1,0,0:0:0:0:
160,99,15878,1,8,0:0:0:0:
297,162,15961,1,8,0:0:0:0:
116,154,16044,1,0,0:0:0:0:
116,154,16210,1,0,0:0:0:0:
169,160,16377,1,8,0:0:0:0:
325,156,16711,1,0,0:0:0:0:
244,97,16877,1,8,0:0:0:0:
244,97,17210,1,8,0:0:0:0:
244,152,17377,1,0,0:0:0:0:
162,180,17461,1,0,0:0:0:0:
319,139,17544,1,0,0:0:0:0:
166,179,17628,1,0,0:0:0:0:
280,251,17711,1,8,0:0:0:0:
172,82,17878,1,0,0:0:0:0:
372,225,18044,1,8,0:0:0:0:
372,225,18211,1,8,0:0:0:0:
366,220,18378,1,0,0:0:0:0:
116,154,18711,1,0,0:0:0:0:
116,154,18877,1,0,0:0:0:0:
169,160,19044,1,8,0:0:0:0:
243,208,19378,1,0,0:0:0:0:
244,97,19544,1,8,0:0:0:0:
244,97,19877,1,8,0:0:0:0:
156,180,20044,1,0,0:0:0:0:
475,202,20211,1,0,0:0:0:0:
254,112,20294,1,0,0:0:0:0:
435,187,20378,1,8,0:0:0:0:
280,154,20544,1,0,0:0:0:0:
217,148,20711,1,8,0:0:0:0:
307,150,20878,1,8,0:0:0:0:
381,178,20961,1,8,0:0:0:0:
311,158,21044,1,0,0:0:0:0:
461,204,21211,1,8,0:0:0:0:
116,154,21378,1,0,0:0:0:0:
116,154,21544,1,0,0:0:0:0:
169,160,21711,1,8,0:0:0:0:
313,153,22044,1,0,0:0:0:0:
244,97,22211,1,8,0:0:0:0:
492,190,22544,1,0,0:0:0:0:
418,185,22711,1,8,0:0:0:0:
418,185,22878,1,8,0:0:0:0:
418,185,23044,1,8,0:0:0:0:
418,185,23211,1,8,0:0:0:0:
418,185,23378,1,8,0:0:0:0:
228,120,23461,1,8,0:0:0:0:
228,120,23544,1,8,0:0:0:0:
418,185,23711,1,8,0:0:0:0:
228,120,23794,1,8,0:0:0:0:
228,120,23878,1,8,0:0:0:0:
301,190,24044,1,0,0:0:0:0:
303,176,24377,1,8,0:0:0:0:
328,185,24544,1,0,0:0:0:0:
348,206,24877,1,0,0:0:0:0:
342,193,25044,1,8,0:0:0:0:
83,148,25211,1,0,0:0:0:0:
301,190,25377,1,0,0:0:0:0:
286,162,25711,1,8,0:0:0:0:
328,185,25877,1,0,0:0:0:0:
342,193,26210,1,0,0:0:0:0:
348,206,26377,1,8,0:0:0:0:
194,200,26544,1,8,0:0:0:0:
301,190,26711,1,0,0:0:0:0:
414,157,27044,1,8,0:0:0:0:
328,185,27211,1,0,0:0:0:0:
348,206,27544,1,0,0:0:0:0:
342,193,27711,1,8,0:0:0:0:
235,171,27877,1,0,0:0:0:0:
301,190,28044,1,0,0:0:0:0:
328,185,28377,1,8,0:0:0:0:
119,145,28544,1,0,0:0:0:0:
282,147,28711,1,0,0:0:0:0:
248,186,28877,1,0,0:0:0:0:
342,193,29044,1,8,0:0:0:0:
159,185,29211,1,8,0:0:0:0:
301,190,29377,1,0,0:0:0:0:
316,146,29711,1,8,0:0:0:0:
56,141,29878,1,0,0:0:0:0:
112,147,30211,1,0,0:0:0:0:
342,193,30377,1,8,0:0:0:0:
256,192,30711,12,0,34544,0:0:0:0:
116,154,34711,5,0,0:0:0:0:
116,154,34877,1,0,0:0:0:0:
169,160,35044,1,8,0:0:0:0:
175,87,35377,1,0,0:0:0:0:
244,97,35544,1,8,0:0:0:0:
198,143,35711,1,0,0:0:0:0:
244,152,36044,1,0,0:0:0:0:
227,132,36100,1,0,0:0:0:0:
227,132,36378,1,0,0:0:0:0:
227,132,36433,1,0,0:0:0:0:
299,108,36711,1,0,0:0:0:0:
299,108,36878,1,0,0:0:0:0:
432,172,37044,1,8,0:0:0:0:
116,154,37377,1,0,0:0:0:0:
116,154,37543,1,0,0:0:0:0:
169,160,37710,1,8,0:0:0:0:
325,156,38044,1,0,0:0:0:0:
244,97,38210,1,8,0:0:0:0:
244,97,38378,1,8,0:0:0:0:
423,190,38711,1,8,0:0:0:0:
198,231,38794,1,0,0:0:0:0:
198,231,38961,1,0,0:0:0:0:
198,231,39044,1,8,0:0:0:0:
224,128,39211,1,0,0:0:0:0:
71,171,39378,2,0,L|221:173,1,140
116,154,40044,1,0,0:0:0:0:
116,154,40210,1,0,0:0:0:0:
169,160,40377,1,8,0:0:0:0:
243,208,40711,1,0,0:0:0:0:
244,97,40877,1,8,0:0:0:0:
244,97,41210,1,8,0:0:0:0:
263,231,41378,1,4,0:0:0:0:
17,152,41878,1,0,0:0:0:0:
263,212,42045,1,8,0:0:0:0:
139,227,42211,1,0,0:0:0:0:
263,212,42378,1,8,0:0:0:0:
139,227,42544,1,0,0:0:0:0:
116,154,42711,1,0,0:0:0:0:
190,137,42878,1,0,0:0:0:0:
332,179,43044,1,8,0:0:0:0:
116,154,43211,1,0,0:0:0:0:
492,190,43544,1,0,0:0:0:0:
244,97,43711,1,8,0:0:0:0:
418,185,43878,1,0,0:0:0:0:
257,150,44044,1,0,0:0:0:0:
353,184,44156,1,8,0:0:0:0:
353,184,44267,1,8,0:0:0:0:
353,184,44378,1,8,0:0:0:0:
398,188,44711,1,0,0:0:0:0:
398,188,45044,1,0,0:0:0:0:
256,192,45378,12,0,47961,0:0:0:0:
252,214,48044,5,12,0:0:0:0:
