osu file format v14

[General]
AudioFilename: PEPSIMAN.mp3
AudioLeadIn: 0
PreviewTime: 33
Countdown: 0
SampleSet: Normal
StackLeniency: 0.7
Mode: 0
LetterboxInBreaks: 0
WidescreenStoryboard: 0

[Editor]
DistanceSpacing: 0.5
BeatDivisor: 3
GridSize: 4
TimelineZoom: 2.799999

[Metadata]
Title:PEPSI * MAN
TitleUnicode:PEPSI ☆ MAN
Artist:NOMA
ArtistUnicode:NOMA
Creator:Zetera
Version:SUPER HARD MAN
Source:
Tags:MowtenDoo YTPMV MAD Irreversible Snaggletooth Mao Yuzu- [Nicole] Stjpa Feerum Phil stankill
BeatmapID:800538
BeatmapSetID:364712

[Difficulty]
HPDrainRate:9
CircleSize:4
OverallDifficulty:7
ApproachRate:9.5
SliderMultiplier:1.9
SliderTickRate:1

[Events]
//Background and Video events
0,0,"BG_MTNDW.jpg",0,0
//Break Periods
//Storyboard Layer 0 (Background)
//Storyboard Layer 1 (Fail)
//Storyboard Layer 2 (Pass)
//Storyboard Layer 3 (Foreground)
//Storyboard Sound Samples

[TimingPoints]
1450,333.333333333333,4,1,1,70,1,0
2783,-100,4,1,1,70,0,0
8116,-100,4,1,0,70,0,0
8199,-100,4,1,1,70,0,0
9449,-100,4,1,0,70,0,0
9533,-100,4,1,1,70,0,0
14783,-100,4,3,1,70,0,0
16116,-100,4,1,1,70,0,0
17449,-100,4,1,0,70,0,0
17533,-100,4,3,1,70,0,0
18783,-100,4,1,1,70,0,0
20283,-100,4,3,1,70,0,0
21449,-100,4,1,1,70,0,0
29949,-83.3333333333333,4,1,1,70,0,0
39449,-66.6666666666667,4,1,1,70,0,0
48116,-66.6666666666667,4,1,3,70,0,0

[Colours]
Combo1 : 40,140,220
Combo2 : 255,0,0
Combo3 : 70,70,70

[HitObjects]
386,60,1450,5,8,0:0:0:0:
383,76,1783,1,8,0:0:0:0:
380,94,2116,5,8,0:0:0:0:
389,169,2283,1,0,0:0:0:0:
400,243,2449,2,0,L|412:345,1,95,8|0,0:0|2:0,0:0:0:0:
273,302,2783,6,0,P|248:237|280:156,1,142.5,4|0,0:2|2:0,0:0:0:70:Baseball bat.wav
268,169,3116,1,8,0:2:0:0:
208,24,3283,2,0,P|198:96|78:129,1,190,4|4,0:2|2:0,0:0:0:0:
98,136,3783,1,8,0:2:0:0:
126,51,3949,1,4,2:0:0:0:
104,240,4116,6,0,P|27:217|5:135,1,142.5,4|0,0:2|2:0,0:0:0:0:
2,164,4449,1,8,0:2:0:0:
184,123,4616,2,0,L|360:102,1,142.5,4|0,2:0|2:0,0:0:0:0:
397,149,4949,1,4,2:0:0:0:
401,150,5033,1,4,2:0:0:0:
405,151,5116,1,8,0:2:0:0:
477,24,5283,1,4,0:2:0:0:
481,224,5449,6,0,P|400:269|334:240,1,142.5,4|0,0:2|2:0,0:0:0:0:
356,257,5783,1,8,0:2:0:0:
298,103,5949,2,0,P|352:46|467:63,1,190,4|4,0:2|0:2,0:0:0:0:
397,149,6449,1,8,0:2:0:0:
250,224,6616,1,4,0:2:0:0:
250,224,6699,1,0,2:0:0:0:
250,224,6783,6,0,L|98:237,1,142.5,4|0,0:2|2:0,0:0:0:0:
26,166,7116,1,8,0:2:0:0:
26,347,7283,2,0,L|188:333,1,142.5,4|0,0:2|2:0,0:0:0:0:
274,359,7616,1,4,0:2:0:0:
278,359,7699,1,4,0:2:0:0:
282,359,7783,1,8,0:2:0:0:
483,310,7949,1,4,2:0:0:0:
364,260,8116,5,4,0:1:0:0:
351,239,8199,1,0,0:0:0:0:
341,218,8282,1,0,0:0:0:0:
335,195,8366,1,0,0:0:0:0:
331,172,8449,1,8,0:0:0:0:
331,148,8532,1,0,0:0:0:0:
335,124,8616,1,4,2:0:0:0:
342,102,8699,1,0,0:0:0:0:
351,80,8783,6,0,L|429:66,1,47.5
476,166,8949,2,0,L|429:157,1,47.5
293,79,9116,6,0,L|365:48,1,47.5,8|0,0:0|0:0,0:0:0:0:
432,136,9282,2,0,L|384:137,1,47.5,4|0,0:2|0:0,0:0:0:0:
231,208,9449,5,4,0:0:0:0:
199,223,9532,1,0,0:0:0:0:
164,227,9615,1,0,0:0:0:0:
129,221,9699,1,0,0:0:0:0:
98,204,9782,1,8,0:0:0:0:
73,178,9865,1,0,0:0:0:0:
58,146,9949,1,4,0:2:0:0:
53,111,10032,1,0,0:0:0:0:
58,76,10116,6,0,L|79:137,1,47.5
150,56,10283,2,0,L|160:10,1,47.5
238,87,10449,6,0,L|258:147,1,47.5,8|0,0:0|0:0,0:0:0:0:
327,61,10616,2,0,L|336:14,1,47.5
433,135,10783,6,0,L|438:171,2,31.6666666666667,12|0|0,0:2|0:0|0:0,0:0:0:0:
458,53,10949,1,0,0:2:0:0:
460,48,11033,1,0,0:0:0:0:
460,43,11116,2,0,P|428:31|383:27,1,47.5,8|0,0:0|0:0,0:0:0:0:
442,243,11283,2,0,P|465:237|486:228,1,47.5,4|0,0:2|0:0,0:0:0:0:
305,148,11449,6,0,L|311:193,2,31.6666666666667,12|0|0,0:2|0:0|0:0,0:0:0:0:
226,75,11616,1,0,0:0:0:0:
211,77,11699,1,0,0:0:0:0:
196,79,11783,2,0,L|202:13,1,47.5,8|0,0:0|0:0,0:0:0:0:
86,69,11949,2,0,L|73:14,1,47.5,4|0,0:2|0:0,0:0:0:0:
24,169,12116,6,0,L|-2:133,2,31.6666666666667,12|0|0,0:2|0:0|0:0,0:0:0:0:
145,233,12283,1,0,0:0:0:0:
165,221,12366,1,0,0:0:0:0:
185,209,12449,2,0,L|211:173,2,31.6666666666667,12|0|0,0:2|0:0|0:0,0:0:0:0:
67,326,12616,1,0,0:0:0:0:
47,314,12699,1,0,0:0:0:0:
27,302,12782,6,0,L|8:276,2,31.6666666666667,12|0|0,0:2|0:0|0:0,0:0:0:0:
183,357,12949,1,4,0:2:0:0:
203,345,13032,1,0,0:0:0:0:
223,333,13116,2,0,L|257:336,5,31.6666666666667,12|0|0|0|0|0,0:2|0:0|0:0|0:0|0:0|0:0,0:0:0:0:
276,357,13449,5,6,0:0:0:0:
441,331,13616,1,2,0:0:0:0:
320,185,13783,2,2,P|278:29|305:-3,1,190,10|0,0:0|0:2,0:0:0:0:
479,74,14283,2,2,P|471:155|438:189,1,95,10|8,0:0|0:2,0:0:0:0:
374,91,14616,1,2,0:0:0:0:
406,259,14783,5,4,0:3:0:0:
225,193,14949,1,8,0:0:0:0:
225,193,15033,1,8,0:0:0:0:
225,193,15116,2,0,L|350:182,1,95,2|0,0:0|0:0,0:0:0:0:
250,279,15366,2,0,P|159:264|141:241,1,95,8|0,0:0|0:0,0:0:0:0:
91,201,15616,2,0,B|105:135|105:135|98:94,1,95,10|0,0:0|0:0,0:0:0:0:
71,297,15866,2,0,L|93:356,1,47.5,2|0,0:0|0:0,0:0:0:0:
0,237,16033,1,2,0:0:0:0:
161,266,16116,5,6,0:0:0:0:
161,266,16283,1,0,0:0:0:0:
329,201,16449,2,2,P|400:240|379:346,1,190,10|0,0:0|0:2,0:0:0:0:
396,112,16949,2,2,P|444:64|493:64,1,95,2|8,0:0|0:2,0:0:0:0:
486,164,17283,1,2,0:0:0:0:
180,50,17449,5,6,0:0:0:0:
162,58,17533,1,8,0:0:0:0:
138,57,17616,1,8,0:0:0:0:
115,48,17699,1,8,0:0:0:0:
101,37,17783,6,0,P|109:89|91:153,1,95,2|2,0:3|0:1,0:0:0:0:
0,283,18033,2,0,P|-7:236|0:189,1,95,2|2,0:0|0:0,0:0:0:0:
187,227,18283,2,0,L|71:236,1,95,8|8,0:0|0:0,0:0:0:0:
92,234,18533,1,8,0:0:0:0:
92,234,18616,1,2,0:0:0:0:
265,361,18783,5,6,0:0:0:0:
377,371,18949,1,2,0:0:0:0:
447,137,19116,1,8,0:2:0:0:
489,245,19283,2,0,P|399:251|338:155,1,190,4|2,0:2|0:0,0:0:0:0:
271,109,19783,2,0,P|318:81|379:91,1,95,8|2,0:2|0:0,0:0:0:0:
54,194,20116,5,2,0:1:0:0:
92,0,20283,1,8,0:0:0:0:
92,0,20366,1,2,0:0:0:0:
287,33,20533,1,8,0:0:0:0:
287,33,20616,1,2,0:1:0:0:
255,232,20783,1,2,0:0:0:0:
253,236,20866,1,2,0:0:0:0:
251,240,20949,1,0,0:0:0:0:
249,244,21033,1,0,0:0:0:0:
247,248,21116,1,2,0:1:0:0:
245,252,21199,1,0,0:0:0:0:
243,256,21283,1,2,0:0:0:0:
172,116,21449,5,6,0:0:0:0:
384,159,21616,1,2,0:0:0:0:
287,183,21783,1,0,0:0:0:0:
426,242,21949,2,0,P|471:152|419:76,1,190,4|2,0:2|0:0,0:0:0:0:
336,272,22449,2,0,L|344:366,1,95,8|2,0:2|0:0,0:0:0:0:
287,189,22783,5,2,0:0:0:0:
263,183,22866,1,0,0:0:0:0:
239,183,22949,1,2,0:3:0:0:
217,193,23033,1,2,0:3:0:0:
193,198,23116,1,2,0:0:0:0:
169,193,23199,1,0,0:0:0:0:
150,178,23283,2,2,P|134:109|123:94,1,47.5,2|0,0:0|0:0,0:0:0:0:
19,97,23449,5,2,0:3:0:0:
19,101,23533,1,0,0:0:0:0:
19,105,23616,1,0,0:0:0:0:
19,109,23699,1,2,0:3:0:0:
19,113,23783,2,0,L|8:194,1,47.5
116,87,23949,2,0,L|109:39,1,47.5,10|8,0:3|0:3,0:0:0:0:
223,99,24116,6,0,P|304:125|376:70,1,142.5,4|0,0:2|2:0,0:0:0:0:
352,102,24449,1,8,0:2:0:0:
493,174,24616,2,0,P|405:200|385:316,1,190,4|4,0:2|2:0,0:0:0:0:
474,271,25116,1,8,0:2:0:0:
440,82,25283,2,0,L|448:25,1,47.5,4|0,2:0|2:0,0:0:0:0:
365,162,25449,6,0,P|426:194|493:174,1,142.5,4|0,0:2|2:0,0:0:0:0:
493,173,25783,1,8,0:2:0:0:
440,82,25949,2,0,L|268:55,1,142.5,4|0,0:2|2:0,0:0:0:0:
212,95,26283,1,4,0:2:0:0:
207,97,26366,1,4,0:2:0:0:
202,99,26449,1,8,0:2:0:0:
65,40,26616,1,4,0:2:0:0:
85,197,26783,6,0,P|99:267|66:364,1,142.5,4|0,0:2|2:0,0:0:0:0:
83,335,27116,1,8,0:2:0:0:
220,295,27283,2,0,B|270:285|270:285|427:308,1,190,4|4,0:2|0:2,0:0:0:0:
407,305,27783,1,8,0:2:0:0:
484,206,27949,1,4,0:2:0:0:
484,206,28033,1,0,2:0:0:0:
484,206,28116,6,0,P|415:164|426:69,1,142.5,4|0,0:2|2:0,0:0:0:0:
491,121,28449,1,8,0:2:0:0:
325,65,28616,2,0,P|343:42|457:34,1,142.5,4|0,0:2|2:0,0:0:0:0:
448,28,28949,1,4,0:2:0:0:
448,28,29033,1,4,0:2:0:0:
448,28,29116,1,8,0:2:0:0:
251,157,29283,2,0,L|243:97,1,47.5,4|0,0:2|2:0,0:0:0:0:
236,262,29449,6,0,P|159:295|100:242,1,142.5,4|0,0:2|2:0,0:0:0:0:
36,174,29783,2,0,L|29:113,1,47.5,10|0,0:2|2:0,0:0:0:0:
60,325,29949,6,0,P|142:339|160:208,1,227.999993041992,4|4,0:2|0:2,0:0:0:0:
278,327,30449,2,0,P|305:334|333:334,1,56.9999982604981,10|0,0:2|0:0,0:0:0:0:
435,284,30616,2,0,P|509:267|531:247,1,56.9999982604981,6|0,0:2|0:0,0:0:0:0:
239,312,30783,6,0,P|252:336|273:355,1,56.9999982604981,4|0,0:2|0:0,0:0:0:0:
324,191,30949,2,0,P|330:264|351:287,1,56.9999982604981,0|0,0:2|0:0,0:0:0:0:
441,191,31116,2,0,L|453:122,1,56.9999982604981,10|2,0:2|0:2,0:0:0:0:
345,20,31283,2,2,L|355:76,1,56.9999982604981,4|0,0:2|0:2,0:2:0:0:
237,123,31449,6,0,L|231:166,2,37.9999988403321,0|0|0,0:2|0:2|0:0,0:0:0:0:
140,61,31616,2,0,L|146:104,2,37.9999988403321,6|0|0,0:2|0:2|0:0,0:0:0:0:
31,79,31783,6,0,L|38:42,7,28.4999991302491,8|2|0|2|0|0|0|0,0:2|0:2|0:0|0:2|0:0|0:0|0:0|0:0,0:0:0:0:
8,177,32116,1,4,0:2:0:0:
256,192,32199,12,0,34616,0:0:0:0:
89,173,34783,6,0,P|92:216|105:254,1,56.9999982604981,2|0,0:0|0:0,0:0:0:0:
141,74,34949,2,0,P|146:46|147:17,1,56.9999982604981,2|0,0:0|0:0,0:0:0:0:
198,183,35116,2,0,B|246:211|289:181|289:181|292:133|249:98,1,170.999994781494,8|0,0:0|2:0,0:0:0:0:
258,278,35449,2,0,P|297:270|334:241,1,56.9999982604981,0|0,0:0|2:0,0:0:0:0:
380,188,35616,6,0,P|372:130|346:73,1,113.999996520996,2|8,0:0|0:0,0:0:0:0:
455,325,35949,2,0,P|463:267|484:227,1,56.9999982604981,2|0,0:0|0:0,0:0:0:0:
471,82,36116,6,0,B|487:49|487:49|477:131|477:131|488:181,1,170.999994781494,4|0,0:0|2:0,0:0:0:0:
450,318,36449,2,0,L|437:249,1,56.9999982604981,8|0,0:0|2:0,0:0:0:0:
467,77,36616,1,0,0:0:0:0:
445,311,36783,6,0,P|403:300|362:306,1,56.9999982604981,4|0,0:0|0:0,0:0:0:0:
304,246,36949,2,0,P|266:267|241:301,1,56.9999982604981
142,340,37116,2,0,P|153:276|63:312,1,170.999994781494,10|0,0:0|2:0,0:0:0:0:
59,293,37449,6,0,B|74:254|74:254|71:200,1,56.9999982604981,0|0,0:0|2:0,0:0:0:0:
35,102,37616,2,0,P|31:130|34:159,1,56.9999982604981,0|0,0:0|2:0,0:0:0:0:
153,126,37783,2,0,B|116:135|116:135|143:162|143:162|236:145,1,170.999994781494,10|0,0:0|2:0,0:0:0:0:
286,18,38116,2,0,P|283:46|291:73,1,56.9999982604981,0|0,0:0|2:0,0:0:0:0:
359,162,38283,6,0,P|385:114|380:31,1,113.999996520996,2|8,0:0|0:0,0:0:0:0:
479,158,38616,2,0,P|465:200|465:243,1,56.9999982604981,2|0,0:0|0:0,0:0:0:0:
428,331,38783,6,0,L|359:326,1,56.9999982604981,4|0,0:3|0:0,0:0:0:0:
286,284,38949,2,0,L|199:279,1,56.9999982604981,4|0,0:3|0:0,0:0:0:0:
142,340,39116,1,8,0:0:0:0:
142,340,39199,2,0,B|97:334|97:334|72:344|72:344|2:337,1,113.999996520996,4|0,0:3|0:0,0:0:0:0:
49,247,39449,6,0,L|43:206,6,35.625001358986,0|0|0|0|0|8|0,0:0|0:0|0:0|0:0|0:0|0:0|0:0,0:0:0:0:
105,136,39783,2,0,L|110:95,6,35.625001358986
8,10,40116,6,0,L|17:91,1,71.2500027179719,10|0,0:0|2:0,0:0:0:0:
189,183,40283,2,0,L|196:112,1,71.2500027179719,2|0,0:0|2:0,0:0:0:0:
124,23,40449,1,2,0:0:0:0:
279,139,40616,2,0,B|428:143|428:143|312:93,1,213.750008153916,0|0,0:2|2:0,0:0:0:0:
212,52,40949,6,0,P|179:113|189:183,1,142.500005435944,2|8,0:0|0:0,0:0:0:0:
364,310,41283,2,0,L|438:300,1,71.2500027179719,2|0,0:0|0:0,0:0:0:0:
508,167,41449,6,2,P|421:172|410:33,1,213.750008153916,4|0,0:0|2:0,0:0:0:0:
397,43,41783,6,2,P|427:24|465:23,1,71.2500027179719,0|0,0:0|0:0,0:0:0:0:
275,66,41949,2,2,P|277:33|298:-1,1,71.2500027179719,0|0,0:0|0:0,0:0:0:0:
251,188,42116,2,2,P|223:169|204:133,1,71.2500027179719,8|0,0:0|0:0,0:0:0:0:
337,269,42283,2,2,P|307:283|267:282,1,71.2500027179719,0|0,0:0|0:0,0:0:0:0:
443,222,42449,2,2,P|440:254|419:289,1,71.2500027179719,0|0,0:0|0:0,0:0:0:0:
462,115,42616,2,2,P|489:133|508:169,1,71.2500027179719,0|0,0:0|0:0,0:0:0:0:
394,28,42783,6,0,P|352:83|358:153,1,142.500005435944,6|0,0:0|0:0,0:0:0:0:
358,153,43033,1,0,0:0:0:0:
358,153,43116,1,8,0:0:0:0:
464,324,43283,2,0,P|506:269|500:199,1,142.500005435944,6|0,0:0|0:0,0:0:0:0:
358,243,43533,1,0,0:0:0:0:
358,243,43616,2,2,B|370:358|370:358|393:309,1,142.500005435944,2|8,0:0|0:0,0:0:0:0:
362,146,43949,2,0,P|321:149|284:177,1,71.2500027179719,2|0,0:0|2:0,0:0:0:0:
233,248,44116,6,4,L|246:368,2,95.0000036239625,4|4|4,3:0|3:0|3:0,3:0:0:0:
138,111,44449,2,0,P|117:141|122:196,1,71.2500027179719,8|0,0:0|2:0,0:0:0:0:
54,268,44616,2,0,P|84:290|138:284,1,71.2500027179719,4|0,0:3|2:0,0:0:0:0:
252,141,44783,2,0,L|291:149,6,35.625001358986
374,193,45116,2,0,L|408:186,6,35.625001358986
489,126,45449,5,4,0:0:0:0:
256,192,45616,12,4,48116,0:0:0:0:
