osu file format v14

[General]
AudioFilename: PEPSIMAN.mp3
AudioLeadIn: 0
PreviewTime: 33
Countdown: 0
SampleSet: Normal
StackLeniency: 0.7
Mode: 1
LetterboxInBreaks: 0
WidescreenStoryboard: 0

[Editor]
DistanceSpacing: 1.2
BeatDivisor: 4
GridSize: 4
TimelineZoom: 2.1

[Metadata]
Title:PEPSI * MAN
TitleUnicode:PEPSI ☆ MAN
Artist:NOMA
ArtistUnicode:NOMA
Creator:Zetera
Version:INNER ONI MAN
Source:
Tags:MowtenDoo YTPMV MAD Irreversible Snaggletooth Mao Yuzu- [Nicole] Stjpa Feerum Phil stankill
BeatmapID:801015
BeatmapSetID:364712

[Difficulty]
HPDrainRate:5
CircleSize:2
OverallDifficulty:5.8
ApproachRate:9
SliderMultiplier:1.3999999666214
SliderTickRate:1

[Events]
//Background and Video events
0,0,"BG_MTNDW.jpg",0,0
//Break Periods
//Storyboard Layer 0 (Background)
//Storyboard Layer 1 (Fail)
//Storyboard Layer 2 (Pass)
//Storyboard Layer 3 (Foreground)
//Storyboard Sound Samples

[TimingPoints]
1450,333.333333333333,4,1,1,90,1,0
48116,-83.3333333333333,4,1,1,90,0,0

[Colours]
Combo1 : 192,192,192
Combo2 : 128,128,255

[HitObjects]
258,191,1450,5,8,0:0:0:0:
258,191,1783,1,8,0:0:0:0:
258,191,2116,1,8,0:0:0:0:
349,192,2283,1,0,0:0:0:0:
305,100,2449,1,12,0:0:0:0:
159,216,2783,1,4,0:0:0:0:
277,282,2949,1,0,0:0:0:0:
379,293,3033,1,0,0:0:0:0:
349,192,3116,1,8,0:0:0:0:
412,105,3283,1,4,0:0:0:0:
204,95,3449,1,8,0:0:0:0:
204,95,3533,1,8,0:0:0:0:
409,152,3616,1,0,0:0:0:0:
287,141,3783,1,8,0:0:0:0:
287,141,3949,1,8,0:0:0:0:
468,128,4116,1,4,0:0:0:0:
232,198,4283,1,0,0:0:0:0:
232,198,4366,1,0,0:0:0:0:
401,179,4449,1,8,0:0:0:0:
243,81,4616,1,4,0:0:0:0:
164,199,4783,1,8,0:0:0:0:
164,199,4866,1,8,0:0:0:0:
369,197,4949,1,0,0:0:0:0:
245,218,5116,1,8,0:0:0:0:
255,156,5283,1,4,0:0:0:0:
255,156,5449,1,4,0:0:0:0:
313,260,5616,1,0,0:0:0:0:
313,260,5699,1,0,0:0:0:0:
325,198,5783,1,8,0:0:0:0:
331,204,5949,1,0,0:0:0:0:
386,201,6116,1,8,0:0:0:0:
386,201,6199,1,8,0:0:0:0:
388,172,6283,1,0,0:0:0:0:
352,165,6449,1,8,0:0:0:0:
289,187,6533,1,0,0:0:0:0:
339,163,6616,1,8,0:0:0:0:
353,120,6783,1,4,0:0:0:0:
196,219,6949,1,0,0:0:0:0:
196,219,7033,1,0,0:0:0:0:
371,195,7116,1,8,0:0:0:0:
414,182,7283,1,0,0:0:0:0:
281,180,7449,1,8,0:0:0:0:
422,189,7533,1,8,0:0:0:0:
421,177,7616,1,0,0:0:0:0:
387,186,7783,1,8,0:0:0:0:
436,178,7866,1,0,0:0:0:0:
455,171,7949,1,8,0:0:0:0:
435,167,8116,1,4,0:0:0:0:
282,104,8283,1,0,0:0:0:0:
282,104,8366,1,0,0:0:0:0:
390,154,8449,1,8,0:0:0:0:
390,154,8533,1,8,0:0:0:0:
414,157,8616,1,0,0:0:0:0:
307,168,8783,1,8,0:0:0:0:
307,168,8866,1,8,0:0:0:0:
416,175,8949,1,0,0:0:0:0:
416,175,9033,1,0,0:0:0:0:
419,172,9116,1,8,0:0:0:0:
427,176,9199,1,0,0:0:0:0:
427,176,9283,1,0,0:0:0:0:
185,90,9449,1,4,0:0:0:0:
236,201,9616,1,0,0:0:0:0:
304,204,9699,1,0,0:0:0:0:
432,193,9783,1,8,0:0:0:0:
418,215,9866,1,8,0:0:0:0:
437,187,9949,1,0,0:0:0:0:
341,196,10116,1,8,0:0:0:0:
341,196,10199,1,8,0:0:0:0:
439,176,10283,1,0,0:0:0:0:
439,176,10366,1,0,0:0:0:0:
430,173,10449,1,8,0:0:0:0:
437,177,10533,1,0,0:0:0:0:
430,178,10616,1,8,0:0:0:0:
312,114,10783,1,0,0:0:0:0:
295,182,10838,1,0,0:0:0:0:
295,182,10894,1,0,0:0:0:0:
295,182,10949,1,0,0:0:0:0:
276,89,11116,1,8,0:0:0:0:
320,165,11283,1,0,0:0:0:0:
378,100,11449,1,8,0:0:0:0:
378,100,11505,1,8,0:0:0:0:
378,100,11561,1,8,0:0:0:0:
136,127,11616,1,8,0:0:0:0:
199,135,11783,1,8,0:0:0:0:
208,122,11949,1,0,0:0:0:0:
289,205,12116,1,8,0:0:0:0:
289,205,12172,1,8,0:0:0:0:
289,205,12227,1,8,0:0:0:0:
289,205,12283,1,0,0:0:0:0:
399,210,12366,1,0,0:0:0:0:
308,233,12449,1,8,0:0:0:0:
201,217,12616,1,0,0:0:0:0:
201,217,12699,1,0,0:0:0:0:
394,195,12783,1,8,0:0:0:0:
255,149,12949,1,8,0:0:0:0:
255,149,13033,1,8,0:0:0:0:
255,149,13116,1,8,0:0:0:0:
265,158,13283,1,8,0:0:0:0:
375,161,13449,1,0,0:0:0:0:
375,161,13616,1,0,0:0:0:0:
299,116,13783,1,12,0:0:0:0:
299,130,13949,1,0,0:0:0:0:
312,131,14283,1,12,0:0:0:0:
312,131,14616,1,12,0:0:0:0:
230,211,14783,1,0,0:0:0:0:
388,204,14949,1,8,0:0:0:0:
388,204,15033,1,8,0:0:0:0:
407,182,15116,1,0,0:0:0:0:
287,258,15283,1,0,0:0:0:0:
447,180,15366,1,8,0:0:0:0:
301,214,15533,1,8,0:0:0:0:
420,195,15616,1,0,0:0:0:0:
191,272,15783,1,0,0:0:0:0:
388,204,15866,1,8,0:0:0:0:
421,196,15949,1,0,0:0:0:0:
425,188,16033,1,8,0:0:0:0:
404,191,16116,1,0,0:0:0:0:
260,159,16283,1,0,0:0:0:0:
277,120,16449,1,12,0:0:0:0:
384,104,16616,1,0,0:0:0:0:
242,111,16949,1,12,0:0:0:0:
242,111,17283,1,12,0:0:0:0:
253,126,17449,1,8,0:0:0:0:
306,197,17616,1,0,0:0:0:0:
306,197,17699,1,0,0:0:0:0:
306,197,17783,1,8,0:0:0:0:
403,158,17866,1,0,0:0:0:0:
450,161,17949,1,8,0:0:0:0:
105,138,18116,1,8,0:0:0:0:
151,219,18199,1,0,0:0:0:0:
321,201,18283,1,8,0:0:0:0:
221,206,18449,1,0,0:0:0:0:
221,206,18533,1,0,0:0:0:0:
398,178,18616,1,8,0:0:0:0:
245,126,18783,1,0,0:0:0:0:
245,126,18949,1,0,0:0:0:0:
279,140,19116,1,8,0:0:0:0:
348,190,19283,1,0,0:0:0:0:
329,226,19616,1,8,0:0:0:0:
329,226,19949,1,8,0:0:0:0:
188,185,20116,1,12,0:0:0:0:
280,279,20283,1,0,0:0:0:0:
406,189,20366,1,8,0:0:0:0:
313,119,20449,1,0,0:0:0:0:
438,167,20616,1,12,0:0:0:0:
148,86,20783,1,8,0:0:0:0:
148,86,20866,1,8,0:0:0:0:
321,108,20949,1,0,0:0:0:0:
321,108,21033,1,8,0:0:0:0:
306,156,21116,1,0,0:0:0:0:
306,156,21199,1,0,0:0:0:0:
352,160,21283,1,8,0:0:0:0:
252,210,21449,1,0,0:0:0:0:
252,210,21616,1,0,0:0:0:0:
160,176,21783,1,8,0:0:0:0:
225,142,21949,1,0,0:0:0:0:
247,137,22283,1,8,0:0:0:0:
247,137,22616,1,8,0:0:0:0:
269,168,22783,1,8,0:0:0:0:
407,162,22949,1,8,0:0:0:0:
407,162,23033,1,8,0:0:0:0:
457,173,23116,1,0,0:0:0:0:
457,173,23199,1,0,0:0:0:0:
463,171,23283,1,8,0:0:0:0:
462,171,23366,1,8,0:0:0:0:
335,228,23449,1,0,0:0:0:0:
291,94,23616,1,0,0:0:0:0:
429,160,23699,1,8,0:0:0:0:
459,167,23783,1,0,0:0:0:0:
440,169,23866,1,8,0:0:0:0:
440,169,23949,1,8,0:0:0:0:
447,124,24116,1,4,0:0:0:0:
194,194,24283,1,0,0:0:0:0:
231,195,24366,1,0,0:0:0:0:
313,190,24449,1,8,0:0:0:0:
308,133,24616,1,4,0:0:0:0:
275,165,24783,1,8,0:0:0:0:
275,165,24866,1,8,0:0:0:0:
371,178,24949,1,0,0:0:0:0:
261,143,25116,1,8,0:0:0:0:
246,145,25283,1,8,0:0:0:0:
158,96,25449,1,4,0:0:0:0:
204,193,25616,1,0,0:0:0:0:
204,193,25699,1,0,0:0:0:0:
409,181,25783,1,8,0:0:0:0:
287,146,25949,1,4,0:0:0:0:
233,154,26116,1,8,0:0:0:0:
233,154,26199,1,8,0:0:0:0:
404,160,26283,1,0,0:0:0:0:
304,168,26366,1,0,0:0:0:0:
425,169,26449,1,8,0:0:0:0:
387,158,26616,1,4,0:0:0:0:
341,131,26783,1,4,0:0:0:0:
273,128,26949,1,0,0:0:0:0:
273,128,27033,1,0,0:0:0:0:
385,156,27116,1,8,0:0:0:0:
348,134,27283,1,4,0:0:0:0:
293,135,27449,1,8,0:0:0:0:
293,135,27533,1,8,0:0:0:0:
363,153,27616,1,0,0:0:0:0:
385,191,27783,1,8,0:0:0:0:
163,187,27866,1,0,0:0:0:0:
200,136,27949,1,8,0:0:0:0:
102,123,28116,1,4,0:0:0:0:
268,240,28283,1,0,0:0:0:0:
268,240,28366,1,0,0:0:0:0:
407,231,28449,1,8,0:0:0:0:
261,83,28616,1,4,0:0:0:0:
327,88,28783,1,8,0:0:0:0:
424,101,28866,1,8,0:0:0:0:
413,119,28949,1,0,0:0:0:0:
394,148,29116,1,8,0:0:0:0:
234,128,29199,1,0,0:0:0:0:
371,171,29283,1,8,0:0:0:0:
234,134,29449,1,4,0:0:0:0:
206,182,29616,1,0,0:0:0:0:
226,189,29699,1,0,0:0:0:0:
301,174,29783,1,8,0:0:0:0:
181,214,29949,1,0,0:0:0:0:
181,214,30033,1,0,0:0:0:0:
181,214,30116,1,0,0:0:0:0:
238,223,30199,1,0,0:0:0:0:
333,185,30283,1,0,0:0:0:0:
371,171,30449,1,8,0:0:0:0:
378,168,30533,1,0,0:0:0:0:
384,177,30616,1,8,0:0:0:0:
172,162,30783,1,8,0:0:0:0:
396,171,30866,1,0,0:0:0:0:
396,171,30949,1,0,0:0:0:0:
396,171,31033,1,0,0:0:0:0:
437,181,31116,1,8,0:0:0:0:
430,181,31283,1,8,0:0:0:0:
209,139,31449,1,8,0:0:0:0:
409,155,31533,1,0,0:0:0:0:
424,161,31616,1,8,0:0:0:0:
231,180,31783,1,8,0:0:0:0:
231,180,31866,1,8,0:0:0:0:
231,180,31949,1,8,0:0:0:0:
231,180,32033,1,8,0:0:0:0:
347,157,32116,1,0,0:0:0:0:
161,99,32283,1,8,0:0:0:0:
377,166,32366,1,0,0:0:0:0:
321,185,32533,1,8,0:0:0:0:
418,166,32616,1,0,0:0:0:0:
286,139,32783,1,0,0:0:0:0:
322,143,32866,1,0,0:0:0:0:
399,163,32949,1,8,0:0:0:0:
435,174,33033,1,0,0:0:0:0:
399,170,33116,1,8,0:0:0:0:
399,170,33199,1,8,0:0:0:0:
399,170,33283,1,8,0:0:0:0:
257,177,33449,1,8,0:0:0:0:
257,177,33533,1,8,0:0:0:0:
257,177,33616,1,8,0:0:0:0:
257,177,33699,1,8,0:0:0:0:
429,179,33783,1,0,0:0:0:0:
440,184,33866,1,0,0:0:0:0:
420,176,33949,1,8,0:0:0:0:
420,176,34033,1,8,0:0:0:0:
393,176,34116,1,0,0:0:0:0:
393,176,34199,1,0,0:0:0:0:
393,176,34283,1,0,0:0:0:0:
393,176,34366,1,0,0:0:0:0:
444,176,34449,1,8,0:0:0:0:
244,140,34783,5,0,0:0:0:0:
244,140,34949,1,0,0:0:0:0:
337,130,35116,1,12,0:0:0:0:
413,168,35283,1,0,0:0:0:0:
400,119,35616,1,12,0:0:0:0:
400,119,35949,1,12,0:0:0:0:
263,222,36116,1,0,0:0:0:0:
182,144,36199,1,0,0:0:0:0:
263,222,36283,1,0,0:0:0:0:
345,192,36449,1,8,0:0:0:0:
345,192,36616,1,8,0:0:0:0:
401,211,36783,1,0,0:0:0:0:
401,211,36949,1,0,0:0:0:0:
157,111,37116,1,8,0:0:0:0:
157,111,37199,1,8,0:0:0:0:
157,111,37283,1,8,0:0:0:0:
326,108,37449,1,0,0:0:0:0:
326,108,37616,1,0,0:0:0:0:
349,108,37783,1,12,0:0:0:0:
385,105,37949,1,0,0:0:0:0:
189,108,38283,1,12,0:0:0:0:
189,108,38616,1,12,0:0:0:0:
361,167,38783,1,8,0:0:0:0:
425,162,38949,1,0,0:0:0:0:
413,164,39033,1,8,0:0:0:0:
407,165,39199,1,0,0:0:0:0:
414,165,39283,1,8,0:0:0:0:
311,162,39449,1,8,0:0:0:0:
311,162,39533,1,8,0:0:0:0:
414,169,39616,1,0,0:0:0:0:
434,162,39783,1,8,0:0:0:0:
276,166,39866,1,8,0:0:0:0:
276,166,39949,1,8,0:0:0:0:
276,166,40033,1,8,0:0:0:0:
425,168,40116,1,0,0:0:0:0:
214,169,40283,1,0,0:0:0:0:
318,103,40449,1,12,0:0:0:0:
188,128,40616,1,0,0:0:0:0:
266,96,40949,1,12,0:0:0:0:
266,96,41283,1,12,0:0:0:0:
370,151,41449,1,0,0:0:0:0:
370,151,41533,1,0,0:0:0:0:
399,167,41616,1,8,0:0:0:0:
280,200,41783,1,8,0:0:0:0:
201,210,41949,1,8,0:0:0:0:
363,217,42116,1,8,0:0:0:0:
460,180,42199,1,0,0:0:0:0:
436,180,42283,1,8,0:0:0:0:
442,178,42449,1,8,0:0:0:0:
410,188,42616,1,8,0:0:0:0:
172,143,42783,1,12,0:0:0:0:
259,113,42949,1,0,0:0:0:0:
259,113,43116,1,0,0:0:0:0:
398,106,43283,1,12,0:0:0:0:
367,175,43449,1,0,0:0:0:0:
197,193,43616,1,8,0:0:0:0:
398,106,43783,1,12,0:0:0:0:
331,179,43949,1,8,0:0:0:0:
151,77,44116,1,8,0:0:0:0:
274,179,44227,1,8,0:0:0:0:
289,190,44338,1,8,0:0:0:0:
398,168,44449,1,0,0:0:0:0:
436,174,44616,1,0,0:0:0:0:
436,174,44699,1,0,0:0:0:0:
393,169,44783,1,8,0:0:0:0:
327,202,44838,1,8,0:0:0:0:
327,202,44894,1,8,0:0:0:0:
393,190,44949,1,0,0:0:0:0:
269,104,45116,1,8,0:0:0:0:
269,104,45199,1,8,0:0:0:0:
269,104,45283,1,8,0:0:0:0:
394,125,45449,1,12,0:0:0:0:
256,192,45616,12,0,47783,0:0:0:0:
249,200,48116,5,4,0:0:0:0:
