osu file format v14

[General]
AudioFilename: PEPSIMAN.mp3
AudioLeadIn: 0
PreviewTime: 33
Countdown: 0
SampleSet: Normal
StackLeniency: 0.3
Mode: 3
LetterboxInBreaks: 0
SpecialStyle: 0
WidescreenStoryboard: 1

[Editor]
DistanceSpacing: 0.1
BeatDivisor: 4
GridSize: 4
TimelineZoom: 2.799999

[Metadata]
Title:PEPSI * MAN
TitleUnicode:PEPSI ☆ MAN
Artist:NOMA
ArtistUnicode:NOMA
Creator:Zetera
Version:HD MAN
Source:
Tags:MowtenDoo YTPMV MAD Irreversible Snaggletooth Mao Yuzu- [Nicole] Stjpa Feerum Phil stankill
BeatmapID:1283618
BeatmapSetID:364712

[Difficulty]
HPDrainRate:7
CircleSize:4
OverallDifficulty:8
ApproachRate:9.9
SliderMultiplier:2.2
SliderTickRate:1

[Events]
//Background and Video events
0,0,"BG_MTNDW.jpg",0,0
//Break Periods
//Storyboard Layer 0 (Background)
//Storyboard Layer 1 (Fail)
//Storyboard Layer 2 (Pass)
//Storyboard Layer 3 (Foreground)
//Storyboard Sound Samples

[TimingPoints]
1450,333.333333333333,4,2,2,40,1,0

[Colours]
Combo1 : 192,192,192
Combo2 : 128,128,255

[HitObjects]
192,192,1450,5,8,1:0:0:0:
64,192,1450,1,0,0:0:0:40:Finish.wav
192,192,1783,1,8,1:0:0:0:
64,192,1783,1,0,0:0:0:40:Finish.wav
192,192,2116,1,8,1:0:0:0:
64,192,2116,1,0,0:0:0:40:Finish.wav
320,192,2283,1,4,0:0:0:0:
448,192,2283,1,0,0:0:0:0:
64,192,2449,1,8,1:0:0:0:
192,192,2449,1,0,0:0:0:40:Finish.wav
448,192,2783,1,0,0:0:0:50:Cheer.wav
320,192,2783,1,4,0:0:0:0:
64,192,2783,1,0,0:0:0:0:
192,192,2949,1,0,0:0:0:0:
64,192,3116,1,8,0:0:0:0:
320,192,3116,1,0,0:0:0:0:
192,192,3283,1,4,0:0:0:0:
448,192,3283,1,0,0:0:0:0:
320,192,3449,1,0,0:0:0:0:
64,192,3616,1,0,0:0:0:0:
448,192,3783,1,8,0:0:0:0:
320,192,3783,1,0,0:0:0:0:
192,192,3949,1,4,0:0:0:0:
64,192,3949,1,0,0:0:0:0:
320,192,4116,1,4,0:0:0:0:
448,192,4116,1,0,0:0:0:0:
192,192,4283,1,0,0:0:0:0:
64,192,4449,1,8,0:0:0:0:
320,192,4449,1,0,0:0:0:0:
448,192,4616,1,4,0:0:0:0:
192,192,4616,1,0,0:0:0:0:
320,192,4783,1,0,0:0:0:0:
192,192,4949,1,0,0:0:0:0:
448,192,5116,1,8,0:0:0:0:
64,192,5116,1,0,0:0:0:0:
192,192,5283,1,4,0:0:0:0:
320,192,5283,1,0,0:0:0:0:
448,192,5449,1,4,0:0:0:0:
64,192,5449,1,0,0:0:0:0:
192,192,5616,1,0,0:0:0:0:
448,192,5783,1,8,0:0:0:0:
320,192,5783,1,0,0:0:0:0:
192,192,5949,1,4,0:0:0:0:
64,192,5949,1,0,0:0:0:0:
448,192,6116,1,0,0:0:0:0:
192,192,6283,1,0,0:0:0:0:
320,192,6449,1,8,0:0:0:0:
64,192,6449,1,0,0:0:0:0:
448,192,6616,1,4,0:0:0:0:
192,192,6616,1,0,0:0:0:0:
320,192,6783,1,4,0:0:0:0:
64,192,6783,1,0,0:0:0:0:
448,192,6949,1,0,0:0:0:0:
192,192,7116,1,8,0:0:0:0:
320,192,7116,1,0,0:0:0:0:
64,192,7283,1,4,0:0:0:0:
192,192,7283,1,0,0:0:0:0:
448,192,7449,1,0,0:0:0:0:
64,192,7616,1,4,0:0:0:0:
192,192,7616,1,0,0:0:0:0:
448,192,7783,1,8,0:0:0:0:
320,192,7783,1,0,0:0:0:0:
192,192,7949,1,4,0:0:0:0:
64,192,7949,1,0,0:0:0:0:
448,192,8116,1,0,0:0:0:40:Finish.wav
320,192,8116,1,4,0:0:0:0:
64,192,8116,1,0,0:0:0:0:
192,192,8199,1,0,0:0:0:0:
320,192,8283,1,0,0:0:0:0:
192,192,8366,1,0,0:0:0:0:
64,192,8449,1,8,0:0:0:0:
448,192,8533,1,0,0:0:0:0:
320,192,8616,1,4,0:0:0:0:
192,192,8699,1,0,0:0:0:0:
64,192,8783,1,0,0:0:0:0:
192,192,8866,1,0,0:0:0:0:
320,192,8949,1,0,0:0:0:0:
448,192,9033,1,0,0:0:0:0:
64,192,9116,1,8,0:0:0:0:
192,192,9199,1,0,0:0:0:0:
320,192,9283,1,4,0:0:0:0:
448,192,9366,1,0,0:0:0:0:
192,192,9449,1,0,0:0:0:40:Finish.wav
64,192,9449,1,4,0:0:0:0:
320,192,9533,1,0,0:0:0:0:
448,192,9616,1,0,0:0:0:0:
64,192,9699,1,0,0:0:0:0:
192,192,9783,1,8,0:0:0:0:
320,192,9866,1,0,0:0:0:0:
192,192,9949,1,4,0:0:0:0:
64,192,10033,1,0,0:0:0:0:
448,192,10116,1,0,0:0:0:0:
320,192,10199,1,0,0:0:0:0:
192,192,10283,1,0,0:0:0:0:
64,192,10366,1,0,0:0:0:0:
192,192,10449,1,8,0:0:0:0:
320,192,10533,1,0,0:0:0:0:
448,192,10616,1,4,0:0:0:0:
320,192,10699,1,0,0:0:0:0:
64,192,10783,1,0,0:0:0:40:Finish.wav
192,192,10783,1,4,0:0:0:0:
448,192,10866,1,0,0:0:0:0:
320,192,10949,1,0,0:0:0:0:
192,192,11033,1,0,0:0:0:0:
64,192,11116,1,8,0:0:0:0:
448,192,11199,1,0,0:0:0:0:
320,192,11283,1,4,0:0:0:0:
192,192,11366,1,0,0:0:0:0:
64,192,11449,1,4,0:0:0:0:
448,192,11449,1,0,0:0:0:40:Finish.wav
320,192,11533,1,0,0:0:0:0:
192,192,11616,1,0,0:0:0:0:
320,192,11699,1,0,0:0:0:0:
448,192,11783,1,8,0:0:0:0:
64,192,11866,1,0,0:0:0:0:
192,192,11949,1,4,0:0:0:0:
320,192,12033,1,0,0:0:0:0:
448,192,12116,1,4,0:0:0:0:
64,192,12116,1,0,0:0:0:40:Finish.wav
192,192,12199,1,0,0:0:0:0:
320,192,12283,1,0,0:0:0:0:
192,192,12366,1,0,0:0:0:0:
448,192,12449,1,4,0:0:0:0:
64,192,12449,1,0,0:0:0:40:Finish.wav
320,192,12533,1,0,0:0:0:0:
192,192,12616,1,0,0:0:0:0:
320,192,12699,1,0,0:0:0:0:
448,192,12783,1,4,0:0:0:0:
64,192,12783,1,0,0:0:0:40:Finish.wav
192,192,12866,1,0,0:0:0:0:
320,192,12949,1,0,0:0:0:0:
192,192,13033,1,0,0:0:0:0:
448,192,13116,1,4,0:0:0:0:
64,192,13116,1,0,0:0:0:40:Finish.wav
320,192,13199,1,0,0:0:0:0:
192,192,13283,1,0,0:0:0:0:
320,192,13366,1,0,0:0:0:0:
448,192,13449,1,0,0:0:0:40:Finish.wav
64,192,13449,128,4,13533:0:0:0:0:
448,192,13616,1,0,0:0:0:0:
64,192,13616,128,0,13699:0:0:0:0:
320,192,13783,1,8,0:0:0:0:
192,192,13783,1,0,0:0:0:0:
448,192,13949,1,4,0:0:0:0:
320,192,13949,1,0,0:0:0:0:
64,192,14116,1,0,0:0:0:0:
448,192,14283,1,0,0:0:0:0:
320,192,14283,128,0,14449:0:0:0:0:
192,192,14449,1,8,0:0:0:0:
64,192,14449,1,0,0:0:0:0:
448,192,14616,1,4,0:0:0:0:
192,192,14616,128,0,14783:0:0:0:0:
320,192,14783,1,8,3:0:0:0:
64,192,14783,1,0,0:0:0:0:
448,192,14866,1,2,3:0:0:0:
192,192,14949,1,2,3:0:0:0:
320,192,15033,1,2,3:0:0:0:
64,192,15116,1,2,3:0:0:0:
448,192,15199,1,2,3:0:0:0:
192,192,15283,1,8,3:0:0:0:
320,192,15366,1,2,3:0:0:0:
64,192,15449,1,2,3:0:0:0:
448,192,15533,1,2,3:0:0:0:
192,192,15616,1,2,3:0:0:0:
320,192,15699,1,2,3:0:0:0:
64,192,15783,1,2,3:0:0:0:
448,192,15866,1,2,3:0:0:0:
192,192,15949,1,2,3:0:0:0:
320,192,16033,1,2,3:0:0:0:
64,192,16116,1,4,0:0:0:0:
448,192,16116,128,0,16199:0:0:0:0:
448,192,16283,128,0,16366:0:0:0:0:
64,192,16283,1,0,0:0:0:0:
320,192,16449,1,8,0:0:0:0:
192,192,16449,1,0,0:0:0:0:
320,192,16616,1,4,0:0:0:0:
448,192,16616,1,0,0:0:0:0:
192,192,16783,1,0,0:0:0:0:
320,192,16949,128,0,17116:0:0:0:0:
448,192,16949,1,0,0:0:0:0:
64,192,17116,1,8,0:0:0:0:
192,192,17116,1,0,0:0:0:0:
192,192,17283,128,4,17449:0:0:0:0:
64,192,17283,1,0,0:0:0:0:
448,192,17449,1,8,3:0:0:0:
320,192,17449,1,0,0:0:0:0:
64,192,17533,1,8,3:0:0:0:
192,192,17616,1,8,3:0:0:0:
448,192,17699,1,8,3:0:0:0:
320,192,17783,1,2,3:0:0:0:
64,192,17866,1,2,3:0:0:0:
448,192,17949,1,2,3:0:0:0:
320,192,18033,1,2,3:0:0:0:
64,192,18116,1,2,3:0:0:0:
192,192,18199,1,8,3:0:0:0:
448,192,18283,1,2,3:0:0:0:
320,192,18366,1,2,3:0:0:0:
64,192,18449,1,8,3:0:0:0:
192,192,18533,1,8,3:0:0:0:
448,192,18616,1,2,3:0:0:0:
320,192,18699,1,2,3:0:0:0:
64,192,18783,1,4,0:0:0:0:
192,192,18783,128,0,18866:0:0:0:0:
192,192,18949,128,0,19033:0:0:0:0:
64,192,18949,1,0,0:0:0:0:
448,192,19116,1,8,0:0:0:0:
320,192,19116,1,0,0:0:0:0:
64,192,19283,1,4,0:0:0:0:
192,192,19283,1,0,0:0:0:0:
448,192,19449,1,0,0:0:0:0:
64,192,19616,128,0,19783:0:0:0:0:
192,192,19616,1,0,0:0:0:0:
448,192,19783,1,8,0:0:0:0:
320,192,19783,1,0,0:0:0:0:
448,192,19949,128,4,20116:0:0:0:0:
320,192,19949,1,0,0:0:0:0:
192,192,20116,1,8,3:0:0:0:
64,192,20116,1,0,0:0:0:0:
320,192,20199,1,0,0:0:0:0:
448,192,20283,1,8,3:0:0:0:
64,192,20366,1,2,3:0:0:0:
320,192,20449,1,2,3:0:0:0:
192,192,20533,1,8,3:0:0:0:
448,192,20616,1,8,3:0:0:0:
64,192,20699,1,2,3:0:0:0:
192,192,20783,1,2,3:0:0:0:
448,192,20866,1,2,3:0:0:0:
320,192,20949,1,2,3:0:0:0:
64,192,21033,1,2,3:0:0:0:
192,192,21116,1,8,3:0:0:0:
448,192,21199,1,2,3:0:0:0:
64,192,21283,1,2,3:0:0:0:
320,192,21366,1,0,0:0:0:0:
448,192,21449,1,4,0:0:0:0:
192,192,21449,128,0,21533:0:0:0:0:
192,192,21616,128,0,21699:0:0:0:0:
448,192,21616,1,0,0:0:0:0:
320,192,21783,1,8,0:0:0:0:
64,192,21783,1,0,0:0:0:0:
448,192,21949,1,4,0:0:0:0:
192,192,21949,1,0,0:0:0:0:
320,192,22116,1,0,0:0:0:0:
192,192,22283,128,0,22449:0:0:0:0:
64,192,22283,1,0,0:0:0:0:
448,192,22449,1,8,0:0:0:0:
320,192,22449,1,0,0:0:0:0:
320,192,22616,128,4,22783:0:0:0:0:
448,192,22616,1,0,0:0:0:0:
64,192,22783,1,8,3:0:0:0:
192,192,22783,1,0,0:0:0:0:
448,192,22866,1,2,3:0:0:0:
320,192,22949,1,2,3:0:0:0:
64,192,23033,1,2,3:0:0:0:
192,192,23116,1,2,3:0:0:0:
320,192,23199,1,2,3:0:0:0:
448,192,23283,1,8,3:0:0:0:
320,192,23366,1,2,3:0:0:0:
192,192,23449,1,2,3:0:0:0:
64,192,23533,1,2,3:0:0:0:
448,192,23616,1,2,3:0:0:0:
320,192,23699,1,2,3:0:0:0:
64,192,23783,1,8,3:0:0:0:
192,192,23866,1,2,3:0:0:0:
320,192,23949,1,2,3:0:0:0:
448,192,24033,1,2,3:0:0:0:
192,192,24116,1,0,0:0:0:50:Cheer.wav
64,192,24116,1,0,0:0:0:40:Finish.wav
320,192,24283,1,0,0:0:0:0:
448,192,24449,1,8,0:0:0:0:
192,192,24449,1,0,0:0:0:0:
320,192,24616,1,4,0:0:0:0:
64,192,24616,1,0,0:0:0:0:
192,192,24783,1,0,0:0:0:0:
448,192,24949,1,0,0:0:0:0:
320,192,25116,1,8,0:0:0:0:
64,192,25116,1,0,0:0:0:0:
192,192,25283,1,4,0:0:0:0:
448,192,25449,1,4,0:0:0:0:
320,192,25449,1,0,0:0:0:0:
64,192,25616,1,0,0:0:0:0:
192,192,25783,1,8,0:0:0:0:
320,192,25783,1,0,0:0:0:0:
448,192,25949,1,4,0:0:0:0:
320,192,25949,1,0,0:0:0:0:
64,192,26116,1,0,0:0:0:0:
320,192,26283,1,0,0:0:0:0:
192,192,26449,1,8,0:0:0:0:
448,192,26449,1,0,0:0:0:0:
64,192,26616,1,4,0:0:0:0:
192,192,26783,1,4,0:0:0:0:
320,192,26783,1,0,0:0:0:0:
448,192,26949,1,0,0:0:0:0:
64,192,27116,1,8,0:0:0:0:
192,192,27116,1,0,0:0:0:0:
320,192,27283,1,4,0:0:0:0:
448,192,27283,1,0,0:0:0:0:
64,192,27449,1,0,0:0:0:0:
320,192,27616,1,0,0:0:0:0:
192,192,27783,1,8,0:0:0:0:
448,192,27783,1,0,0:0:0:0:
64,192,27949,1,4,0:0:0:0:
320,192,28116,1,4,0:0:0:0:
448,192,28116,1,0,0:0:0:0:
192,192,28283,1,0,0:0:0:0:
320,192,28449,1,8,0:0:0:0:
64,192,28449,1,0,0:0:0:0:
192,192,28616,1,4,0:0:0:0:
448,192,28616,1,0,0:0:0:0:
320,192,28783,1,0,0:0:0:0:
64,192,28949,1,4,0:0:0:0:
192,192,28949,1,0,0:0:0:0:
448,192,29116,1,8,0:0:0:0:
320,192,29116,1,0,0:0:0:0:
192,192,29283,1,4,0:0:0:0:
64,192,29283,1,0,0:0:0:0:
320,192,29449,1,4,0:0:0:0:
448,192,29449,1,0,0:0:0:0:
192,192,29616,1,0,0:0:0:0:
448,192,29783,1,8,0:0:0:0:
64,192,29783,1,0,0:0:0:0:
192,192,29949,1,4,0:0:0:0:
320,192,29949,1,0,0:0:0:0:
64,192,30116,1,0,0:0:0:0:
448,192,30283,1,0,0:0:0:0:
320,192,30449,1,8,0:0:0:0:
192,192,30449,1,0,0:0:0:0:
64,192,30616,1,4,0:0:0:0:
448,192,30783,1,4,0:0:0:0:
320,192,30783,1,0,0:0:0:0:
192,192,30949,1,0,0:0:0:0:
320,192,31116,1,8,0:0:0:0:
64,192,31116,1,0,0:0:0:0:
448,192,31283,1,4,0:0:0:0:
320,192,31283,1,0,0:0:0:0:
64,192,31449,1,0,0:0:0:0:
192,192,31616,1,0,0:0:0:0:
320,192,31783,1,8,0:0:0:0:
64,192,31783,1,0,0:0:0:0:
448,192,31949,1,4,0:0:0:0:
320,192,32116,1,4,0:0:0:0:
192,192,32116,1,0,0:0:0:0:
64,192,32283,1,0,0:0:0:0:
448,192,32449,1,8,0:0:0:0:
320,192,32449,1,0,0:0:0:0:
192,192,32616,1,4,0:0:0:0:
64,192,32616,1,0,0:0:0:0:
320,192,32783,1,4,0:0:0:0:
192,192,32783,1,0,0:0:0:0:
448,192,32949,1,0,0:0:0:0:
64,192,33116,1,8,0:0:0:0:
320,192,33116,1,0,0:0:0:0:
192,192,33283,1,4,0:0:0:0:
448,192,33449,1,4,0:0:0:0:
320,192,33449,1,0,0:0:0:0:
192,192,33783,1,8,0:0:0:0:
64,192,33783,1,0,0:0:0:0:
448,192,34116,1,4,0:0:0:0:
320,192,34116,1,0,0:0:0:0:
192,192,34449,1,8,0:0:0:0:
64,192,34449,1,0,0:0:0:0:
320,192,34783,1,0,0:0:0:40:Finish.wav
64,192,34783,1,4,0:0:0:0:
448,192,34783,128,0,34866:0:0:0:0:
448,192,34949,128,0,35033:0:0:0:0:
320,192,34949,1,0,0:0:0:0:
192,192,35116,1,8,0:0:0:0:
64,192,35116,1,0,0:0:0:0:
320,192,35283,1,4,0:0:0:0:
448,192,35283,1,0,0:0:0:0:
192,192,35449,1,0,0:0:0:0:
64,192,35616,128,0,35783:0:0:0:0:
320,192,35616,1,0,0:0:0:0:
192,192,35783,1,8,0:0:0:0:
448,192,35783,1,0,0:0:0:0:
448,192,35949,128,4,36116:0:0:0:0:
192,192,35949,1,0,0:0:0:0:
320,192,36116,1,4,0:0:0:0:
64,192,36116,128,0,36449:0:0:0:0:
192,192,36449,128,0,36616:0:0:0:0:
448,192,36616,1,4,0:0:0:0:
320,192,36616,1,0,0:0:0:0:
320,192,36783,1,8,0:0:0:0:
64,192,36783,1,0,0:0:0:0:
64,192,36949,1,0,0:0:0:0:
192,192,37116,128,0,37449:0:0:0:0:
320,192,37449,128,4,37533:0:0:0:0:
448,192,37449,1,0,0:0:0:0:
320,192,37616,128,0,37699:0:0:0:0:
448,192,37616,1,0,0:0:0:0:
192,192,37783,1,8,0:0:0:0:
64,192,37783,1,0,0:0:0:0:
448,192,37949,1,4,0:0:0:0:
320,192,37949,1,0,0:0:0:0:
192,192,38116,1,0,0:0:0:0:
448,192,38283,128,0,38449:0:0:0:0:
64,192,38283,1,0,0:0:0:0:
320,192,38449,1,8,0:0:0:0:
192,192,38449,1,0,0:0:0:0:
64,192,38616,128,4,38783:0:0:0:0:
448,192,38616,1,0,0:0:0:0:
192,192,38783,1,4,0:0:0:0:
320,192,38783,128,0,39033:0:0:0:0:
192,192,39033,1,4,0:0:0:0:
64,192,39033,1,0,0:0:0:0:
448,192,39116,128,0,39283:0:0:0:0:
320,192,39283,1,4,0:0:0:0:
192,192,39283,1,0,0:0:0:0:
64,192,39449,1,8,0:0:0:0:
448,192,39449,1,0,0:0:0:0:
192,192,39533,1,0,0:0:0:0:
320,192,39616,1,0,0:0:0:0:
192,192,39699,1,0,0:0:0:0:
448,192,39783,1,0,0:0:0:0:
64,192,39866,1,0,0:0:0:0:
320,192,39949,1,0,0:0:0:0:
192,192,40033,1,0,0:0:0:0:
448,192,40116,1,4,0:0:0:0:
64,192,40116,128,0,40199:0:0:0:0:
64,192,40283,128,0,40366:0:0:0:0:
448,192,40283,1,0,0:0:0:0:
320,192,40449,1,8,0:0:0:0:
192,192,40449,1,0,0:0:0:0:
448,192,40616,1,4,0:0:0:0:
64,192,40616,1,0,0:0:0:0:
320,192,40783,1,0,0:0:0:0:
192,192,40949,128,0,41116:0:0:0:0:
448,192,40949,1,0,0:0:0:0:
320,192,41116,1,8,0:0:0:0:
64,192,41116,1,0,0:0:0:0:
320,192,41283,128,4,41449:0:0:0:0:
192,192,41283,1,0,0:0:0:0:
64,192,41449,1,4,0:0:0:0:
448,192,41449,128,0,41783:0:0:0:0:
448,192,41866,1,0,0:0:0:0:
448,192,42033,1,0,0:0:0:0:
448,192,42199,1,0,0:0:0:0:
448,192,42366,1,0,0:0:0:0:
448,192,42533,1,0,0:0:0:0:
448,192,42699,1,0,0:0:0:0:
320,192,42783,1,4,0:0:0:0:
192,192,42783,128,0,42866:0:0:0:0:
192,192,42949,128,0,43033:0:0:0:0:
320,192,42949,1,0,0:0:0:0:
448,192,43116,1,8,0:0:0:0:
64,192,43116,1,0,0:0:0:0:
192,192,43283,1,4,0:0:0:0:
320,192,43283,1,0,0:0:0:0:
64,192,43449,1,0,0:0:0:0:
448,192,43616,128,0,43783:0:0:0:0:
320,192,43616,1,0,0:0:0:0:
192,192,43783,1,8,0:0:0:0:
64,192,43783,1,0,0:0:0:0:
64,192,43949,128,4,44116:0:0:0:0:
320,192,43949,1,0,0:0:0:0:
192,192,44116,1,4,0:0:0:0:
448,192,44116,128,0,44227:0:0:0:0:
320,192,44227,128,0,44338:0:0:0:0:
192,192,44338,128,0,44449:0:0:0:0:
64,192,44449,128,0,44616:0:0:0:0:
448,192,44616,1,4,0:0:0:0:
192,192,44616,1,0,0:0:0:0:
320,192,44616,128,0,44783:0:0:0:0:
448,192,44783,128,8,45116:0:0:0:0:
192,192,44783,1,0,0:0:0:0:
64,192,44783,1,0,0:0:0:0:
192,192,45116,128,0,45449:0:0:0:0:
320,192,45449,1,0,0:0:0:40:Finish.wav
448,192,45449,1,4,0:0:0:0:
64,192,45449,1,0,0:0:0:0:
