osu file format v14

[General]
AudioFilename: PEPSIMAN.mp3
AudioLeadIn: 0
PreviewTime: 33
Countdown: 0
SampleSet: Soft
StackLeniency: 0.7
Mode: 0
LetterboxInBreaks: 0
WidescreenStoryboard: 0

[Editor]
Bookmarks: 8035,24035,30035,34702,36035,37368,38702,40035,41368,44035,45368
DistanceSpacing: 0.6
BeatDivisor: 4
GridSize: 4
TimelineZoom: 4.099998

[Metadata]
Title:PEPSI * MAN
TitleUnicode:PEPSI ☆ MAN
Artist:NOMA
ArtistUnicode:NOMA
Creator:Zetera
Version:EXTREME MAN
Source:
Tags:MowtenDoo YTPMV MAD Irreversible Snaggletooth Mao Yuzu- [Nicole] Stjpa Feerum Phil stankill
BeatmapID:800535
BeatmapSetID:364712

[Difficulty]
HPDrainRate:8
CircleSize:4.5
OverallDifficulty:8.5
ApproachRate:9
SliderMultiplier:1.8
SliderTickRate:1

[Events]
//Background and Video events
0,0,"BG_MTNDW.jpg",0,0
//Break Periods
//Storyboard Layer 0 (Background)
//Storyboard Layer 1 (Fail)
//Storyboard Layer 2 (Pass)
//Storyboard Layer 3 (Foreground)
//Storyboard Sound Samples

[TimingPoints]
1450,333.333333333333,4,1,0,100,1,0
2449,-66.6666666666667,4,1,0,100,0,0
2783,-100,4,1,0,100,0,0
30783,-83.3333333333333,4,1,0,100,0,0
31449,-71.4285714285714,4,1,0,100,0,0
32116,-83.3333333333333,4,1,0,100,0,0
32449,-100,4,1,0,100,0,0
32949,-71.4285714285714,4,1,0,100,0,0
33116,-62.5,4,1,0,100,0,0
33449,-76.9230769230769,4,1,0,100,0,0
34783,-100,4,1,0,100,0,0
36116,-117.647058823529,4,2,0,100,0,0
37116,-83.3333333333333,4,1,0,100,0,0
37449,-100,4,1,0,100,0,0
38783,-76.9230769230769,4,1,0,100,0,0
40116,-100,4,1,0,100,0,0
41449,-90.9090909090909,4,2,0,100,0,0
41949,-200,4,2,0,100,0,0
42283,-142.857142857143,4,2,0,100,0,0
42616,-111.111111111111,4,2,0,100,0,0
42783,-100,4,1,0,100,0,0
44116,-125,4,2,0,100,0,0
45533,-125,4,1,0,50,0,0
48116,-125,4,1,3,50,0,0

[Colours]
Combo1 : 40,140,220
Combo2 : 255,0,0
Combo3 : 70,70,70

[HitObjects]
128,87,1450,5,8,0:2:0:0:
132,108,1783,1,8,0:2:0:0:
136,129,2116,1,8,0:2:0:0:
163,286,2283,2,0,L|174:341,1,45,4|0,0:3|0:0,0:0:0:0:
235,225,2449,6,0,B|170:260|112:214|112:214|83:233|73:274,1,202.500007724762,2|0,0:0|2:0,0:0:0:0:
256,307,2783,6,0,P|305:270|312:189,1,135,4|0,0:0|0:0,0:0:0:0:
303,176,3116,1,8,0:0:0:0:
175,22,3283,2,0,L|359:44,1,180,4|0,0:3|0:0,0:0:0:0:
426,311,3783,1,8,0:0:0:0:
504,39,3949,2,0,L|493:93,1,45,4|0,0:3|0:0,0:0:0:0:
404,178,4116,6,0,L|427:315,1,135,4|0,0:3|0:0,0:0:0:0:
431,337,4449,1,8,0:0:0:0:
212,232,4616,1,4,0:3:0:0:
217,198,4699,1,0,0:0:0:0:
223,165,4782,1,0,0:0:0:0:
228,132,4865,1,0,0:0:0:0:
234,98,4949,1,0,0:0:0:0:
259,331,5116,1,8,0:0:0:0:
142,136,5283,2,0,L|150:81,1,45,4|0,0:3|0:0,0:0:0:0:
37,152,5449,6,0,P|94:214|109:273,1,135,4|0,0:3|0:0,0:0:0:0:
106,288,5783,1,8,0:0:0:0:
319,64,5949,2,0,P|272:82|164:26,1,180,4|0,0:3|0:0,0:0:0:0:
423,18,6449,1,8,0:0:0:0:
423,18,6533,1,0,0:0:0:0:
423,18,6616,2,0,L|477:25,1,45,4|0,0:3|0:0,0:0:0:0:
363,167,6783,6,0,L|218:185,1,135,4|0,0:3|0:0,0:0:0:0:
202,186,7116,1,8,0:0:0:0:
437,364,7283,2,0,P|398:336|460:248,1,180,4|4,0:3|0:3,0:0:0:0:
278,371,7783,2,0,P|263:354|243:342,1,45,8|0,0:0|0:2,0:0:0:0:
40,343,7949,2,0,P|54:326|74:314,1,45,4|0,0:3|0:2,0:0:0:0:
202,186,8116,5,4,0:2:0:0:
166,213,8199,1,0,0:0:0:0:
122,220,8282,1,0,0:0:0:0:
80,206,8366,1,0,0:0:0:0:
51,173,8449,1,8,0:0:0:0:
40,129,8532,1,0,0:0:0:0:
52,86,8616,1,4,0:3:0:0:
93,101,8699,1,0,0:0:0:0:
137,94,8782,1,0,0:0:0:0:
172,66,8866,1,0,0:0:0:0:
206,37,8949,1,0,0:0:0:0:
250,30,9032,1,0,0:0:0:0:
292,45,9116,2,0,L|307:99,1,45,8|0,0:0|0:0,0:0:0:0:
458,140,9283,2,0,L|470:96,1,45,4|0,0:3|0:0,0:0:0:0:
499,333,9449,5,4,0:2:0:0:
495,284,9532,1,0,0:0:0:0:
464,246,9615,1,0,0:0:0:0:
417,234,9699,1,0,0:0:0:0:
367,253,9782,1,8,0:0:0:0:
316,272,9865,1,0,0:0:0:0:
266,292,9949,1,4,0:3:0:0:
215,311,10032,1,0,0:0:0:0:
164,330,10116,1,0,0:0:0:0:
114,349,10199,1,0,0:0:0:0:
67,337,10283,1,0,0:0:0:0:
36,299,10366,1,0,0:0:0:0:
33,251,10449,2,0,L|77:236,1,45,8|0,0:0|0:0,0:0:0:0:
182,136,10616,2,0,L|140:151,1,45,4|0,0:3|0:0,0:0:0:0:
29,72,10783,6,0,L|64:59,2,22.5,4|0|0,0:2|0:0|0:0,0:0:0:0:
146,66,10949,5,0,0:0:0:0:
146,66,11033,1,0,0:0:0:0:
146,66,11116,2,0,L|190:51,1,45,8|0,0:0|0:0,0:0:0:0:
254,95,11283,2,0,L|296:109,1,45,4|0,0:3|0:0,0:0:0:0:
380,72,11449,6,0,L|392:90,2,22.5,4|0|0,0:2|0:0|0:0,0:0:0:0:
486,77,11616,5,0,0:0:0:0:
486,77,11699,1,0,0:0:0:0:
486,77,11783,2,0,L|462:35,1,45,8|0,0:0|0:0,0:0:0:0:
445,154,11949,2,0,L|421:192,1,45,4|0,0:3|0:0,0:0:0:0:
484,276,12116,6,0,L|477:239,4,22.5,4|0|0|0|0,0:2|0:0|0:0|0:0|0:0,0:0:0:0:
355,324,12449,2,0,L|359:346,4,22.5,4|0|0|0|0,0:2|0:0|0:0|0:0|0:0,0:0:0:0:
205,257,12783,2,0,L|198:220,4,22.5,4|0|0|0|0,0:2|0:0|0:0|0:0|0:0,0:0:0:0:
76,305,13116,2,0,L|80:327,4,22.5,4|0|0|0|0,0:2|0:0|0:0|0:0|0:0,0:0:0:0:
179,79,13449,5,6,0:0:0:0:
59,205,13616,1,2,0:0:0:0:
61,30,13783,2,0,L|111:50,1,45,10|0,0:0|0:0,0:0:0:0:
257,114,13949,2,0,P|317:113|375:51,1,135,4|0,0:3|0:0,0:0:0:0:
397,61,14283,2,0,L|445:40,1,45,2|0,0:0|0:0,0:0:0:0:
408,192,14449,1,8,0:0:0:0:
285,29,14616,1,2,0:0:0:0:
225,229,14783,5,4,3:0:0:0:
231,250,14866,1,0,0:0:0:0:
238,272,14949,1,0,0:0:0:0:
244,293,15033,1,0,0:0:0:0:
252,317,15116,2,0,L|346:337,1,90,8|4,0:0|3:0,0:0:0:0:
174,347,15366,2,0,L|80:367,1,90,2|0,3:0|0:0,0:0:0:0:
23,296,15616,1,2,3:0:0:0:
44,291,15699,1,0,0:0:0:0:
66,286,15783,1,8,0:0:0:0:
58,265,15866,1,0,0:0:0:0:
50,243,15949,1,2,0:3:0:0:
42,221,16033,1,0,0:0:0:0:
34,199,16116,5,6,0:0:0:0:
225,229,16283,1,2,0:0:0:0:
44,33,16449,2,0,L|93:40,1,45,8|2,0:0|0:0,0:0:0:0:
235,63,16616,2,0,L|376:45,1,135,4|0,0:3|0:0,0:0:0:0:
391,42,16949,2,0,P|380:79|384:96,1,45,2|0,0:0|0:0,0:0:0:0:
505,275,17116,1,8,0:0:0:0:
455,76,17283,1,2,0:0:0:0:
314,222,17449,5,4,3:0:0:0:
291,223,17532,1,0,0:0:0:0:
269,225,17615,1,0,0:0:0:0:
246,226,17698,1,0,0:0:0:0:
224,229,17783,2,0,P|218:276|194:311,1,90,8|4,0:0|0:3,0:0:0:0:
199,155,18033,2,0,P|167:128|117:115,1,90,2|0,3:0|0:0,0:0:0:0:
31,149,18283,1,2,3:0:0:0:
26,127,18366,1,0,0:0:0:0:
21,104,18449,1,8,0:0:0:0:
33,84,18533,1,0,0:0:0:0:
45,65,18616,1,2,0:3:0:0:
57,46,18699,1,0,0:0:0:0:
69,27,18783,5,6,0:0:0:0:
256,102,18949,1,2,0:0:0:0:
443,27,19116,2,0,L|382:33,1,45,8|0,0:0|0:0,0:0:0:0:
310,157,19283,2,0,P|340:117|431:120,1,135,4|0,0:3|0:0,0:0:0:0:
440,122,19616,2,0,L|457:170,1,45,2|0,0:0|0:0,0:0:0:0:
495,293,19783,1,8,0:0:0:0:
269,360,19949,1,2,0:0:0:0:
384,185,20116,5,4,3:0:0:0:
389,206,20199,1,0,0:0:0:0:
395,228,20282,1,0,0:0:0:0:
401,250,20365,1,0,0:0:0:0:
406,272,20449,2,0,L|399:330,2,45,8|0|4,0:0|0:0|0:3,0:0:0:0:
245,276,20699,2,0,L|234:231,2,45,2|2|0,3:0|0:3|0:0,0:0:0:0:
126,361,20949,1,2,3:0:0:0:
103,355,21033,1,0,0:0:0:0:
80,351,21116,1,8,0:0:0:0:
71,330,21199,1,0,0:0:0:0:
62,309,21283,1,2,0:3:0:0:
53,288,21366,1,0,0:0:0:0:
44,267,21449,5,6,0:0:0:0:
202,162,21616,1,2,0:0:0:0:
10,188,21783,2,0,L|16:131,1,45,8|0,0:0|0:0,0:0:0:0:
162,30,21949,2,0,P|121:59|40:23,1,135,4|0,0:3|0:0,0:0:0:0:
29,17,22283,2,0,L|24:61,1,45,2|0,0:0|0:0,0:0:0:0:
112,206,22449,1,8,0:0:0:0:
286,117,22616,1,2,0:0:0:0:
368,329,22783,5,4,3:0:0:0:
389,335,22866,1,0,0:0:0:0:
411,338,22949,1,0,0:0:0:0:
434,336,23032,1,0,0:0:0:0:
455,330,23116,1,8,0:0:0:0:
475,320,23199,1,0,0:0:0:0:
469,244,23283,21,4,0:3:0:0:
449,254,23366,1,2,3:0:0:0:
427,260,23450,1,0,0:0:0:0:
405,262,23533,1,0,0:0:0:0:
382,259,23616,1,2,3:0:0:0:
361,252,23699,1,0,0:0:0:0:
401,184,23783,21,8,0:0:0:0:
442,172,23866,1,0,0:0:0:0:
456,131,23949,1,2,0:3:0:0:
429,97,24032,1,0,0:0:0:0:
386,100,24116,6,0,L|236:128,1,135,4|0,0:0|0:0,0:0:0:0:
241,144,24449,1,8,0:0:0:0:
11,45,24616,2,0,P|13:95|121:142,1,180,4|0,0:3|0:0,0:0:0:0:
295,24,25116,1,8,0:0:0:0:
338,239,25283,2,0,L|286:226,1,45,4|0,0:3|0:0,0:0:0:0:
212,330,25449,6,0,L|353:318,1,135,4|0,0:3|0:0,0:0:0:0:
369,316,25783,1,8,0:0:0:0:
487,117,25949,1,4,0:3:0:0:
442,113,26032,1,0,0:0:0:0:
397,109,26115,1,0,0:0:0:0:
352,105,26198,1,0,0:0:0:0:
307,101,26282,1,0,0:0:0:0:
457,204,26449,1,8,0:0:0:0:
287,28,26616,2,0,P|253:43|237:63,1,45,4|0,0:3|0:0,0:0:0:0:
160,219,26783,6,0,L|138:65,1,135,4|0,0:3|0:0,0:0:0:0:
134,63,27116,1,8,0:0:0:0:
104,340,27283,2,0,P|135:286|250:254,1,180,4|0,0:3|0:0,0:0:0:0:
453,317,27783,1,8,0:0:0:0:
453,317,27866,1,0,0:0:0:0:
453,317,27949,2,0,L|462:370,1,45,4|0,0:3|0:0,0:0:0:0:
361,253,28116,6,0,B|369:164|369:164|405:126,1,135,4|0,0:3|0:0,0:0:0:0:
418,117,28449,1,8,0:0:0:0:
207,39,28616,2,0,P|196:110|79:122,1,180,4|4,0:3|0:3,0:0:0:0:
281,112,29116,2,0,P|287:81|289:56,1,45,8|0,0:0|0:0,0:0:0:0:
223,192,29283,2,0,P|193:211|172:217,1,45,4|0,0:3|0:0,0:0:0:0:
24,315,29449,6,0,L|164:337,1,135,4|0,0:3|0:0,0:0:0:0:
179,340,29783,1,8,0:0:0:0:
401,370,29949,1,4,0:3:0:0:
504,168,30116,2,0,B|468:184|468:184|455:183|455:183|419:198,1,90,2|0,0:0|0:0,0:0:0:0:
240,23,30449,2,0,B|276:39|276:39|289:38|289:38|325:53,1,90,10|4,0:0|0:3,0:0:0:0:
165,102,30783,6,0,P|138:82|108:80,1,53.9999983520508,2|0,0:0|0:0,0:0:0:0:
60,194,30949,2,0,P|86:188|106:170,1,53.9999983520508
229,246,31116,2,0,L|167:231,1,53.9999983520508,10|0,0:0|0:0,0:0:0:0:
348,357,31283,2,0,L|410:372,1,53.9999983520508,4|0,0:3|0:0,0:0:0:0:
374,235,31449,6,0,B|368:253|368:253|349:267|323:258,3,62.9999980773926,2|0|0|0,0:0|0:0|0:0|0:0,0:0:0:0:
443,110,31783,2,0,B|449:92|449:92|468:78|494:87,3,62.9999980773926,10|0|4|0,0:0|0:0|0:3|0:0,0:0:0:0:
332,124,32116,6,2,B|298:67|233:49|233:49|242:82,1,161.999995056153,2|0,0:0|0:0,0:0:0:0:
146,133,32449,6,0,L|94:125,1,45,10|0,0:0|0:0,0:0:0:0:
49,245,32616,2,0,L|-3:237,1,45,4|0,0:3|0:0,0:0:0:0:
113,346,32783,2,0,L|165:338,1,45,2|2,0:0|0:0,0:0:0:0:
284,308,32949,6,0,B|286:276|286:276|272:249,1,62.9999980773926
332,124,33116,6,2,B|346:158|346:158|370:168|370:168|406:241,1,144,10|4,0:0|0:3,0:0:0:0:
421,251,33366,1,0,0:0:0:0:
435,261,33449,6,0,B|445:142|445:142|500:114,1,175.499991966248,4|0,0:0|2:0,0:0:0:0:
397,30,33783,2,0,P|359:85|270:41,1,175.499991966248,12|0,0:0|2:0,0:0:0:0:
86,108,34116,2,0,P|155:66|210:126,1,175.499991966248,4|0,0:0|2:0,0:0:0:0:
150,263,34449,2,0,B|17:284|17:284|71:313,1,175.499991966248,12|0,0:0|2:0,0:0:0:0:
299,304,34783,5,0,0:0:0:0:
113,346,34949,1,0,0:0:0:0:
186,175,35116,2,0,P|199:157|227:145,1,45,8|0,0:0|0:0,0:0:0:0:
330,227,35283,2,0,L|351:376,1,135
365,376,35616,1,0,0:0:0:0:
488,186,35783,1,8,0:0:0:0:
292,77,35949,2,0,L|342:89,1,45
228,28,36116,6,0,B|186:48|186:48|156:30|118:42,1,114.750002188683,6|0,0:0|0:0,0:0:0:0:
149,109,36449,1,2,0:0:0:0:
10,42,36616,1,4,3:0:0:0:
15,218,36783,2,0,L|62:229,1,38.2500007295609,0|0,1:0|2:0,0:0:0:0:
203,305,36949,2,0,L|165:296,1,38.2500007295609,0|0,1:0|2:0,0:0:0:0:
233,370,37116,6,2,B|290:333|260:265|260:265|277:264|309:290,1,161.999995056153,2|0,0:0|2:0,0:0:0:0:
367,359,37449,5,6,0:0:0:0:
491,116,37616,1,2,0:0:0:0:
461,333,37783,2,0,L|450:278,1,45,8|0,0:0|0:0,0:0:0:0:
417,154,37949,2,0,P|410:98|458:36,1,135,4|0,0:3|0:0,0:0:0:0:
476,31,38283,1,2,0:0:0:0:
381,233,38449,1,8,0:0:0:0:
253,52,38616,2,0,L|302:65,1,45,2|0,0:0|0:0,0:0:0:0:
243,154,38783,38,0,P|181:176|151:136,1,116.999994644165,4|0,0:3|0:0,0:0:0:0:
49,253,39033,2,0,P|90:216|139:242,1,116.999994644165,4|0,0:3|0:0,0:0:0:0:
170,342,39283,1,4,0:3:0:0:
375,339,39449,6,0,L|344:345,1,29.2499986610413
407,310,39533,2,0,L|376:316,1,29.2499986610413
420,269,39616,2,0,L|389:275,1,29.2499986610413
409,227,39699,2,0,L|378:233,1,29.2499986610413
376,198,39782,21,0,0:0:0:0:
343,168,39866,22,0,L|374:162,1,29.2499986610413
330,122,39949,2,0,L|361:116,1,29.2499986610413
345,85,40033,2,0,L|376:79,1,29.2499986610413
377,57,40115,5,6,0:0:0:0:
484,122,40283,1,2,0:0:0:0:
325,268,40449,2,0,L|280:258,1,45,8|0,0:0|0:0,0:0:0:0:
165,189,40616,2,0,L|186:334,1,135,4|0,0:3|0:0,0:0:0:0:
170,342,40949,1,2,0:0:0:0:
35,191,41116,1,8,0:0:0:0:
142,45,41283,2,0,L|148:89,1,45,2|0,0:0|0:0,0:0:0:0:
28,64,41449,6,2,B|84:107|144:68|144:64|144:59|205:20|261:64,1,247.500007553101,2|0,1:0|0:0,1:0:0:0:
314,164,41949,6,0,L|304:204,1,22.5,4|0,3:0|0:0,0:0:0:0:
458,107,42116,2,0,L|468:67,1,22.5,2|0,1:0|0:0,0:0:0:0:
346,281,42283,6,0,L|360:322,1,31.4999990386963,4|0,3:3|0:0,0:0:0:0:
381,49,42450,2,0,L|366:7,1,31.4999990386963,2|0,1:0|0:0,0:0:0:0:
461,318,42616,6,0,L|495:343,1,40.4999987640381,4|0,3:0|0:0,0:0:0:0:
407,201,42783,5,6,0:0:0:0:
278,364,42949,1,2,0:0:0:0:
217,174,43116,2,0,L|226:225,1,45,8|0,0:0|0:0,0:0:0:0:
163,368,43283,2,0,L|139:235,1,135,4|0,0:3|0:0,0:0:0:0:
133,208,43616,1,2,0:0:0:0:
220,32,43783,1,8,0:0:0:0:
30,56,43949,2,0,P|54:77|73:85,1,45,2|0,0:0|0:0,0:0:0:0:
196,104,44116,6,0,L|262:102,2,48,4|0|0,3:0|0:0|0:0,0:0:0:0:
407,43,44449,2,2,P|395:78|409:125,1,72,0|0,0:0|1:0,0:0:0:0:
481,252,44783,38,0,L|508:247,5,24,0|0|0|0|0|0,1:0|1:0|1:0|1:0|1:0|1:0,1:0:0:0:
386,341,45116,6,0,L|413:336,5,24,0|0|0|0|0|0,1:0|1:0|1:0|1:0|1:0|1:0,1:0:0:0:
271,285,45449,5,4,1:0:0:0:
256,192,45533,12,4,48116,0:1:0:0:
