osu file format v14

[General]
AudioFilename: PEPSIMAN.mp3
AudioLeadIn: 0
PreviewTime: 33
Countdown: 0
SampleSet: Normal
StackLeniency: 0.7
Mode: 0
LetterboxInBreaks: 0
WidescreenStoryboard: 1

[Editor]
DistanceSpacing: 1.7
BeatDivisor: 4
GridSize: 32
TimelineZoom: 2.1

[Metadata]
Title:PEPSI * MAN
TitleUnicode:PEPSI ☆ MAN
Artist:NOMA
ArtistUnicode:NOMA
Creator:Zetera
Version:ADVANCED MAN
Source:
Tags:MowtenDoo YTPMV MAD Irreversible Snaggletooth Mao Yuzu- [Nicole] Stjpa Feerum Phil stankill
BeatmapID:825690
BeatmapSetID:364712

[Difficulty]
HPDrainRate:4
CircleSize:3.5
OverallDifficulty:5
ApproachRate:6.5
SliderMultiplier:1.1
SliderTickRate:1

[Events]
//Background and Video events
0,0,"BG_MTNDW.jpg",0,0
//Break Periods
2,45649,47141
//Storyboard Layer 0 (Background)
//Storyboard Layer 1 (Fail)
//Storyboard Layer 2 (Pass)
//Storyboard Layer 3 (Foreground)
//Storyboard Sound Samples

[TimingPoints]
1450,333.333333333333,4,1,1,70,1,0
2783,-100,4,1,1,70,0,0
8116,-100,4,1,0,70,0,0
8199,-100,4,1,1,70,0,0
9449,-100,4,1,0,70,0,0
9533,-100,4,1,1,70,0,0
14783,-100,4,3,1,70,0,0
16116,-100,4,1,1,70,0,0
17449,-100,4,1,0,70,0,0
17533,-100,4,3,1,70,0,0
18783,-100,4,1,1,70,0,0
20283,-100,4,3,1,70,0,0
21449,-100,4,1,1,70,0,0
45366,-100,4,1,1,5,0,0
45449,-100,4,1,1,70,0,0
48116,-66.6666666666667,4,1,3,70,0,0

[Colours]
Combo1 : 40,140,220
Combo2 : 255,0,0
Combo3 : 70,70,70

[HitObjects]
81,249,1450,6,0,P|32:186|35:139,2,110,8|8|8,0:0|0:0|0:0,0:0:0:0:
174,242,2283,1,0,0:0:0:0:
126,161,2449,1,8,0:0:0:0:
139,347,2783,6,0,L|261:327,1,110,4|8,0:2|0:2,0:0:0:70:Baseball bat.wav
337,354,3283,2,0,P|385:367|500:258,1,220,4|4,0:2|2:0,0:0:0:0:
477,173,4116,6,0,L|484:39,1,110,4|8,0:2|0:2,0:0:0:0:
364,4,4616,2,0,L|388:236,1,220,4|4,2:0|0:2,0:0:0:0:
333,299,5449,6,0,L|205:312,1,110,4|8,0:2|0:2,0:0:0:0:
144,360,5949,2,0,P|72:361|5:239,1,220,4|4,0:2|0:2,0:0:0:0:
70,177,6783,6,0,L|50:52,1,110,4|8,0:2|0:2,0:0:0:0:
126,10,7283,2,0,B|178:-6|235:23|235:23|284:52|360:19,1,220,4|4,0:2|2:0,0:0:0:0:
429,3,8116,5,4,0:1:0:0:
423,96,8283,1,0,0:0:0:0:
506,55,8449,1,8,0:0:0:0:
484,241,8783,2,0,L|468:316,1,55
406,361,9116,1,8,0:0:0:0:
219,361,9449,5,4,0:0:0:0:
278,288,9616,1,0,0:0:0:0:
186,269,9783,1,8,0:0:0:0:
322,141,10116,2,0,L|267:132,1,55
180,163,10449,1,0,0:0:0:0:
40,30,10783,6,0,P|14:96|32:148,1,110,12|8,0:2|0:0,0:0:0:0:
114,93,11283,1,4,0:2:0:0:
133,1,11449,1,4,0:2:0:0:
18,219,11783,2,4,L|93:228,1,55,8|4,0:0|0:2,0:2:0:0:
169,252,12117,5,12,0:2:0:0:
148,367,12449,1,12,0:2:0:0:
329,320,12783,1,12,0:2:0:0:
276,140,13116,1,12,0:2:0:0:
148,367,13449,6,0,L|218:361,1,55,6|2,0:0|0:0,0:0:0:0:
329,320,13783,2,0,L|500:335,1,165,10|10,0:0|0:0,0:0:0:0:
495,241,14449,2,0,L|415:232,1,55,8|2,0:2|0:0,0:0:0:0:
321,138,14783,6,0,L|447:153,1,110,4|2,0:3|0:0,0:0:0:0:
497,85,15283,1,0,0:0:0:0:
435,15,15449,2,0,L|359:5,1,55,0|10,0:0|0:0,0:0:0:0:
293,42,15783,2,0,L|225:46,1,55,0|0,0:0|0:0,0:0:0:0:
152,6,16116,5,6,0:0:0:0:
65,41,16283,1,0,0:0:0:0:
65,41,16449,2,0,P|30:97|57:189,1,165,10|2,0:0|0:0,0:0:0:0:
148,173,17116,2,0,L|144:107,1,55,8|2,0:2|0:0,0:0:0:0:
114,264,17449,6,0,L|120:377,1,110,6|2,0:0|0:3,0:0:0:0:
212,363,17949,2,0,L|205:240,1,110,2|8,0:1|0:0,0:0:0:0:
294,240,18449,2,0,L|299:312,1,55,8|2,0:0|0:0,0:0:0:0:
398,346,18783,6,0,P|427:358|453:356,1,55,6|2,0:0|0:0,0:0:0:0:
497,275,19116,2,0,P|470:212|482:108,1,165,8|2,0:2|0:0,0:0:0:0:
378,21,19783,2,0,L|385:85,1,55,8|2,0:2|0:0,0:0:0:0:
317,142,20116,6,0,B|275:155|275:155|194:132,1,110,2|0,0:3|0:0,0:0:0:0:
138,78,20616,2,0,L|28:93,1,110,10|0,0:0|0:0,0:0:0:0:
2,182,21116,2,0,P|-2:226|3:249,1,55,2|0,0:3|0:0,0:0:0:0:
56,311,21449,5,6,0:0:0:0:
144,341,21616,1,2,0:0:0:0:
144,341,21783,2,0,L|313:327,1,165,8|2,0:2|0:0,0:0:0:0:
398,353,22449,2,0,L|475:362,1,55,8|2,0:2|0:0,0:0:0:0:
481,269,22783,6,0,P|452:221|454:184,2,82.5,2|2|2,0:0|0:3|0:0,0:0:0:0:
402,123,23449,2,0,P|369:158|361:182,1,55,2|0,0:3|0:0,0:0:0:0:
493,115,23783,2,0,P|479:68|462:49,1,55,0|10,0:0|0:3,0:0:0:0:
388,29,24116,5,4,0:2:0:0:
256,192,24283,12,0,29449,0:0:0:0:
256,192,29533,12,0,33116,0:0:0:0:
462,207,33449,6,0,L|452:139,1,55,0|0,0:0|0:0,0:0:0:0:
360,167,33783,2,0,L|370:69,1,82.5,8|0,0:2|2:0,0:0:0:0:
393,45,34116,2,0,L|454:38,1,55
281,101,34449,1,8,0:2:0:0:
281,101,34783,6,0,L|208:104,1,55,2|2,0:0|0:0,0:0:0:0:
149,157,35116,2,0,P|119:204|143:306,1,165,8|2,0:0|0:0,0:0:0:0:
212,367,35783,2,0,L|289:373,1,55,8|2,0:0|0:0,0:0:0:0:
349,327,36116,6,0,B|391:321|391:321|415:324|415:324|462:316,1,110,4|8,0:0|0:0,0:0:0:0:
496,231,36616,1,0,0:0:0:0:
444,152,36783,2,0,L|449:79,1,55,4|0,0:0|0:0,0:0:0:0:
490,13,37116,1,10,0:0:0:0:
322,96,37449,5,0,0:0:0:0:
243,45,37616,1,0,0:0:0:0:
243,45,37783,2,0,B|192:34|155:46|155:46|114:37|68:48,1,165,10|2,0:0|0:0,0:0:0:0:
16,115,38449,2,0,L|25:190,1,55,8|2,0:0|0:0,0:0:0:0:
101,221,38783,6,0,L|119:121,2,82.5,4|0|0,0:3|0:0|0:0,0:0:0:0:
53,301,39449,2,0,P|13:313|-17:311,1,55,0|0,0:0|0:0,0:0:0:0:
145,306,39783,2,0,P|180:291|230:295,1,82.5,0|0,0:0|0:0,0:0:0:0:
238,309,40116,6,0,L|232:373,1,55,10|2,0:0|0:0,0:0:0:0:
318,207,40449,2,0,L|334:381,1,165,2|2,0:0|0:0,0:0:0:0:
427,372,41116,2,0,L|435:305,1,55,8|2,0:0|0:0,0:0:0:0:
493,245,41449,6,0,P|475:210|473:123,1,110,4|0,0:0|0:0,0:0:0:0:
492,49,41949,1,0,0:0:0:0:
410,2,42116,1,8,0:0:0:0:
410,2,42283,1,0,0:0:0:0:
325,40,42449,1,0,0:0:0:0:
325,40,42616,1,0,0:0:0:0:
240,0,42783,6,0,P|161:-7|125:13,1,110,6|8,0:0|0:0,0:0:0:0:
66,69,43283,2,0,P|47:134|66:197,1,110,2|2,0:0|0:0,0:0:0:0:
122,239,43783,1,8,0:0:0:0:
286,328,44116,6,0,L|337:320,3,36.6666666666667,4|4|4|8,3:0|3:0|3:0|0:0,0:0:0:0:
410,352,44616,1,4,0:3:0:0:
481,290,44783,2,0,L|496:215,1,55,0|0,0:0|0:0,0:0:0:0:
434,162,45116,2,0,L|424:60,1,82.5,0|0,0:0|0:0,0:0:0:0:
437,61,45449,5,4,0:0:0:0:
256,192,48116,5,4,0:0:0:0:
