osu file format v14

[General]
AudioFilename: PEPSIMAN.mp3
AudioLeadIn: 0
PreviewTime: -1
Countdown: 0
SampleSet: Normal
StackLeniency: 0.7
Mode: 3
LetterboxInBreaks: 0
SpecialStyle: 0
WidescreenStoryboard: 0

[Editor]
DistanceSpacing: 0.8
BeatDivisor: 8
GridSize: 32
TimelineZoom: 1.8

[Metadata]
Title:PEPSI * MAN
TitleUnicode:PEPSI * MAN
Artist:NOMA
ArtistUnicode:NOMA
Creator:Zetera
Version:U-EXH MAN
Source:
Tags:MowtenDoo YTPMV MAD Irreversible Snaggletooth Mao Yuzu- [Nicole] Stjpa Feerum Phil stankill
BeatmapID:1283632
BeatmapSetID:364712

[Difficulty]
HPDrainRate:8
CircleSize:4
OverallDifficulty:8
ApproachRate:5
SliderMultiplier:1.4
SliderTickRate:1

[Events]
//Background and Video events
0,0,"BG_MTNDW.jpg",0,0
//Break Periods
//Storyboard Layer 0 (Background)
//Storyboard Layer 1 (Fail)
//Storyboard Layer 2 (Pass)
//Storyboard Layer 3 (Foreground)
//Storyboard Sound Samples

[TimingPoints]
117,333.333333,4,1,0,100,1,0

[HitObjects]
448,192,117,128,0,450:0:0:0:0:
64,192,450,128,0,658:0:0:0:0:
192,192,658,128,0,2783:0:0:0:0:
448,192,1450,1,0,0:0:0:0:
448,192,1783,1,0,0:0:0:0:
448,192,2116,1,0,0:0:0:0:
320,192,2283,1,0,0:0:0:0:
64,192,2283,1,0,0:0:0:0:
448,192,2450,1,0,0:0:0:0:
320,192,2450,1,0,0:0:0:0:
448,192,2783,1,0,0:0:0:0:
64,192,2783,1,0,0:0:0:0:
320,192,2866,1,0,0:0:0:0:
192,192,2950,1,0,0:0:0:0:
320,192,3033,1,0,0:0:0:0:
448,192,3116,1,0,0:0:0:0:
192,192,3116,1,0,0:0:0:0:
64,192,3116,1,0,0:0:0:0:
320,192,3200,1,0,0:0:0:0:
192,192,3283,1,0,0:0:0:0:
64,192,3283,1,0,0:0:0:0:
320,192,3366,1,0,0:0:0:0:
64,192,3450,1,0,0:0:0:0:
448,192,3533,1,0,0:0:0:0:
64,192,3616,1,0,0:0:0:0:
448,192,3700,1,0,0:0:0:0:
320,192,3783,1,0,0:0:0:0:
192,192,3783,1,0,0:0:0:0:
64,192,3783,1,0,0:0:0:0:
448,192,3866,1,0,0:0:0:0:
192,192,3950,1,0,0:0:0:0:
64,192,3950,1,0,0:0:0:0:
448,192,4033,1,0,0:0:0:0:
320,192,4116,1,0,0:0:0:0:
192,192,4116,1,0,0:0:0:0:
448,192,4200,1,0,0:0:0:0:
320,192,4283,1,0,0:0:0:0:
192,192,4366,1,0,0:0:0:0:
448,192,4450,1,0,0:0:0:0:
320,192,4450,1,0,0:0:0:0:
64,192,4450,1,0,0:0:0:0:
192,192,4533,1,0,0:0:0:0:
448,192,4616,1,0,0:0:0:0:
64,192,4616,1,0,0:0:0:0:
320,192,4700,1,0,0:0:0:0:
192,192,4783,1,0,0:0:0:0:
448,192,4866,1,0,0:0:0:0:
64,192,4950,1,0,0:0:0:0:
192,192,5033,1,0,0:0:0:0:
448,192,5116,1,0,0:0:0:0:
320,192,5116,1,0,0:0:0:0:
64,192,5116,1,0,0:0:0:0:
192,192,5200,1,0,0:0:0:0:
448,192,5283,1,0,0:0:0:0:
320,192,5283,1,0,0:0:0:0:
64,192,5366,1,0,0:0:0:0:
448,192,5450,1,0,0:0:0:0:
192,192,5450,1,0,0:0:0:0:
320,192,5533,1,0,0:0:0:0:
64,192,5616,1,0,0:0:0:0:
448,192,5700,1,0,0:0:0:0:
320,192,5783,1,0,0:0:0:0:
192,192,5783,1,0,0:0:0:0:
64,192,5783,1,0,0:0:0:0:
448,192,5866,1,0,0:0:0:0:
320,192,5950,1,0,0:0:0:0:
192,192,5950,1,0,0:0:0:0:
64,192,6033,1,0,0:0:0:0:
448,192,6116,1,0,0:0:0:0:
192,192,6200,1,0,0:0:0:0:
448,192,6283,1,0,0:0:0:0:
192,192,6366,1,0,0:0:0:0:
448,192,6450,1,0,0:0:0:0:
320,192,6450,1,0,0:0:0:0:
64,192,6450,1,0,0:0:0:0:
192,192,6533,1,0,0:0:0:0:
448,192,6616,1,0,0:0:0:0:
320,192,6616,1,0,0:0:0:0:
64,192,6700,1,0,0:0:0:0:
320,192,6783,1,0,0:0:0:0:
192,192,6783,1,0,0:0:0:0:
448,192,6866,1,0,0:0:0:0:
320,192,6950,1,0,0:0:0:0:
192,192,7033,1,0,0:0:0:0:
448,192,7116,1,0,0:0:0:0:
320,192,7116,1,0,0:0:0:0:
64,192,7116,1,0,0:0:0:0:
192,192,7200,1,0,0:0:0:0:
320,192,7283,1,0,0:0:0:0:
64,192,7283,1,0,0:0:0:0:
448,192,7366,1,0,0:0:0:0:
64,192,7450,1,0,0:0:0:0:
192,192,7533,1,0,0:0:0:0:
448,192,7616,1,0,0:0:0:0:
320,192,7616,1,0,0:0:0:0:
64,192,7700,1,0,0:0:0:0:
448,192,7783,1,0,0:0:0:0:
320,192,7783,1,0,0:0:0:0:
192,192,7783,1,0,0:0:0:0:
64,192,7866,1,0,0:0:0:0:
448,192,7950,1,0,0:0:0:0:
192,192,7950,1,0,0:0:0:0:
320,192,8033,1,0,0:0:0:0:
448,192,8116,1,0,0:0:0:0:
192,192,8116,1,0,0:0:0:0:
64,192,8116,1,0,0:0:0:0:
320,192,8200,1,0,0:0:0:0:
192,192,8283,1,0,0:0:0:0:
64,192,8366,1,0,0:0:0:0:
448,192,8450,1,0,0:0:0:0:
320,192,8450,1,0,0:0:0:0:
192,192,8450,1,0,0:0:0:0:
64,192,8533,1,0,0:0:0:0:
448,192,8616,1,0,0:0:0:0:
192,192,8616,1,0,0:0:0:0:
320,192,8700,1,0,0:0:0:0:
448,192,8783,1,0,0:0:0:0:
192,192,8866,1,0,0:0:0:0:
320,192,8950,1,0,0:0:0:0:
64,192,9033,1,0,0:0:0:0:
448,192,9116,1,0,0:0:0:0:
320,192,9116,1,0,0:0:0:0:
192,192,9116,1,0,0:0:0:0:
64,192,9200,1,0,0:0:0:0:
320,192,9283,1,0,0:0:0:0:
192,192,9283,1,0,0:0:0:0:
448,192,9366,1,0,0:0:0:0:
320,192,9450,1,0,0:0:0:0:
192,192,9450,1,0,0:0:0:0:
64,192,9450,1,0,0:0:0:0:
448,192,9533,1,0,0:0:0:0:
64,192,9616,1,0,0:0:0:0:
192,192,9700,1,0,0:0:0:0:
448,192,9783,1,0,0:0:0:0:
320,192,9783,1,0,0:0:0:0:
64,192,9783,1,0,0:0:0:0:
192,192,9866,1,0,0:0:0:0:
448,192,9950,1,0,0:0:0:0:
320,192,9950,1,0,0:0:0:0:
64,192,10033,1,0,0:0:0:0:
448,192,10116,1,0,0:0:0:0:
64,192,10200,1,0,0:0:0:0:
192,192,10283,1,0,0:0:0:0:
320,192,10366,1,0,0:0:0:0:
448,192,10450,1,0,0:0:0:0:
192,192,10450,1,0,0:0:0:0:
64,192,10450,1,0,0:0:0:0:
320,192,10533,1,0,0:0:0:0:
448,192,10616,1,0,0:0:0:0:
64,192,10616,1,0,0:0:0:0:
192,192,10700,1,0,0:0:0:0:
448,192,10783,1,0,0:0:0:0:
320,192,10825,1,0,0:0:0:0:
192,192,10866,1,0,0:0:0:0:
64,192,10908,1,0,0:0:0:0:
448,192,10950,1,0,0:0:0:0:
192,192,11033,1,0,0:0:0:0:
448,192,11116,1,0,0:0:0:0:
320,192,11116,1,0,0:0:0:0:
64,192,11116,1,0,0:0:0:0:
192,192,11200,1,0,0:0:0:0:
448,192,11283,1,0,0:0:0:0:
320,192,11283,1,0,0:0:0:0:
64,192,11366,1,0,0:0:0:0:
448,192,11450,1,0,0:0:0:0:
320,192,11491,1,0,0:0:0:0:
192,192,11533,1,0,0:0:0:0:
64,192,11575,1,0,0:0:0:0:
448,192,11616,1,0,0:0:0:0:
192,192,11700,1,0,0:0:0:0:
448,192,11783,1,0,0:0:0:0:
320,192,11783,1,0,0:0:0:0:
64,192,11783,1,0,0:0:0:0:
192,192,11866,1,0,0:0:0:0:
448,192,11950,1,0,0:0:0:0:
320,192,11950,1,0,0:0:0:0:
64,192,12033,1,0,0:0:0:0:
448,192,12116,1,0,0:0:0:0:
320,192,12158,1,0,0:0:0:0:
192,192,12200,1,0,0:0:0:0:
64,192,12241,1,0,0:0:0:0:
448,192,12283,1,0,0:0:0:0:
192,192,12366,1,0,0:0:0:0:
448,192,12450,1,0,0:0:0:0:
320,192,12491,1,0,0:0:0:0:
192,192,12533,1,0,0:0:0:0:
64,192,12575,1,0,0:0:0:0:
448,192,12616,1,0,0:0:0:0:
192,192,12700,1,0,0:0:0:0:
448,192,12783,1,0,0:0:0:0:
320,192,12783,1,0,0:0:0:0:
64,192,12866,1,0,0:0:0:0:
448,192,12950,1,0,0:0:0:0:
320,192,12991,1,0,0:0:0:0:
192,192,13033,1,0,0:0:0:0:
64,192,13075,1,0,0:0:0:0:
448,192,13116,1,0,0:0:0:0:
320,192,13158,1,0,0:0:0:0:
192,192,13200,1,0,0:0:0:0:
64,192,13241,1,0,0:0:0:0:
448,192,13283,1,0,0:0:0:0:
320,192,13325,1,0,0:0:0:0:
192,192,13366,1,0,0:0:0:0:
448,192,13450,1,0,0:0:0:0:
64,192,13450,1,0,0:0:0:0:
320,192,13533,1,0,0:0:0:0:
192,192,13616,1,0,0:0:0:0:
64,192,13616,1,0,0:0:0:0:
320,192,13700,1,0,0:0:0:0:
448,192,13783,128,0,13825:0:0:0:0:
192,192,13783,1,0,0:0:0:0:
64,192,13783,1,0,0:0:0:0:
320,192,13866,1,0,0:0:0:0:
192,192,13950,1,0,0:0:0:0:
64,192,13950,1,0,0:0:0:0:
448,192,14033,1,0,0:0:0:0:
192,192,14116,1,0,0:0:0:0:
320,192,14200,1,0,0:0:0:0:
448,192,14283,128,0,14325:0:0:0:0:
192,192,14283,1,0,0:0:0:0:
64,192,14366,1,0,0:0:0:0:
448,192,14450,1,0,0:0:0:0:
320,192,14450,1,0,0:0:0:0:
192,192,14450,1,0,0:0:0:0:
64,192,14533,1,0,0:0:0:0:
320,192,14616,128,0,14658:0:0:0:0:
192,192,14616,1,0,0:0:0:0:
64,192,14700,1,0,0:0:0:0:
448,192,14783,1,0,0:0:0:0:
320,192,14783,1,0,0:0:0:0:
64,192,14866,1,0,0:0:0:0:
448,192,14950,1,0,0:0:0:0:
320,192,14950,1,0,0:0:0:0:
192,192,15033,1,0,0:0:0:0:
64,192,15033,1,0,0:0:0:0:
448,192,15116,1,0,0:0:0:0:
320,192,15116,1,0,0:0:0:0:
64,192,15200,1,0,0:0:0:0:
448,192,15283,1,0,0:0:0:0:
320,192,15283,1,0,0:0:0:0:
192,192,15283,1,0,0:0:0:0:
64,192,15366,1,0,0:0:0:0:
192,192,15450,1,0,0:0:0:0:
448,192,15533,1,0,0:0:0:0:
64,192,15533,1,0,0:0:0:0:
320,192,15616,1,0,0:0:0:0:
192,192,15616,1,0,0:0:0:0:
448,192,15700,1,0,0:0:0:0:
64,192,15700,1,0,0:0:0:0:
320,192,15783,1,0,0:0:0:0:
448,192,15866,1,0,0:0:0:0:
192,192,15866,1,0,0:0:0:0:
320,192,15950,1,0,0:0:0:0:
64,192,15950,1,0,0:0:0:0:
448,192,16033,1,0,0:0:0:0:
192,192,16033,1,0,0:0:0:0:
320,192,16116,1,0,0:0:0:0:
64,192,16116,1,0,0:0:0:0:
192,192,16200,1,0,0:0:0:0:
448,192,16283,1,0,0:0:0:0:
320,192,16283,1,0,0:0:0:0:
192,192,16366,1,0,0:0:0:0:
448,192,16450,128,0,16491:0:0:0:0:
320,192,16450,1,0,0:0:0:0:
64,192,16450,1,0,0:0:0:0:
192,192,16533,1,0,0:0:0:0:
320,192,16616,1,0,0:0:0:0:
64,192,16616,1,0,0:0:0:0:
192,192,16700,1,0,0:0:0:0:
320,192,16783,1,0,0:0:0:0:
448,192,16866,1,0,0:0:0:0:
64,192,16950,1,0,0:0:0:0:
192,192,16950,128,0,16991:0:0:0:0:
320,192,17033,1,0,0:0:0:0:
448,192,17116,1,0,0:0:0:0:
192,192,17116,1,0,0:0:0:0:
64,192,17116,1,0,0:0:0:0:
320,192,17200,1,0,0:0:0:0:
448,192,17283,128,0,17325:0:0:0:0:
64,192,17283,1,0,0:0:0:0:
320,192,17366,1,0,0:0:0:0:
448,192,17450,128,0,17783:0:0:0:0:
192,192,17450,1,0,0:0:0:0:
320,192,17533,1,0,0:0:0:0:
192,192,17616,1,0,0:0:0:0:
320,192,17700,1,0,0:0:0:0:
192,192,17783,1,0,0:0:0:0:
64,192,17783,128,0,17950:0:0:0:0:
448,192,17950,1,0,0:0:0:0:
320,192,17950,128,0,18700:0:0:0:0:
192,192,18033,1,0,0:0:0:0:
64,192,18033,1,0,0:0:0:0:
192,192,18200,1,0,0:0:0:0:
448,192,18283,1,0,0:0:0:0:
64,192,18283,1,0,0:0:0:0:
192,192,18450,1,0,0:0:0:0:
448,192,18533,1,0,0:0:0:0:
192,192,18616,1,0,0:0:0:0:
64,192,18616,1,0,0:0:0:0:
448,192,18783,1,0,0:0:0:0:
320,192,18783,1,0,0:0:0:0:
64,192,18866,1,0,0:0:0:0:
448,192,18950,1,0,0:0:0:0:
320,192,18950,1,0,0:0:0:0:
192,192,19033,1,0,0:0:0:0:
448,192,19116,1,0,0:0:0:0:
320,192,19116,1,0,0:0:0:0:
64,192,19116,1,0,0:0:0:0:
192,192,19200,1,0,0:0:0:0:
320,192,19283,1,0,0:0:0:0:
64,192,19283,1,0,0:0:0:0:
448,192,19366,1,0,0:0:0:0:
320,192,19450,1,0,0:0:0:0:
64,192,19533,1,0,0:0:0:0:
448,192,19616,1,0,0:0:0:0:
192,192,19616,1,0,0:0:0:0:
64,192,19700,1,0,0:0:0:0:
448,192,19783,1,0,0:0:0:0:
320,192,19783,1,0,0:0:0:0:
192,192,19783,1,0,0:0:0:0:
64,192,19866,1,0,0:0:0:0:
448,192,19950,1,0,0:0:0:0:
320,192,19950,1,0,0:0:0:0:
192,192,20033,1,0,0:0:0:0:
448,192,20116,1,0,0:0:0:0:
64,192,20116,128,0,20158:0:0:0:0:
64,192,20283,1,0,0:0:0:0:
448,192,20366,1,0,0:0:0:0:
320,192,20366,1,0,0:0:0:0:
192,192,20450,1,0,0:0:0:0:
64,192,20450,1,0,0:0:0:0:
448,192,20533,1,0,0:0:0:0:
320,192,20533,1,0,0:0:0:0:
64,192,20616,1,0,0:0:0:0:
192,192,20616,128,0,20658:0:0:0:0:
448,192,20700,1,0,0:0:0:0:
192,192,20783,1,0,0:0:0:0:
64,192,20783,1,0,0:0:0:0:
320,192,20866,1,0,0:0:0:0:
192,192,20950,1,0,0:0:0:0:
64,192,20950,1,0,0:0:0:0:
448,192,21033,1,0,0:0:0:0:
320,192,21033,1,0,0:0:0:0:
192,192,21116,128,0,21158:0:0:0:0:
64,192,21116,1,0,0:0:0:0:
448,192,21200,1,0,0:0:0:0:
320,192,21200,1,0,0:0:0:0:
192,192,21283,1,0,0:0:0:0:
64,192,21283,1,0,0:0:0:0:
448,192,21366,1,0,0:0:0:0:
320,192,21366,1,0,0:0:0:0:
192,192,21450,1,0,0:0:0:0:
64,192,21450,1,0,0:0:0:0:
320,192,21533,1,0,0:0:0:0:
448,192,21616,1,0,0:0:0:0:
192,192,21616,1,0,0:0:0:0:
320,192,21700,1,0,0:0:0:0:
448,192,21783,1,0,0:0:0:0:
192,192,21783,1,0,0:0:0:0:
64,192,21783,1,0,0:0:0:0:
320,192,21866,1,0,0:0:0:0:
192,192,21950,1,0,0:0:0:0:
64,192,21950,1,0,0:0:0:0:
448,192,22033,1,0,0:0:0:0:
320,192,22116,1,0,0:0:0:0:
64,192,22200,1,0,0:0:0:0:
192,192,22283,1,0,0:0:0:0:
448,192,22366,1,0,0:0:0:0:
320,192,22450,1,0,0:0:0:0:
192,192,22450,1,0,0:0:0:0:
64,192,22450,1,0,0:0:0:0:
448,192,22533,1,0,0:0:0:0:
192,192,22616,1,0,0:0:0:0:
64,192,22616,1,0,0:0:0:0:
320,192,22700,1,0,0:0:0:0:
448,192,22783,128,0,23116:0:0:0:0:
64,192,22783,1,0,0:0:0:0:
192,192,22950,1,0,0:0:0:0:
320,192,23033,1,0,0:0:0:0:
192,192,23116,128,0,23283:0:0:0:0:
64,192,23200,1,0,0:0:0:0:
448,192,23283,1,0,0:0:0:0:
320,192,23283,128,0,30116:0:0:0:0:
192,192,23366,1,0,0:0:0:0:
64,192,23450,1,0,0:0:0:0:
192,192,23533,1,0,0:0:0:0:
448,192,23616,1,0,0:0:0:0:
192,192,23700,1,0,0:0:0:0:
448,192,23783,1,0,0:0:0:0:
64,192,23783,1,0,0:0:0:0:
192,192,23866,1,0,0:0:0:0:
448,192,23950,1,0,0:0:0:0:
192,192,24033,1,0,0:0:0:0:
448,192,24116,1,0,0:0:0:0:
64,192,24116,1,0,0:0:0:0:
192,192,24200,1,0,0:0:0:0:
64,192,24283,1,0,0:0:0:0:
192,192,24366,1,0,0:0:0:0:
448,192,24450,1,0,0:0:0:0:
64,192,24450,1,0,0:0:0:0:
192,192,24533,1,0,0:0:0:0:
448,192,24616,1,0,0:0:0:0:
64,192,24616,1,0,0:0:0:0:
192,192,24700,1,0,0:0:0:0:
448,192,24783,1,0,0:0:0:0:
192,192,24866,1,0,0:0:0:0:
64,192,24950,1,0,0:0:0:0:
448,192,25033,1,0,0:0:0:0:
192,192,25116,1,0,0:0:0:0:
64,192,25116,1,0,0:0:0:0:
448,192,25200,1,0,0:0:0:0:
192,192,25283,1,0,0:0:0:0:
64,192,25283,1,0,0:0:0:0:
448,192,25366,1,0,0:0:0:0:
192,192,25450,1,0,0:0:0:0:
64,192,25450,1,0,0:0:0:0:
448,192,25533,1,0,0:0:0:0:
64,192,25616,1,0,0:0:0:0:
192,192,25700,1,0,0:0:0:0:
448,192,25783,1,0,0:0:0:0:
64,192,25783,1,0,0:0:0:0:
192,192,25866,1,0,0:0:0:0:
448,192,25950,1,0,0:0:0:0:
64,192,25950,1,0,0:0:0:0:
192,192,26033,1,0,0:0:0:0:
64,192,26116,1,0,0:0:0:0:
448,192,26200,1,0,0:0:0:0:
192,192,26283,1,0,0:0:0:0:
448,192,26366,1,0,0:0:0:0:
192,192,26450,1,0,0:0:0:0:
64,192,26450,1,0,0:0:0:0:
448,192,26533,1,0,0:0:0:0:
192,192,26616,1,0,0:0:0:0:
64,192,26616,1,0,0:0:0:0:
448,192,26700,1,0,0:0:0:0:
192,192,26783,1,0,0:0:0:0:
64,192,26783,1,0,0:0:0:0:
448,192,26866,1,0,0:0:0:0:
192,192,26950,1,0,0:0:0:0:
64,192,27033,1,0,0:0:0:0:
448,192,27116,1,0,0:0:0:0:
192,192,27116,1,0,0:0:0:0:
64,192,27200,1,0,0:0:0:0:
448,192,27283,1,0,0:0:0:0:
192,192,27283,1,0,0:0:0:0:
64,192,27366,1,0,0:0:0:0:
448,192,27450,1,0,0:0:0:0:
192,192,27533,1,0,0:0:0:0:
64,192,27616,1,0,0:0:0:0:
192,192,27700,1,0,0:0:0:0:
448,192,27783,1,0,0:0:0:0:
64,192,27783,1,0,0:0:0:0:
192,192,27866,1,0,0:0:0:0:
448,192,27950,1,0,0:0:0:0:
64,192,27950,1,0,0:0:0:0:
192,192,28033,1,0,0:0:0:0:
448,192,28116,1,0,0:0:0:0:
64,192,28116,1,0,0:0:0:0:
192,192,28200,1,0,0:0:0:0:
64,192,28283,1,0,0:0:0:0:
448,192,28366,1,0,0:0:0:0:
192,192,28450,1,0,0:0:0:0:
64,192,28450,1,0,0:0:0:0:
448,192,28533,1,0,0:0:0:0:
192,192,28616,1,0,0:0:0:0:
64,192,28616,1,0,0:0:0:0:
448,192,28700,1,0,0:0:0:0:
192,192,28783,1,0,0:0:0:0:
64,192,28866,1,0,0:0:0:0:
448,192,28950,1,0,0:0:0:0:
192,192,28950,1,0,0:0:0:0:
64,192,29033,1,0,0:0:0:0:
448,192,29116,1,0,0:0:0:0:
192,192,29116,1,0,0:0:0:0:
64,192,29200,1,0,0:0:0:0:
448,192,29283,1,0,0:0:0:0:
192,192,29283,1,0,0:0:0:0:
64,192,29366,1,0,0:0:0:0:
448,192,29450,1,0,0:0:0:0:
192,192,29450,1,0,0:0:0:0:
64,192,29533,1,0,0:0:0:0:
192,192,29616,1,0,0:0:0:0:
448,192,29700,1,0,0:0:0:0:
192,192,29783,1,0,0:0:0:0:
64,192,29783,1,0,0:0:0:0:
448,192,29866,1,0,0:0:0:0:
192,192,29950,1,0,0:0:0:0:
64,192,29950,1,0,0:0:0:0:
448,192,30033,1,0,0:0:0:0:
192,192,30116,1,0,0:0:0:0:
64,192,30116,1,0,0:0:0:0:
320,192,30200,1,0,0:0:0:0:
448,192,30283,1,0,0:0:0:0:
64,192,30283,1,0,0:0:0:0:
320,192,30366,1,0,0:0:0:0:
448,192,30450,1,0,0:0:0:0:
192,192,30450,1,0,0:0:0:0:
64,192,30450,1,0,0:0:0:0:
320,192,30533,1,0,0:0:0:0:
448,192,30616,1,0,0:0:0:0:
192,192,30616,1,0,0:0:0:0:
64,192,30700,1,0,0:0:0:0:
320,192,30783,1,0,0:0:0:0:
192,192,30783,1,0,0:0:0:0:
448,192,30866,1,0,0:0:0:0:
320,192,30950,1,0,0:0:0:0:
64,192,30950,1,0,0:0:0:0:
192,192,31033,1,0,0:0:0:0:
448,192,31116,1,0,0:0:0:0:
320,192,31116,1,0,0:0:0:0:
64,192,31116,1,0,0:0:0:0:
192,192,31200,1,0,0:0:0:0:
448,192,31283,1,0,0:0:0:0:
320,192,31283,1,0,0:0:0:0:
192,192,31366,1,0,0:0:0:0:
64,192,31450,1,0,0:0:0:0:
448,192,31533,1,0,0:0:0:0:
192,192,31616,1,0,0:0:0:0:
448,192,31700,1,0,0:0:0:0:
320,192,31783,1,0,0:0:0:0:
192,192,31783,1,0,0:0:0:0:
64,192,31783,1,0,0:0:0:0:
448,192,31866,1,0,0:0:0:0:
192,192,31950,1,0,0:0:0:0:
64,192,31950,1,0,0:0:0:0:
320,192,32033,1,0,0:0:0:0:
448,192,32116,1,0,0:0:0:0:
192,192,32116,1,0,0:0:0:0:
64,192,32200,1,0,0:0:0:0:
320,192,32283,1,0,0:0:0:0:
448,192,32366,1,0,0:0:0:0:
320,192,32450,1,0,0:0:0:0:
192,192,32450,1,0,0:0:0:0:
64,192,32450,1,0,0:0:0:0:
448,192,32533,1,0,0:0:0:0:
192,192,32616,1,0,0:0:0:0:
64,192,32616,1,0,0:0:0:0:
320,192,32700,1,0,0:0:0:0:
448,192,32783,1,0,0:0:0:0:
192,192,32783,1,0,0:0:0:0:
64,192,32866,1,0,0:0:0:0:
448,192,32950,1,0,0:0:0:0:
320,192,32950,1,0,0:0:0:0:
192,192,33033,1,0,0:0:0:0:
448,192,33116,1,0,0:0:0:0:
320,192,33116,1,0,0:0:0:0:
64,192,33116,1,0,0:0:0:0:
192,192,33200,1,0,0:0:0:0:
320,192,33283,1,0,0:0:0:0:
64,192,33283,1,0,0:0:0:0:
448,192,33366,1,0,0:0:0:0:
192,192,33450,1,0,0:0:0:0:
64,192,33450,1,0,0:0:0:0:
320,192,33533,1,0,0:0:0:0:
448,192,33616,1,0,0:0:0:0:
192,192,33700,1,0,0:0:0:0:
448,192,33783,1,0,0:0:0:0:
320,192,33783,1,0,0:0:0:0:
64,192,33783,1,0,0:0:0:0:
192,192,33866,1,0,0:0:0:0:
64,192,33950,1,0,0:0:0:0:
448,192,34033,1,0,0:0:0:0:
192,192,34116,1,0,0:0:0:0:
64,192,34116,1,0,0:0:0:0:
320,192,34200,1,0,0:0:0:0:
448,192,34283,1,0,0:0:0:0:
64,192,34366,1,0,0:0:0:0:
448,192,34450,1,0,0:0:0:0:
320,192,34450,1,0,0:0:0:0:
192,192,34450,1,0,0:0:0:0:
64,192,34533,1,0,0:0:0:0:
320,192,34616,1,0,0:0:0:0:
448,192,34700,1,0,0:0:0:0:
192,192,34783,1,0,0:0:0:0:
64,192,34783,1,0,0:0:0:0:
320,192,34866,1,0,0:0:0:0:
448,192,34950,1,0,0:0:0:0:
64,192,34950,1,0,0:0:0:0:
320,192,35033,1,0,0:0:0:0:
448,192,35116,128,0,35158:0:0:0:0:
192,192,35116,1,0,0:0:0:0:
64,192,35116,1,0,0:0:0:0:
320,192,35200,1,0,0:0:0:0:
192,192,35283,1,0,0:0:0:0:
64,192,35283,1,0,0:0:0:0:
448,192,35366,1,0,0:0:0:0:
320,192,35450,1,0,0:0:0:0:
64,192,35533,1,0,0:0:0:0:
448,192,35616,128,0,35658:0:0:0:0:
320,192,35616,1,0,0:0:0:0:
192,192,35700,1,0,0:0:0:0:
320,192,35783,1,0,0:0:0:0:
64,192,35783,1,0,0:0:0:0:
448,192,35783,1,0,0:0:0:0:
192,192,35866,1,0,0:0:0:0:
64,192,35950,1,0,0:0:0:0:
320,192,35950,128,0,35991:0:0:0:0:
192,192,36033,1,0,0:0:0:0:
448,192,36116,1,0,0:0:0:0:
320,192,36158,1,0,0:0:0:0:
192,192,36200,1,0,0:0:0:0:
64,192,36241,1,0,0:0:0:0:
448,192,36283,1,0,0:0:0:0:
192,192,36366,1,0,0:0:0:0:
448,192,36450,1,0,0:0:0:0:
320,192,36450,1,0,0:0:0:0:
192,192,36491,1,0,0:0:0:0:
64,192,36533,1,0,0:0:0:0:
448,192,36616,1,0,0:0:0:0:
320,192,36616,1,0,0:0:0:0:
64,192,36700,1,0,0:0:0:0:
192,192,36783,1,0,0:0:0:0:
320,192,36825,1,0,0:0:0:0:
448,192,36866,1,0,0:0:0:0:
320,192,36950,1,0,0:0:0:0:
192,192,36991,1,0,0:0:0:0:
64,192,37033,1,0,0:0:0:0:
448,192,37116,1,0,0:0:0:0:
320,192,37158,1,0,0:0:0:0:
64,192,37200,1,0,0:0:0:0:
192,192,37241,1,0,0:0:0:0:
448,192,37283,1,0,0:0:0:0:
320,192,37325,1,0,0:0:0:0:
64,192,37366,1,0,0:0:0:0:
448,192,37450,1,0,0:0:0:0:
192,192,37450,1,0,0:0:0:0:
320,192,37533,1,0,0:0:0:0:
192,192,37616,1,0,0:0:0:0:
64,192,37616,1,0,0:0:0:0:
448,192,37700,1,0,0:0:0:0:
320,192,37783,128,0,37825:0:0:0:0:
192,192,37783,1,0,0:0:0:0:
64,192,37783,1,0,0:0:0:0:
448,192,37866,1,0,0:0:0:0:
320,192,37950,1,0,0:0:0:0:
64,192,37950,1,0,0:0:0:0:
192,192,38033,1,0,0:0:0:0:
448,192,38116,1,0,0:0:0:0:
320,192,38200,1,0,0:0:0:0:
448,192,38283,128,0,38325:0:0:0:0:
64,192,38283,1,0,0:0:0:0:
192,192,38366,1,0,0:0:0:0:
448,192,38450,1,0,0:0:0:0:
320,192,38450,1,0,0:0:0:0:
64,192,38450,1,0,0:0:0:0:
192,192,38533,1,0,0:0:0:0:
64,192,38616,1,0,0:0:0:0:
320,192,38616,128,0,38658:0:0:0:0:
448,192,38700,1,0,0:0:0:0:
320,192,38783,1,0,0:0:0:0:
64,192,38783,1,0,0:0:0:0:
192,192,38908,1,0,0:0:0:0:
320,192,38950,1,0,0:0:0:0:
192,192,39033,1,0,0:0:0:0:
64,192,39033,1,0,0:0:0:0:
448,192,39075,1,0,0:0:0:0:
320,192,39116,1,0,0:0:0:0:
64,192,39158,1,0,0:0:0:0:
192,192,39200,1,0,0:0:0:0:
448,192,39283,1,0,0:0:0:0:
320,192,39283,1,0,0:0:0:0:
64,192,39325,128,0,39408:0:0:0:0:
448,192,39450,1,0,0:0:0:0:
320,192,39450,1,0,0:0:0:0:
192,192,39491,1,0,0:0:0:0:
64,192,39533,1,0,0:0:0:0:
320,192,39575,1,0,0:0:0:0:
448,192,39616,1,0,0:0:0:0:
192,192,39658,1,0,0:0:0:0:
64,192,39700,1,0,0:0:0:0:
320,192,39741,1,0,0:0:0:0:
448,192,39783,1,0,0:0:0:0:
64,192,39825,1,0,0:0:0:0:
192,192,39866,1,0,0:0:0:0:
448,192,39908,1,0,0:0:0:0:
320,192,39950,1,0,0:0:0:0:
64,192,39991,1,0,0:0:0:0:
192,192,40033,1,0,0:0:0:0:
448,192,40075,1,0,0:0:0:0:
320,192,40116,1,0,0:0:0:0:
64,192,40116,1,0,0:0:0:0:
192,192,40200,1,0,0:0:0:0:
448,192,40283,1,0,0:0:0:0:
64,192,40283,1,0,0:0:0:0:
320,192,40366,1,0,0:0:0:0:
448,192,40450,128,0,40491:0:0:0:0:
192,192,40450,1,0,0:0:0:0:
64,192,40450,1,0,0:0:0:0:
320,192,40533,1,0,0:0:0:0:
192,192,40616,1,0,0:0:0:0:
64,192,40616,1,0,0:0:0:0:
448,192,40700,1,0,0:0:0:0:
64,192,40783,1,0,0:0:0:0:
320,192,40866,1,0,0:0:0:0:
448,192,40950,128,0,40991:0:0:0:0:
192,192,40950,1,0,0:0:0:0:
64,192,41033,1,0,0:0:0:0:
448,192,41116,1,0,0:0:0:0:
320,192,41116,1,0,0:0:0:0:
192,192,41116,1,0,0:0:0:0:
64,192,41200,1,0,0:0:0:0:
448,192,41283,128,0,41325:0:0:0:0:
320,192,41283,1,0,0:0:0:0:
64,192,41366,1,0,0:0:0:0:
320,192,41450,1,0,0:0:0:0:
192,192,41450,128,0,41700:0:0:0:0:
448,192,41533,1,0,0:0:0:0:
64,192,41616,1,0,0:0:0:0:
448,192,41700,1,0,0:0:0:0:
64,192,41783,128,0,41866:0:0:0:0:
320,192,41866,1,0,0:0:0:0:
192,192,41950,1,0,0:0:0:0:
64,192,41950,128,0,42033:0:0:0:0:
448,192,42033,1,0,0:0:0:0:
320,192,42116,1,0,0:0:0:0:
192,192,42116,1,0,0:0:0:0:
64,192,42116,128,0,42200:0:0:0:0:
448,192,42200,1,0,0:0:0:0:
64,192,42283,128,0,42366:0:0:0:0:
192,192,42283,1,0,0:0:0:0:
448,192,42366,1,0,0:0:0:0:
64,192,42450,128,0,42533:0:0:0:0:
192,192,42533,1,0,0:0:0:0:
448,192,42616,1,0,0:0:0:0:
64,192,42616,128,0,42700:0:0:0:0:
320,192,42700,1,0,0:0:0:0:
448,192,42783,128,0,42825:0:0:0:0:
192,192,42783,1,0,0:0:0:0:
64,192,42783,1,0,0:0:0:0:
320,192,42866,1,0,0:0:0:0:
192,192,42950,1,0,0:0:0:0:
64,192,42950,1,0,0:0:0:0:
448,192,43033,1,0,0:0:0:0:
320,192,43116,1,0,0:0:0:0:
192,192,43116,1,0,0:0:0:0:
64,192,43116,1,0,0:0:0:0:
448,192,43200,1,0,0:0:0:0:
320,192,43283,128,0,43325:0:0:0:0:
192,192,43283,1,0,0:0:0:0:
64,192,43366,1,0,0:0:0:0:
448,192,43450,1,0,0:0:0:0:
64,192,43533,1,0,0:0:0:0:
448,192,43616,1,0,0:0:0:0:
320,192,43616,1,0,0:0:0:0:
192,192,43700,1,0,0:0:0:0:
448,192,43783,128,0,43825:0:0:0:0:
320,192,43783,1,0,0:0:0:0:
64,192,43783,1,0,0:0:0:0:
192,192,43866,1,0,0:0:0:0:
320,192,43950,1,0,0:0:0:0:
64,192,43950,1,0,0:0:0:0:
448,192,44033,1,0,0:0:0:0:
320,192,44116,1,0,0:0:0:0:
192,192,44116,1,0,0:0:0:0:
64,192,44116,1,0,0:0:0:0:
448,192,44228,128,0,44283:0:0:0:0:
192,192,44339,128,0,44394:0:0:0:0:
320,192,44450,128,0,44533:0:0:0:0:
448,192,44616,1,0,0:0:0:0:
64,192,44616,128,0,44741:0:0:0:0:
448,192,44783,1,0,0:0:0:0:
320,192,44783,128,0,45116:0:0:0:0:
192,192,44783,1,0,0:0:0:0:
192,192,45116,128,0,45450:0:0:0:0:
448,192,45450,128,0,45783:0:0:0:0:
320,192,45450,1,0,0:0:0:0:
64,192,45783,128,0,45991:0:0:0:0:
320,192,45991,128,0,47783:0:0:0:0:
448,192,48116,128,0,48325:0:0:0:0:
320,192,48116,1,0,0:0:0:0:
64,192,48366,128,0,49366:0:0:0:0:
