osu file format v14

[General]
AudioFilename: PEPSIMAN.mp3
AudioLeadIn: 0
PreviewTime: 33
Countdown: 0
SampleSet: Normal
StackLeniency: 0.7
Mode: 1
LetterboxInBreaks: 0
WidescreenStoryboard: 0

[Editor]
DistanceSpacing: 1.2
BeatDivisor: 4
GridSize: 4
TimelineZoom: 2.1

[Metadata]
Title:PEPSI * MAN
TitleUnicode:PEPSI ☆ MAN
Artist:NOMA
ArtistUnicode:NOMA
Creator:Zetera
Version:ONI MAN
Source:
Tags:MowtenDoo YTPMV MAD Irreversible Snaggletooth Mao Yuzu- [Nicole] Stjpa Feerum Phil stankill
BeatmapID:801096
BeatmapSetID:364712

[Difficulty]
HPDrainRate:5
CircleSize:2
OverallDifficulty:5
ApproachRate:9
SliderMultiplier:1.3999999666214
SliderTickRate:1

[Events]
//Background and Video events
0,0,"BG_MTNDW.jpg",0,0
//Break Periods
//Storyboard Layer 0 (Background)
//Storyboard Layer 1 (Fail)
//Storyboard Layer 2 (Pass)
//Storyboard Layer 3 (Foreground)
//Storyboard Sound Samples

[TimingPoints]
1450,333.333333333333,4,1,1,90,1,0
48116,-83.3333333333333,4,1,1,90,0,0

[Colours]
Combo1 : 192,192,192
Combo2 : 128,128,255

[HitObjects]
256,188,1450,5,8,0:0:0:0:
256,188,1783,1,8,0:0:0:0:
256,188,2116,1,8,0:0:0:0:
340,184,2283,1,0,0:0:0:0:
304,108,2449,1,12,0:0:0:0:
300,180,2783,1,4,0:0:0:0:
168,136,2949,1,0,0:0:0:0:
268,148,3033,1,0,0:0:0:0:
384,164,3116,1,8,0:0:0:0:
360,168,3283,1,0,0:0:0:0:
384,164,3616,1,0,0:0:0:0:
360,144,3783,1,8,0:0:0:0:
376,144,3866,1,8,0:0:0:0:
376,144,3949,1,0,0:0:0:0:
192,160,4116,1,0,0:0:0:0:
192,160,4199,1,0,0:0:0:0:
192,160,4283,1,0,0:0:0:0:
352,148,4449,1,8,0:0:0:0:
236,184,4616,1,0,0:0:0:0:
300,216,4949,1,0,0:0:0:0:
300,180,5116,1,8,0:0:0:0:
352,144,5199,1,0,0:0:0:0:
368,156,5283,1,8,0:0:0:0:
384,160,5449,1,0,0:0:0:0:
244,108,5616,1,0,0:0:0:0:
244,108,5699,1,0,0:0:0:0:
264,88,5783,1,8,0:0:0:0:
352,120,5949,1,0,0:0:0:0:
348,188,6283,1,0,0:0:0:0:
372,144,6449,1,8,0:0:0:0:
372,144,6533,1,8,0:0:0:0:
400,148,6616,1,0,0:0:0:0:
260,168,6783,1,0,0:0:0:0:
260,168,6866,1,0,0:0:0:0:
260,168,6949,1,0,0:0:0:0:
368,160,7116,1,8,0:0:0:0:
368,160,7283,1,0,0:0:0:0:
208,144,7616,1,0,0:0:0:0:
284,140,7783,1,8,0:0:0:0:
284,140,7866,1,0,0:0:0:0:
356,140,7949,1,8,0:0:0:0:
376,136,8116,1,12,0:0:0:0:
320,172,8283,1,0,0:0:0:0:
320,172,8366,1,0,0:0:0:0:
320,172,8449,1,0,0:0:0:0:
440,180,8616,1,8,0:0:0:0:
240,168,8783,1,0,0:0:0:0:
352,160,8949,1,0,0:0:0:0:
336,144,9116,1,8,0:0:0:0:
336,144,9283,1,8,0:0:0:0:
292,108,9449,1,12,0:0:0:0:
312,124,9616,1,0,0:0:0:0:
312,124,9699,1,0,0:0:0:0:
268,128,9783,1,0,0:0:0:0:
312,124,9866,1,0,0:0:0:0:
248,128,9949,1,8,0:0:0:0:
312,200,10116,1,0,0:0:0:0:
312,212,10283,1,0,0:0:0:0:
364,160,10449,1,8,0:0:0:0:
364,160,10616,1,8,0:0:0:0:
364,160,10783,1,8,0:0:0:0:
364,160,10866,1,8,0:0:0:0:
412,168,10949,1,0,0:0:0:0:
360,152,11116,1,0,0:0:0:0:
360,152,11283,1,0,0:0:0:0:
332,208,11449,1,8,0:0:0:0:
332,208,11533,1,8,0:0:0:0:
436,184,11616,1,0,0:0:0:0:
388,168,11783,1,0,0:0:0:0:
320,128,11949,1,0,0:0:0:0:
272,168,12116,1,8,0:0:0:0:
272,168,12199,1,8,0:0:0:0:
272,168,12283,1,0,0:0:0:0:
272,168,12449,1,8,0:0:0:0:
272,168,12532,1,8,0:0:0:0:
272,168,12616,1,0,0:0:0:0:
272,168,12783,1,8,0:0:0:0:
272,168,12866,1,8,0:0:0:0:
272,168,12950,1,0,0:0:0:0:
272,168,13033,1,0,0:0:0:0:
272,168,13116,1,8,0:0:0:0:
204,184,13449,1,0,0:0:0:0:
204,184,13616,1,0,0:0:0:0:
288,124,13783,1,12,0:0:0:0:
220,180,13949,1,0,0:0:0:0:
332,112,14283,1,12,0:0:0:0:
332,112,14616,1,12,0:0:0:0:
300,200,14783,1,0,0:0:0:0:
324,212,14949,1,0,0:0:0:0:
324,212,15033,1,0,0:0:0:0:
424,184,15116,1,8,0:0:0:0:
328,176,15283,1,0,0:0:0:0:
448,168,15366,1,8,0:0:0:0:
448,168,15533,1,8,0:0:0:0:
448,160,15616,1,0,0:0:0:0:
320,204,15783,1,0,0:0:0:0:
376,176,15866,1,8,0:0:0:0:
416,176,15949,1,0,0:0:0:0:
328,144,16116,1,0,0:0:0:0:
196,168,16283,1,0,0:0:0:0:
264,112,16449,1,12,0:0:0:0:
256,128,16616,1,0,0:0:0:0:
288,144,16949,1,12,0:0:0:0:
288,144,17283,1,12,0:0:0:0:
324,180,17449,1,8,0:0:0:0:
304,160,17616,1,0,0:0:0:0:
304,160,17699,1,0,0:0:0:0:
304,160,17783,1,0,0:0:0:0:
424,160,17949,1,8,0:0:0:0:
436,184,18033,1,8,0:0:0:0:
436,184,18116,1,0,0:0:0:0:
448,184,18199,1,8,0:0:0:0:
440,188,18283,1,0,0:0:0:0:
352,216,18449,1,0,0:0:0:0:
352,216,18533,1,0,0:0:0:0:
400,176,18616,1,8,0:0:0:0:
352,228,18783,1,0,0:0:0:0:
352,228,18949,1,0,0:0:0:0:
368,164,19116,1,8,0:0:0:0:
380,172,19283,1,0,0:0:0:0:
376,160,19616,1,8,0:0:0:0:
376,160,19949,1,8,0:0:0:0:
328,200,20116,1,12,0:0:0:0:
428,176,20283,1,0,0:0:0:0:
392,176,20366,1,8,0:0:0:0:
428,176,20449,1,0,0:0:0:0:
432,180,20616,1,12,0:0:0:0:
420,176,20783,1,8,0:0:0:0:
420,172,20866,1,8,0:0:0:0:
416,176,20949,1,0,0:0:0:0:
320,100,21116,1,12,0:0:0:0:
240,152,21283,1,0,0:0:0:0:
384,136,21449,1,0,0:0:0:0:
384,136,21616,1,0,0:0:0:0:
356,120,21783,1,8,0:0:0:0:
320,128,21949,1,0,0:0:0:0:
312,124,22283,1,8,0:0:0:0:
312,124,22616,1,8,0:0:0:0:
360,148,22783,1,8,0:0:0:0:
448,172,22866,1,8,0:0:0:0:
416,168,22949,1,0,0:0:0:0:
416,168,23033,1,0,0:0:0:0:
416,168,23116,1,0,0:0:0:0:
448,164,23283,1,8,0:0:0:0:
448,164,23366,1,8,0:0:0:0:
432,168,23449,1,0,0:0:0:0:
432,168,23533,1,0,0:0:0:0:
432,168,23616,1,0,0:0:0:0:
416,124,23783,1,12,0:0:0:0:
272,140,24116,1,4,0:0:0:0:
224,168,24283,1,0,0:0:0:0:
224,168,24366,1,0,0:0:0:0:
352,184,24449,1,8,0:0:0:0:
304,164,24616,1,0,0:0:0:0:
276,212,24949,1,0,0:0:0:0:
336,200,25116,1,8,0:0:0:0:
336,200,25199,1,8,0:0:0:0:
416,184,25283,1,0,0:0:0:0:
328,220,25449,1,0,0:0:0:0:
356,244,25616,1,0,0:0:0:0:
372,248,25699,1,0,0:0:0:0:
388,196,25783,1,8,0:0:0:0:
376,212,25949,1,0,0:0:0:0:
352,204,26283,1,0,0:0:0:0:
388,196,26449,1,8,0:0:0:0:
424,196,26533,1,0,0:0:0:0:
384,176,26616,1,8,0:0:0:0:
424,188,26783,1,0,0:0:0:0:
184,168,26949,1,0,0:0:0:0:
184,168,27033,1,0,0:0:0:0:
256,176,27116,1,8,0:0:0:0:
360,160,27283,1,0,0:0:0:0:
256,244,27616,1,0,0:0:0:0:
296,168,27783,1,8,0:0:0:0:
296,168,27866,1,8,0:0:0:0:
388,176,27949,1,0,0:0:0:0:
396,152,28116,1,0,0:0:0:0:
320,228,28283,1,0,0:0:0:0:
320,228,28366,1,0,0:0:0:0:
388,176,28449,1,8,0:0:0:0:
448,160,28616,1,0,0:0:0:0:
312,124,28949,1,0,0:0:0:0:
356,160,29116,1,8,0:0:0:0:
356,160,29200,1,8,0:0:0:0:
356,160,29283,1,8,0:0:0:0:
248,152,29449,1,0,0:0:0:0:
195,236,29533,1,0,0:0:0:0:
251,252,29616,1,0,0:0:0:0:
273,173,29783,1,8,0:0:0:0:
352,190,29949,1,0,0:0:0:0:
171,124,30283,1,0,0:0:0:0:
297,152,30449,1,8,0:0:0:0:
455,173,30533,1,8,0:0:0:0:
409,175,30616,1,0,0:0:0:0:
343,185,30783,1,0,0:0:0:0:
343,185,30866,1,0,0:0:0:0:
373,172,30949,1,0,0:0:0:0:
362,167,31116,1,8,0:0:0:0:
298,198,31283,1,0,0:0:0:0:
205,165,31616,1,0,0:0:0:0:
314,178,31699,1,0,0:0:0:0:
308,167,31783,1,8,0:0:0:0:
308,167,31866,1,8,0:0:0:0:
373,172,31949,1,0,0:0:0:0:
258,196,32116,1,0,0:0:0:0:
258,196,32199,1,0,0:0:0:0:
258,196,32283,1,0,0:0:0:0:
352,173,32449,1,8,0:0:0:0:
398,173,32616,1,0,0:0:0:0:
199,208,32783,1,0,0:0:0:0:
436,216,32949,1,0,0:0:0:0:
436,216,33033,1,0,0:0:0:0:
410,174,33116,1,8,0:0:0:0:
401,169,33283,1,0,0:0:0:0:
352,108,33449,1,0,0:0:0:0:
323,121,33783,1,8,0:0:0:0:
339,120,34116,1,0,0:0:0:0:
291,102,34449,1,8,0:0:0:0:
248,200,34783,5,0,0:0:0:0:
248,200,34949,1,0,0:0:0:0:
268,192,35116,1,12,0:0:0:0:
292,184,35283,1,0,0:0:0:0:
316,272,35616,1,12,0:0:0:0:
316,272,35949,1,12,0:0:0:0:
380,180,36116,1,4,0:0:0:0:
420,224,36449,1,0,0:0:0:0:
420,224,36616,1,0,0:0:0:0:
360,172,36783,1,8,0:0:0:0:
360,172,36949,1,8,0:0:0:0:
304,180,37116,1,0,0:0:0:0:
236,188,37449,1,0,0:0:0:0:
236,188,37616,1,0,0:0:0:0:
316,188,37783,1,12,0:0:0:0:
316,148,37949,1,0,0:0:0:0:
296,176,38283,1,12,0:0:0:0:
312,124,38616,1,12,0:0:0:0:
280,204,38783,1,0,0:0:0:0:
388,168,38949,1,8,0:0:0:0:
388,208,39116,1,0,0:0:0:0:
388,208,39199,1,0,0:0:0:0:
408,212,39283,1,0,0:0:0:0:
372,176,39449,1,8,0:0:0:0:
424,168,39616,1,0,0:0:0:0:
392,172,39783,1,8,0:0:0:0:
248,112,40116,1,0,0:0:0:0:
248,112,40283,1,0,0:0:0:0:
344,104,40449,1,12,0:0:0:0:
392,112,40616,1,0,0:0:0:0:
384,108,40949,1,12,0:0:0:0:
384,108,41283,1,12,0:0:0:0:
300,168,41449,1,0,0:0:0:0:
300,168,41533,1,0,0:0:0:0:
416,176,41616,1,0,0:0:0:0:
288,192,41783,1,8,0:0:0:0:
288,192,41949,1,8,0:0:0:0:
288,192,42116,1,8,0:0:0:0:
288,192,42283,1,8,0:0:0:0:
288,192,42449,1,8,0:0:0:0:
288,192,42616,1,8,0:0:0:0:
304,148,42783,1,12,0:0:0:0:
340,152,42949,1,0,0:0:0:0:
340,152,43116,1,0,0:0:0:0:
384,116,43283,1,12,0:0:0:0:
264,144,43449,1,0,0:0:0:0:
264,144,43616,1,0,0:0:0:0:
372,120,43783,1,12,0:0:0:0:
380,152,43949,1,0,0:0:0:0:
244,160,44116,1,8,0:0:0:0:
244,160,44227,1,8,0:0:0:0:
244,160,44338,1,8,0:0:0:0:
236,92,44449,1,0,0:0:0:0:
320,104,44616,1,0,0:0:0:0:
408,144,44783,1,8,0:0:0:0:
432,152,45116,1,8,0:0:0:0:
296,120,45449,1,12,0:0:0:0:
256,192,45616,12,0,47783,0:0:0:0:
264,144,48116,5,4,0:0:0:0:
