osu file format v14

[General]
AudioFilename: PEPSIMAN.mp3
AudioLeadIn: 0
PreviewTime: 33
Countdown: 0
SampleSet: Normal
StackLeniency: 0.7
Mode: 0
LetterboxInBreaks: 0
WidescreenStoryboard: 0

[Editor]
Bookmarks: 8035,13368,24035,34702
DistanceSpacing: 1.7
BeatDivisor: 4
GridSize: 8
TimelineZoom: 1.6

[Metadata]
Title:PEPSI * MAN
TitleUnicode:PEPSI ☆ MAN
Artist:NOMA
ArtistUnicode:NOMA
Creator:Zetera
Version:NORMAL MAN
Source:
Tags:MowtenDoo YTPMV MAD Irreversible Snaggletooth Mao Yuzu- [Nicole] Stjpa Feerum Phil stankill
BeatmapID:800537
BeatmapSetID:364712

[Difficulty]
HPDrainRate:3.8
CircleSize:3
OverallDifficulty:4
ApproachRate:5
SliderMultiplier:0.999999999999999
SliderTickRate:1

[Events]
//Background and Video events
0,0,"BG_MTNDW.jpg",0,0
//Break Periods
//Storyboard Layer 0 (Background)
//Storyboard Layer 1 (Fail)
//Storyboard Layer 2 (Pass)
//Storyboard Layer 3 (Foreground)
//Storyboard Sound Samples

[TimingPoints]
1450,333.333333333333,4,1,0,100,1,0
8116,-100,4,1,0,100,0,0
8199,-100,4,1,0,100,0,0
9449,-100,4,1,0,100,0,0
9533,-100,4,1,0,100,0,0
10783,-100,4,1,0,100,0,0
12116,-100,4,1,0,100,0,0
13449,-100,4,1,0,100,0,0
14783,-100,4,1,0,100,0,0
16116,-100,4,1,0,100,0,0
17449,-100,4,1,0,100,0,0
17533,-100,4,1,0,100,0,0
18783,-100,4,1,0,100,0,0
20283,-100,4,1,0,100,0,0
21449,-100,4,1,0,100,0,0
30116,-100,4,1,0,100,0,0
30783,-100,4,1,0,100,0,0
32116,-100,4,1,0,100,0,0
33449,-100,4,1,0,100,0,0
34783,-100,4,1,0,100,0,0
36116,-100,4,2,0,100,0,0
37116,-100,4,1,0,100,0,0
41449,-100,4,2,0,100,0,0
42783,-100,4,1,0,100,0,0
44116,-100,4,2,0,100,0,0
45366,-100,4,2,0,100,0,0
45449,-100,4,2,0,100,0,0
45533,-100,4,1,0,50,0,0
46116,-100,4,1,0,50,0,0
46783,-100,4,1,0,50,0,0
47449,-100,4,1,0,50,0,0
48116,-100,4,1,3,50,0,0

[Colours]
Combo1 : 40,140,220
Combo2 : 255,0,0
Combo3 : 70,70,70

[HitObjects]
152,64,1450,5,8,0:2:0:0:
32,183,1783,1,8,0:2:0:0:
151,302,2116,2,0,L|201:251,1,50,8|4,0:2|0:3,0:0:0:0:
247,206,2449,1,2,0:0:0:0:
416,221,2783,6,0,B|395:188|395:188|387:109,1,99.9999999999999,4|8,0:0|0:0,0:0:0:0:
351,50,3283,2,0,P|304:36|242:60,1,99.9999999999999,4|0,0:3|0:0,0:0:0:0:
186,97,3783,2,0,L|122:91,1,50,8|4,0:0|0:3,0:0:0:0:
53,111,4116,2,0,P|31:153|45:223,1,99.9999999999999,4|8,0:3|0:0,0:0:0:0:
93,265,4616,2,0,B|156:270|156:270|207:254,1,99.9999999999999,4|0,0:3|0:0,0:0:0:0:
260,209,5116,1,8,0:0:0:0:
260,209,5283,1,4,0:3:0:0:
325,262,5449,6,0,P|344:222|321:151,1,99.9999999999999,4|8,0:3|0:0,0:0:0:0:
271,111,5949,2,0,P|323:84|384:98,1,99.9999999999999,4|0,0:3|0:0,0:0:0:0:
442,117,6449,2,0,L|451:179,1,50,8|4,0:0|0:3,0:0:0:0:
505,230,6783,2,0,L|489:343,1,99.9999999999999,4|8,0:3|0:0,0:0:0:0:
421,377,7283,2,0,B|357:382|357:382|303:368,1,99.9999999999999,4|4,0:3|0:3,0:0:0:0:
255,320,7783,1,8,0:0:0:0:
255,320,7949,1,4,0:3:0:0:
173,343,8116,5,4,0:2:0:0:
256,192,8283,12,4,12783,0:2:0:0:
366,71,13449,6,0,L|300:57,1,50,6|2,0:0|0:0,0:0:0:0:
232,76,13783,1,10,0:0:0:0:
158,33,13949,2,0,P|112:18|52:44,1,99.9999999999999,0|2,0:0|0:0,0:0:0:0:
112,103,14449,2,0,P|120:130|116:168,1,50,8|2,0:0|0:0,0:0:0:0:
190,200,14783,2,0,P|129:235|54:205,2,150,4|0|8,3:0|0:0|0:0,0:0:0:0:
324,96,16116,6,0,P|358:83|384:84,1,50,6|2,0:0|0:0,0:0:0:0:
449,115,16449,1,8,0:0:0:0:
495,186,16616,2,0,P|509:235|498:299,1,99.9999999999999,0|2,0:0|0:0,0:0:0:0:
434,332,17116,2,0,L|364:325,1,50,8|2,0:0|0:0,0:0:0:0:
300,344,17449,2,0,B|251:354|251:354|193:340,2,99.9999999999999,4|8|0,3:0|0:0|0:0,0:0:0:0:
248,181,18449,1,8,0:0:0:0:
85,232,18783,6,0,P|76:200|79:177,1,50,6|2,0:0|0:0,0:0:0:0:
104,102,19116,1,8,0:0:0:0:
56,31,19283,2,0,P|101:16|166:46,1,99.9999999999999,0|2,0:0|0:0,0:0:0:0:
217,84,19783,2,0,L|209:147,1,50,8|2,0:0|0:0,0:0:0:0:
242,212,20116,2,0,B|255:306|255:306|290:358,2,150,4|4|8,3:0|0:3|0:0,0:0:0:0:
349,79,21449,6,0,L|411:87,1,50,6|2,0:0|0:0,0:0:0:0:
480,61,21783,1,8,0:0:0:0:
502,142,21949,2,0,L|492:247,1,99.9999999999999,0|2,0:0|0:0,0:0:0:0:
428,298,22449,2,0,P|399:298|371:290,1,50,8|2,0:0|0:0,0:0:0:0:
313,237,22783,2,0,P|247:220|163:253,2,150,4|4|8,3:0|0:3|0:0,0:0:0:0:
455,329,24116,6,0,P|474:284|462:215,1,99.9999999999999,4|8,0:0|0:0,0:0:0:0:
425,161,24616,2,0,L|310:149,1,99.9999999999999,4|0,0:3|0:0,0:0:0:0:
240,140,25116,2,0,P|232:105|238:79,1,50,8|4,0:0|0:3,0:0:0:0:
289,27,25449,2,0,P|236:9|176:30,1,99.9999999999999,4|8,0:3|0:0,0:0:0:0:
136,81,25949,2,0,B|142:151|142:151|129:202,1,99.9999999999999,4|0,0:3|0:0,0:0:0:0:
85,249,26449,1,8,0:0:0:0:
85,249,26616,1,4,0:3:0:0:
162,283,26783,6,0,P|208:294|262:280,1,99.9999999999999,4|8,0:3|0:0,0:0:0:0:
323,227,27283,2,0,P|345:273|332:332,1,99.9999999999999,4|0,0:3|0:0,0:0:0:0:
275,377,27783,2,0,L|209:377,1,50,8|4,0:0|0:3,0:0:0:0:
140,363,28116,2,0,B|73:376|73:376|30:364,1,99.9999999999999,4|8,0:3|0:0,0:0:0:0:
21,284,28616,2,0,L|31:161,1,99.9999999999999,4|4,0:3|0:3,0:0:0:0:
79,115,29116,1,8,0:0:0:0:
79,115,29283,1,4,0:3:0:0:
21,52,29449,6,0,P|69:32|129:51,1,99.9999999999999,4|8,0:3|0:0,0:0:0:0:
181,93,29949,1,4,0:3:0:0:
256,192,30116,12,0,34116,0:0:0:0:
289,165,34783,6,0,L|303:231,1,50,0|0,0:0|0:0,0:0:0:0:
352,280,35116,1,8,0:0:0:0:
420,229,35283,2,0,P|438:188|428:123,1,99.9999999999999,0|0,0:0|0:0,0:0:0:0:
374,72,35783,2,0,L|309:68,1,50,8|0,0:0|0:0,0:0:0:0:
238,68,36116,2,0,B|166:42|166:42|85:69,1,150,6|4,0:0|3:0,0:0:0:0:
35,124,36783,2,0,L|46:239,1,99.9999999999999,0|2,1:0|0:0,0:0:0:0:
150,356,37449,6,0,P|178:361|207:353,1,50,6|2,0:0|0:0,0:0:0:0:
270,310,37783,1,8,0:0:0:0:
226,237,37949,2,0,P|214:192|230:122,1,99.9999999999999,4|2,0:3|0:0,0:0:0:0:
278,76,38449,2,0,L|351:65,1,50,8|2,0:0|0:0,0:0:0:0:
405,104,38783,2,0,P|410:72|398:23,2,74.9999999999999,4|4|4,0:3|0:3|0:3,0:0:0:0:
344,163,39449,1,0,0:0:0:0:
456,291,39783,1,0,0:0:0:0:
286,306,40116,6,0,L|221:315,1,50,6|2,0:0|0:0,0:0:0:0:
157,281,40449,1,8,0:0:0:0:
92,337,40616,2,0,P|73:295|85:238,1,99.9999999999999,4|2,0:3|0:0,0:0:0:0:
122,168,41116,2,0,P|128:142|127:109,1,50,8|2,0:0|0:0,0:0:0:0:
56,72,41449,6,0,P|115:36|201:74,1,150,2|4,1:0|3:0,0:0:0:0:
250,116,42116,2,0,B|348:123|348:123|409:89,1,150,2|4,1:0|3:0,0:0:0:0:
477,85,42783,6,0,P|490:123|486:153,1,50,6|0,0:0|0:0,0:0:0:0:
457,211,43116,1,8,0:0:0:0:
372,205,43283,2,0,L|257:216,1,99.9999999999999,4|2,0:3|0:0,0:0:0:0:
206,268,43783,2,0,P|193:306|198:332,1,50,8|2,0:0|0:0,0:0:0:0:
265,360,44116,6,0,B|341:374|341:374|422:357,1,150,4|0,3:0|1:0,0:0:0:0:
472,298,44783,2,0,P|487:249|470:183,1,99.9999999999999,0|0,1:0|1:0,0:0:0:0:
256,192,45449,12,4,48116,0:1:0:0:
