osu file format v14

[General]
AudioFilename: PEPSIMAN.mp3
AudioLeadIn: 0
PreviewTime: 33
Countdown: 0
SampleSet: Soft
StackLeniency: 0.7
Mode: 3
LetterboxInBreaks: 0
SpecialStyle: 0
WidescreenStoryboard: 0

[Editor]
DistanceSpacing: 1.2
BeatDivisor: 4
GridSize: 4
TimelineZoom: 1.4

[Metadata]
Title:PEPSI * MAN
TitleUnicode:PEPSI ☆ MAN
Artist:NOMA
ArtistUnicode:NOMA
Creator:Zetera
Version:NM MAN
Source:Feerum
Tags:MowtenDoo YTPMV MAD
BeatmapID:970961
BeatmapSetID:452675

[Difficulty]
HPDrainRate:7
CircleSize:4
OverallDifficulty:7
ApproachRate:9
SliderMultiplier:1.6
SliderTickRate:1

[Events]
//Background and Video events
0,0,"BG_MTNDW.jpg",0,0
//Break Periods
//Storyboard Layer 0 (Background)
//Storyboard Layer 1 (Fail)
//Storyboard Layer 2 (Pass)
//Storyboard Layer 3 (Foreground)
//Storyboard Sound Samples

[TimingPoints]
1450,333.333333333333,4,2,2,40,1,0

[Colours]
Combo1 : 192,192,192
Combo2 : 128,128,255

[HitObjects]
448,192,1450,5,8,1:0:0:0:
320,192,1450,1,0,0:0:0:40:Finish.wav
448,192,1783,1,8,1:0:0:0:
320,192,1783,1,0,0:0:0:40:Finish.wav
320,192,2116,1,8,1:0:0:0:
448,192,2116,1,0,0:0:0:40:Finish.wav
192,192,2283,1,4,0:0:0:0:
64,192,2283,1,0,0:0:0:0:
448,192,2449,1,8,1:0:0:0:
320,192,2449,1,0,0:0:0:40:Finish.wav
320,192,2783,1,0,0:0:0:50:Cheer.wav
64,192,2783,1,4,0:0:0:0:
192,192,3116,1,8,0:0:0:0:
448,192,3116,1,0,0:0:0:0:
320,192,3283,1,4,0:0:0:0:
64,192,3783,1,8,0:0:0:0:
192,192,3783,1,0,0:0:0:0:
320,192,3949,1,4,0:0:0:0:
192,192,4116,1,4,0:0:0:0:
448,192,4116,1,0,0:0:0:0:
64,192,4449,1,8,0:0:0:0:
320,192,4449,1,0,0:0:0:0:
192,192,4616,1,4,0:0:0:0:
448,192,5116,1,8,0:0:0:0:
64,192,5116,1,0,0:0:0:0:
192,192,5283,1,4,0:0:0:0:
320,192,5449,1,4,0:0:0:0:
64,192,5449,1,0,0:0:0:0:
448,192,5783,1,8,0:0:0:0:
320,192,5783,1,0,0:0:0:0:
64,192,5949,1,4,0:0:0:0:
192,192,6449,1,8,0:0:0:0:
448,192,6449,1,0,0:0:0:0:
320,192,6616,1,4,0:0:0:0:
448,192,6783,1,4,0:0:0:0:
64,192,6783,1,0,0:0:0:0:
320,192,7116,1,8,0:0:0:0:
64,192,7116,1,0,0:0:0:0:
192,192,7283,1,4,0:0:0:0:
448,192,7616,1,4,0:0:0:0:
64,192,7783,1,8,0:0:0:0:
320,192,7783,1,0,0:0:0:0:
192,192,7949,1,4,0:0:0:0:
64,192,8116,1,0,0:0:0:40:Finish.wav
448,192,8116,128,4,9449:0:0:0:0:
320,192,8116,1,0,0:0:0:0:
192,192,8449,1,8,0:0:0:0:
64,192,8616,1,4,0:0:0:0:
320,192,9116,1,8,0:0:0:0:
192,192,9283,1,4,0:0:0:0:
64,192,9449,128,0,10783:0:0:0:40:Finish.wav
320,192,9449,1,4,0:0:0:0:
448,192,9783,1,8,0:0:0:0:
192,192,9949,1,4,0:0:0:0:
448,192,10449,1,8,0:0:0:0:
192,192,10616,1,4,0:0:0:0:
320,192,10783,128,0,11116:0:0:0:40:Finish.wav
448,192,10783,1,4,0:0:0:0:
192,192,11116,1,8,0:0:0:0:
448,192,11283,1,4,0:0:0:0:
192,192,11449,128,4,11783:0:0:0:0:
64,192,11449,1,0,0:0:0:40:Finish.wav
320,192,11783,1,8,0:0:0:0:
64,192,11949,1,4,0:0:0:0:
448,192,12116,128,4,12449:0:0:0:0:
192,192,12116,1,0,0:0:0:40:Finish.wav
320,192,12449,128,4,12783:0:0:0:0:
64,192,12449,1,0,0:0:0:40:Finish.wav
192,192,12783,128,4,13449:0:0:0:0:
448,192,12783,1,0,0:0:0:40:Finish.wav
320,192,13116,1,4,0:0:0:0:
64,192,13449,1,0,0:0:0:40:Finish.wav
448,192,13449,1,4,0:0:0:0:
320,192,13616,1,0,0:0:0:0:
64,192,13783,1,8,0:0:0:0:
192,192,13783,1,0,0:0:0:0:
448,192,13949,1,4,0:0:0:0:
192,192,14283,1,0,0:0:0:0:
320,192,14449,1,8,0:0:0:0:
448,192,14449,1,0,0:0:0:0:
64,192,14616,1,4,0:0:0:0:
448,192,14783,1,8,3:0:0:0:
192,192,14783,128,0,16116:0:0:0:0:
320,192,15116,1,2,3:0:0:0:
448,192,15283,1,8,3:0:0:0:
64,192,15616,1,2,3:0:0:0:
320,192,15949,1,2,3:0:0:0:
448,192,16116,1,4,0:0:0:0:
64,192,16116,1,0,0:0:0:0:
192,192,16283,1,0,0:0:0:0:
64,192,16449,1,8,0:0:0:0:
320,192,16449,1,0,0:0:0:0:
448,192,16616,1,4,0:0:0:0:
192,192,16949,1,4,0:0:0:0:
320,192,17116,1,8,0:0:0:0:
64,192,17116,1,0,0:0:0:0:
192,192,17283,1,4,0:0:0:0:
448,192,17449,128,8,18783:3:0:0:0:
64,192,17449,1,0,0:0:0:0:
320,192,17783,1,2,3:0:0:0:
64,192,18116,1,2,3:0:0:0:
192,192,18449,1,8,3:0:0:0:
64,192,18783,1,4,0:0:0:0:
320,192,18783,1,0,0:0:0:0:
192,192,18949,1,0,0:0:0:0:
448,192,19116,1,8,0:0:0:0:
320,192,19116,1,0,0:0:0:0:
64,192,19283,1,4,0:0:0:0:
320,192,19616,1,0,0:0:0:0:
192,192,19783,1,8,0:0:0:0:
64,192,19783,1,0,0:0:0:0:
448,192,19949,1,4,0:0:0:0:
320,192,20116,1,8,3:0:0:0:
64,192,20116,128,0,21449:0:0:0:0:
192,192,20283,1,8,3:0:0:0:
448,192,20616,1,8,3:0:0:0:
320,192,21116,1,8,3:0:0:0:
192,192,21449,1,4,0:0:0:0:
448,192,21449,1,0,0:0:0:0:
320,192,21616,1,0,0:0:0:0:
64,192,21783,1,8,0:0:0:0:
192,192,21783,1,0,0:0:0:0:
448,192,21949,1,4,0:0:0:0:
320,192,22283,1,4,0:0:0:0:
64,192,22449,1,8,0:0:0:0:
448,192,22449,1,0,0:0:0:0:
192,192,22616,1,4,0:0:0:0:
448,192,22783,1,8,3:0:0:0:
320,192,22783,128,0,24116:0:0:0:0:
192,192,23283,1,8,3:0:0:0:
64,192,23783,1,8,3:0:0:0:
192,192,24116,1,0,0:0:0:50:Cheer.wav
64,192,24116,1,0,0:0:0:40:Finish.wav
448,192,24449,1,8,0:0:0:0:
320,192,24449,1,0,0:0:0:0:
192,192,24616,1,4,0:0:0:0:
320,192,25116,1,8,0:0:0:0:
192,192,25116,1,0,0:0:0:0:
64,192,25283,1,4,0:0:0:0:
192,192,25449,1,4,0:0:0:0:
448,192,25449,1,0,0:0:0:0:
64,192,25783,1,8,0:0:0:0:
320,192,25783,1,0,0:0:0:0:
448,192,25949,1,4,0:0:0:0:
448,192,26449,1,8,0:0:0:0:
192,192,26449,1,0,0:0:0:0:
320,192,26616,1,4,0:0:0:0:
192,192,26783,1,4,0:0:0:0:
64,192,26783,1,0,0:0:0:0:
448,192,27116,1,8,0:0:0:0:
320,192,27116,1,0,0:0:0:0:
192,192,27283,1,4,0:0:0:0:
64,192,27783,1,8,0:0:0:0:
192,192,27783,1,0,0:0:0:0:
448,192,27949,1,4,0:0:0:0:
320,192,28116,1,4,0:0:0:0:
192,192,28116,1,0,0:0:0:0:
64,192,28449,1,8,0:0:0:0:
320,192,28449,1,0,0:0:0:0:
448,192,28616,1,4,0:0:0:0:
320,192,28949,1,4,0:0:0:0:
64,192,29116,1,8,0:0:0:0:
448,192,29116,1,0,0:0:0:0:
192,192,29283,1,4,0:0:0:0:
448,192,29449,1,4,0:0:0:0:
320,192,29449,1,0,0:0:0:0:
64,192,29783,1,8,0:0:0:0:
192,192,29783,1,0,0:0:0:0:
320,192,29949,1,4,0:0:0:0:
448,192,30449,1,8,0:0:0:0:
320,192,30449,1,0,0:0:0:0:
192,192,30616,1,4,0:0:0:0:
320,192,30783,1,4,0:0:0:0:
64,192,30783,1,0,0:0:0:0:
192,192,31116,1,8,0:0:0:0:
448,192,31116,1,0,0:0:0:0:
320,192,31283,1,4,0:0:0:0:
320,192,31783,1,8,0:0:0:0:
64,192,31783,1,0,0:0:0:0:
448,192,31949,1,4,0:0:0:0:
192,192,32116,1,4,0:0:0:0:
64,192,32116,1,0,0:0:0:0:
448,192,32449,1,8,0:0:0:0:
320,192,32449,1,0,0:0:0:0:
64,192,32616,1,4,0:0:0:0:
320,192,32783,1,4,0:0:0:0:
192,192,32783,1,0,0:0:0:0:
64,192,33116,1,8,0:0:0:0:
448,192,33116,1,0,0:0:0:0:
192,192,33283,1,4,0:0:0:0:
448,192,33449,1,4,0:0:0:0:
320,192,33449,1,0,0:0:0:0:
192,192,33783,1,8,0:0:0:0:
64,192,33783,1,0,0:0:0:0:
320,192,34116,1,4,0:0:0:0:
448,192,34116,1,0,0:0:0:0:
192,192,34449,1,8,0:0:0:0:
64,192,34449,1,0,0:0:0:0:
448,192,34783,1,0,0:0:0:40:Finish.wav
320,192,34783,1,4,0:0:0:0:
64,192,34783,1,0,0:0:0:0:
192,192,34949,1,0,0:0:0:0:
64,192,35116,1,8,0:0:0:0:
320,192,35116,1,0,0:0:0:0:
448,192,35283,1,4,0:0:0:0:
320,192,35616,1,0,0:0:0:0:
64,192,35783,1,8,0:0:0:0:
448,192,35783,1,0,0:0:0:0:
192,192,35949,1,4,0:0:0:0:
64,192,36116,1,4,0:0:0:0:
448,192,36116,128,0,36449:0:0:0:0:
320,192,36449,1,0,0:0:0:0:
64,192,36616,1,4,0:0:0:0:
448,192,36783,1,8,0:0:0:0:
320,192,36783,1,0,0:0:0:0:
192,192,36949,1,0,0:0:0:0:
64,192,37116,128,0,37449:0:0:0:0:
320,192,37116,1,0,0:0:0:0:
192,192,37449,1,4,0:0:0:0:
448,192,37449,1,0,0:0:0:0:
320,192,37616,1,0,0:0:0:0:
64,192,37783,1,8,0:0:0:0:
192,192,37783,1,0,0:0:0:0:
448,192,37949,1,4,0:0:0:0:
192,192,38283,1,0,0:0:0:0:
320,192,38449,1,8,0:0:0:0:
64,192,38449,1,0,0:0:0:0:
192,192,38616,1,4,0:0:0:0:
448,192,38783,128,4,39449:0:0:0:0:
64,192,38783,1,0,0:0:0:0:
64,192,39033,1,4,0:0:0:0:
192,192,39283,1,4,0:0:0:0:
64,192,39449,1,8,0:0:0:0:
320,192,39449,128,0,39783:0:0:0:0:
192,192,39783,128,0,40116:0:0:0:0:
448,192,40116,1,4,0:0:0:0:
64,192,40116,1,0,0:0:0:0:
192,192,40283,1,0,0:0:0:0:
448,192,40449,1,8,0:0:0:0:
320,192,40449,1,0,0:0:0:0:
64,192,40616,1,4,0:0:0:0:
448,192,40949,1,0,0:0:0:0:
64,192,41116,1,8,0:0:0:0:
192,192,41116,1,0,0:0:0:0:
320,192,41283,1,4,0:0:0:0:
192,192,41449,128,4,41783:0:0:0:0:
448,192,41449,1,0,0:0:0:0:
320,192,41783,1,0,0:0:0:0:
64,192,41949,1,4,0:0:0:0:
448,192,42116,1,8,0:0:0:0:
320,192,42116,1,0,0:0:0:0:
192,192,42283,1,4,0:0:0:0:
320,192,42449,1,0,0:0:0:0:
64,192,42616,1,4,0:0:0:0:
192,192,42783,1,4,0:0:0:0:
448,192,42783,1,0,0:0:0:0:
320,192,42949,1,0,0:0:0:0:
64,192,43116,1,8,0:0:0:0:
448,192,43116,1,0,0:0:0:0:
192,192,43283,1,4,0:0:0:0:
448,192,43616,1,0,0:0:0:0:
64,192,43783,1,8,0:0:0:0:
192,192,43783,1,0,0:0:0:0:
320,192,43949,1,4,0:0:0:0:
448,192,44116,1,4,0:0:0:0:
192,192,44116,128,0,44783:0:0:0:0:
320,192,44616,1,4,0:0:0:0:
448,192,44783,128,8,45449:0:0:0:0:
64,192,45116,128,0,45449:0:0:0:0:
320,192,45449,1,0,0:0:0:40:Finish.wav
192,192,45449,1,4,0:0:0:0:
