osu file format v14

[General]
AudioFilename: PEPSIMAN.mp3
AudioLeadIn: 0
PreviewTime: 33
Countdown: 0
SampleSet: Normal
StackLeniency: 0.7
Mode: 1
LetterboxInBreaks: 0
WidescreenStoryboard: 0

[Editor]
DistanceSpacing: 1.2
BeatDivisor: 4
GridSize: 4
TimelineZoom: 2.1

[Metadata]
Title:PEPSI * MAN
TitleUnicode:PEPSI ☆ MAN
Artist:NOMA
ArtistUnicode:NOMA
Creator:Zetera
Version:MUZU MAN
Source:
Tags:MowtenDoo YTPMV MAD Irreversible Snaggletooth Mao Yuzu- [Nicole] Stjpa Feerum Phil stankill
BeatmapID:801375
BeatmapSetID:364712

[Difficulty]
HPDrainRate:5
CircleSize:4
OverallDifficulty:4.5
ApproachRate:9
SliderMultiplier:1.4
SliderTickRate:1

[Events]
//Background and Video events
0,0,"BG_MTNDW.jpg",0,0
//Break Periods
//Storyboard Layer 0 (Background)
//Storyboard Layer 1 (Fail)
//Storyboard Layer 2 (Pass)
//Storyboard Layer 3 (Foreground)
//Storyboard Sound Samples

[TimingPoints]
1450,333.333333333333,4,1,1,90,1,0
48116,-83.3333333333333,4,1,1,90,0,0

[Colours]
Combo1 : 192,192,192
Combo2 : 128,128,255

[HitObjects]
260,184,1450,5,8,0:0:0:0:
260,184,1783,1,8,0:0:0:0:
260,184,2116,1,8,0:0:0:0:
260,184,2283,1,0,0:0:0:0:
260,184,2449,1,8,0:0:0:0:
260,184,2783,1,4,0:0:0:0:
260,184,2949,1,0,0:0:0:0:
268,180,3116,1,8,0:0:0:0:
256,188,3283,1,0,0:0:0:0:
256,188,3616,1,0,0:0:0:0:
260,184,3783,1,8,0:0:0:0:
256,184,3949,1,8,0:0:0:0:
252,188,4116,1,0,0:0:0:0:
252,188,4199,1,0,0:0:0:0:
252,188,4282,1,0,0:0:0:0:
260,184,4449,1,8,0:0:0:0:
232,192,4616,1,0,0:0:0:0:
256,188,4949,1,0,0:0:0:0:
248,208,5116,1,8,0:0:0:0:
308,188,5283,1,0,0:0:0:0:
300,188,5449,1,0,0:0:0:0:
256,200,5782,1,8,0:0:0:0:
264,208,5949,1,0,0:0:0:0:
288,200,6283,1,0,0:0:0:0:
296,188,6449,1,8,0:0:0:0:
312,168,6616,1,8,0:0:0:0:
268,176,6783,1,0,0:0:0:0:
268,176,6866,1,0,0:0:0:0:
248,168,6949,1,0,0:0:0:0:
284,192,7116,1,8,0:0:0:0:
316,152,7283,1,0,0:0:0:0:
248,192,7616,1,0,0:0:0:0:
260,184,7783,1,8,0:0:0:0:
240,136,7949,1,0,0:0:0:0:
244,120,8116,1,12,0:0:0:0:
240,120,8283,1,0,0:0:0:0:
280,128,8366,1,0,0:0:0:0:
324,148,8449,1,8,0:0:0:0:
316,144,8616,1,0,0:0:0:0:
300,136,8783,1,8,0:0:0:0:
308,128,9116,1,8,0:0:0:0:
356,112,9449,1,12,0:0:0:0:
280,128,9616,1,0,0:0:0:0:
280,128,9699,1,0,0:0:0:0:
368,144,9783,1,8,0:0:0:0:
296,144,9949,1,0,0:0:0:0:
324,176,10116,1,8,0:0:0:0:
308,152,10449,1,8,0:0:0:0:
272,160,10783,1,12,0:0:0:0:
316,148,10949,1,0,0:0:0:0:
316,148,11116,1,0,0:0:0:0:
316,148,11283,1,0,0:0:0:0:
348,128,11449,1,12,0:0:0:0:
368,144,11616,1,0,0:0:0:0:
368,144,11783,1,0,0:0:0:0:
368,144,11949,1,0,0:0:0:0:
344,144,12116,1,12,0:0:0:0:
344,144,12449,1,12,0:0:0:0:
344,144,12783,1,12,0:0:0:0:
344,144,13116,1,12,0:0:0:0:
264,168,13449,1,0,0:0:0:0:
264,168,13616,1,0,0:0:0:0:
244,76,13783,1,12,0:0:0:0:
356,76,14283,1,12,0:0:0:0:
356,76,14616,1,12,0:0:0:0:
196,232,14783,1,0,0:0:0:0:
332,256,14949,1,0,0:0:0:0:
332,256,15033,1,0,0:0:0:0:
364,200,15116,1,8,0:0:0:0:
236,168,15283,1,0,0:0:0:0:
272,136,15616,1,0,0:0:0:0:
192,96,15783,1,8,0:0:0:0:
344,164,16116,1,0,0:0:0:0:
344,164,16283,1,0,0:0:0:0:
400,112,16449,1,12,0:0:0:0:
400,144,16949,1,12,0:0:0:0:
400,144,17283,1,12,0:0:0:0:
208,180,17449,1,12,0:0:0:0:
440,152,17783,1,4,0:0:0:0:
288,180,17949,1,12,0:0:0:0:
292,136,18283,1,0,0:0:0:0:
232,116,18449,1,0,0:0:0:0:
256,112,18783,1,0,0:0:0:0:
256,112,18949,1,0,0:0:0:0:
216,108,19116,1,8,0:0:0:0:
384,156,19283,1,0,0:0:0:0:
240,200,19616,1,8,0:0:0:0:
368,208,19783,1,0,0:0:0:0:
240,200,19949,1,8,0:0:0:0:
300,112,20116,1,12,0:0:0:0:
160,184,20449,1,0,0:0:0:0:
300,112,20616,1,12,0:0:0:0:
216,136,20783,1,0,0:0:0:0:
216,136,20866,1,0,0:0:0:0:
216,136,20949,1,0,0:0:0:0:
300,112,21116,1,12,0:0:0:0:
316,168,21449,1,0,0:0:0:0:
316,168,21616,1,0,0:0:0:0:
408,160,21783,1,8,0:0:0:0:
376,156,21949,1,0,0:0:0:0:
360,152,22283,1,8,0:0:0:0:
408,152,22449,1,0,0:0:0:0:
400,156,22616,1,8,0:0:0:0:
336,80,22783,1,12,0:0:0:0:
336,80,23116,1,4,0:0:0:0:
336,80,23283,1,12,0:0:0:0:
224,144,23616,1,0,0:0:0:0:
224,144,23783,1,0,0:0:0:0:
204,128,24116,1,4,0:0:0:0:
248,168,24283,1,0,0:0:0:0:
232,144,24449,1,8,0:0:0:0:
256,152,24616,1,0,0:0:0:0:
344,156,24949,1,0,0:0:0:0:
344,164,25116,1,8,0:0:0:0:
364,148,25283,1,8,0:0:0:0:
368,148,25449,1,0,0:0:0:0:
296,148,25533,1,0,0:0:0:0:
296,148,25616,1,0,0:0:0:0:
344,144,25783,1,8,0:0:0:0:
352,144,25949,1,0,0:0:0:0:
392,160,26283,1,0,0:0:0:0:
408,152,26449,1,8,0:0:0:0:
408,152,26616,1,0,0:0:0:0:
344,156,26783,1,0,0:0:0:0:
176,128,27116,1,8,0:0:0:0:
184,144,27283,1,0,0:0:0:0:
244,232,27616,1,0,0:0:0:0:
352,220,27783,1,8,0:0:0:0:
236,224,27949,1,8,0:0:0:0:
312,224,28116,1,0,0:0:0:0:
312,224,28199,1,0,0:0:0:0:
312,224,28283,1,0,0:0:0:0:
352,156,28449,1,8,0:0:0:0:
384,136,28616,1,0,0:0:0:0:
216,136,28949,1,0,0:0:0:0:
280,148,29116,1,8,0:0:0:0:
352,156,29283,1,0,0:0:0:0:
248,148,29449,1,0,0:0:0:0:
229,206,29783,1,8,0:0:0:0:
306,213,29949,1,0,0:0:0:0:
191,115,30283,1,0,0:0:0:0:
288,189,30450,1,8,0:0:0:0:
308,180,30616,1,8,0:0:0:0:
194,208,30783,1,0,0:0:0:0:
194,208,30866,1,0,0:0:0:0:
194,208,30950,1,0,0:0:0:0:
339,184,31116,1,8,0:0:0:0:
356,190,31283,1,0,0:0:0:0:
150,100,31616,1,0,0:0:0:0:
261,93,31783,1,8,0:0:0:0:
297,158,31949,1,0,0:0:0:0:
297,158,32116,1,0,0:0:0:0:
244,108,32449,1,8,0:0:0:0:
330,127,32616,1,0,0:0:0:0:
188,163,32949,1,0,0:0:0:0:
335,180,33033,1,0,0:0:0:0:
426,163,33116,1,8,0:0:0:0:
404,182,33283,1,0,0:0:0:0:
336,171,33449,1,0,0:0:0:0:
304,180,33783,1,8,0:0:0:0:
304,180,34116,1,0,0:0:0:0:
304,180,34449,1,8,0:0:0:0:
244,152,34783,5,0,0:0:0:0:
244,152,34949,1,0,0:0:0:0:
272,120,35116,1,12,0:0:0:0:
272,120,35616,1,12,0:0:0:0:
272,120,35949,1,12,0:0:0:0:
388,164,36116,1,0,0:0:0:0:
248,192,36449,1,0,0:0:0:0:
248,192,36616,1,0,0:0:0:0:
148,160,36783,1,0,0:0:0:0:
328,256,36949,1,0,0:0:0:0:
448,152,37116,1,8,0:0:0:0:
384,172,37449,1,0,0:0:0:0:
384,172,37616,1,0,0:0:0:0:
340,124,37783,1,12,0:0:0:0:
340,124,38283,1,12,0:0:0:0:
340,124,38616,1,12,0:0:0:0:
248,164,38783,1,0,0:0:0:0:
196,200,39033,1,0,0:0:0:0:
316,168,39283,1,0,0:0:0:0:
299,138,39449,1,8,0:0:0:0:
316,168,39783,1,8,0:0:0:0:
408,152,40116,1,0,0:0:0:0:
408,152,40283,1,0,0:0:0:0:
392,116,40449,1,12,0:0:0:0:
392,116,40949,1,12,0:0:0:0:
392,116,41283,1,12,0:0:0:0:
284,148,41449,1,0,0:0:0:0:
220,136,41783,1,8,0:0:0:0:
232,200,41949,1,8,0:0:0:0:
232,200,42116,1,8,0:0:0:0:
232,200,42450,1,8,0:0:0:0:
232,200,42616,1,8,0:0:0:0:
344,88,42783,1,12,0:0:0:0:
276,152,43116,1,0,0:0:0:0:
308,108,43283,1,12,0:0:0:0:
316,156,43616,1,0,0:0:0:0:
344,104,43783,1,12,0:0:0:0:
360,176,44116,1,0,0:0:0:0:
360,176,44227,1,0,0:0:0:0:
360,176,44338,1,0,0:0:0:0:
408,168,44449,1,0,0:0:0:0:
424,164,44616,1,0,0:0:0:0:
248,120,44783,1,8,0:0:0:0:
200,168,44866,1,8,0:0:0:0:
200,168,44949,1,8,0:0:0:0:
200,168,45116,1,8,0:0:0:0:
212,120,45449,1,12,0:0:0:0:
256,192,45533,12,0,47783,0:0:0:0:
246,180,48116,5,4,0:0:0:0:
