osu file format v14

[General]
AudioFilename: PEPSIMAN.mp3
AudioLeadIn: 0
PreviewTime: 33
Countdown: 0
SampleSet: Normal
StackLeniency: 0.3
Mode: 0
LetterboxInBreaks: 0
WidescreenStoryboard: 0

[Editor]
DistanceSpacing: 1.3
BeatDivisor: 4
GridSize: 4
TimelineZoom: 1

[Metadata]
Title:PEPSI * MAN
TitleUnicode:PEPSI ☆ MAN
Artist:NOMA
ArtistUnicode:NOMA
Creator:Zetera
Version:MASTER MAN
Source:
Tags:MowtenDoo YTPMV MAD Irreversible Snaggletooth Mao Yuzu- [Nicole] Stjpa Feerum Phil stankill
BeatmapID:800536
BeatmapSetID:364712

[Difficulty]
HPDrainRate:7
CircleSize:4.2
OverallDifficulty:8
ApproachRate:9.2
SliderMultiplier:2.2
SliderTickRate:1

[Events]
//Background and Video events
0,0,"BG_MTNDW.jpg",0,0
//Break Periods
//Storyboard Layer 0 (Background)
//Storyboard Layer 1 (Fail)
//Storyboard Layer 2 (Pass)
//Storyboard Layer 3 (Foreground)
//Storyboard Sound Samples

[TimingPoints]
1450,333.333333333333,4,1,1,70,1,0
2449,-133.333333333333,4,1,1,70,0,0
8116,-133.333333333333,4,1,0,70,0,0
8199,-133.333333333333,4,1,1,70,0,0
9449,-133.333333333333,4,1,0,70,0,0
9533,-133.333333333333,4,1,1,70,0,0
14783,-133.333333333333,4,3,1,70,0,0
16116,-133.333333333333,4,1,1,70,0,0
17449,-133.333333333333,4,1,0,70,0,0
17533,-133.333333333333,4,3,1,70,0,0
18783,-133.333333333333,4,1,1,70,0,0
20283,-133.333333333333,4,3,1,70,0,0
21449,-133.333333333333,4,1,1,70,0,0
41866,-300,4,1,1,70,0,0
42949,-133.333333333333,4,1,1,70,0,0
48116,-133.333333333333,4,1,3,70,0,0

[Colours]
Combo1 : 40,140,220
Combo2 : 255,0,0
Combo3 : 70,70,70

[HitObjects]
312,76,1450,5,8,0:0:0:0:
324,92,1783,5,8,0:0:0:0:
308,104,2116,5,8,0:0:0:0:
344,200,2283,1,0,0:0:0:0:
188,284,2449,2,0,P|116:260|56:296,1,123.750004720688,8|0,0:0|0:0,0:0:0:0:
256,360,2783,6,0,L|352:352,1,82.5000031471254,4|0,0:2|0:0,0:0:0:70:Baseball bat.wav
464,240,3116,1,8,0:2:0:0:
248,36,3283,2,0,P|200:28|112:96,1,165.000006294251,4|4,0:2|2:0,0:0:0:0:
188,284,3783,1,8,0:2:0:0:
212,140,3949,1,4,2:0:0:0:
40,276,4116,6,0,B|28:316|28:316|36:360,1,82.5000031471254,4|0,0:2|0:0,0:0:0:0:
228,380,4449,1,8,0:2:0:0:
368,212,4616,2,0,P|400:124|352:48,1,165.000006294251,4|4,2:0|2:0,0:0:0:0:
212,8,5116,1,8,0:2:0:0:
132,208,5283,1,4,0:2:0:0:
368,212,5449,6,0,L|360:124,1,82.5000031471254,4|0,0:2|0:0,0:0:0:0:
212,8,5783,1,8,0:2:0:0:
200,284,5949,2,0,P|156:308|44:260,1,165.000006294251,4|4,0:2|0:2,0:0:0:0:
28,64,6449,2,0,L|120:52,1,82.5000031471254,8|4,0:2|0:2,0:0:0:0:
280,112,6783,5,4,0:2:0:0:
424,44,6949,1,0,0:0:0:0:
212,8,7116,1,8,0:2:0:0:
284,236,7283,2,0,P|296:288|216:376,1,165.000006294251,4|4,0:2|0:2,0:0:0:0:
24,340,7783,1,8,0:2:0:0:
200,284,7949,1,4,2:0:0:0:
388,352,8116,5,4,0:1:0:0:
416,336,8199,1,0,0:0:0:0:
436,308,8283,1,0,0:0:0:0:
444,276,8366,1,0,0:0:0:0:
440,244,8449,1,8,0:0:0:0:
424,216,8533,1,0,0:0:0:0:
400,192,8616,1,4,2:0:0:0:
384,164,8699,1,0,0:0:0:0:
380,132,8783,6,0,L|388:88,3,41.2500015735627,0|0|0|0,0:0|0:0|0:0|0:0,0:0:0:0:
300,156,9116,2,0,L|308:112,3,41.2500015735627,8|0|4|0,0:0|0:0|0:2|0:0,0:0:0:0:
256,56,9449,5,4,0:0:0:0:
216,36,9533,1,0,0:0:0:0:
172,36,9616,1,0,0:0:0:0:
132,60,9699,1,0,0:0:0:0:
112,100,9783,1,8,0:0:0:0:
116,144,9866,1,0,0:0:0:0:
144,180,9949,1,4,0:2:0:0:
164,220,10033,1,0,0:0:0:0:
160,264,10116,6,0,L|128:312,3,41.2500015735627,0|0|0|0,0:0|0:0|0:0|0:0,0:0:0:0:
248,268,10449,2,0,L|216:316,3,41.2500015735627,8|0|0|0,0:0|0:0|0:0|0:0,0:0:0:0:
332,268,10783,6,0,L|312:300,4,20.6250007867813,12|0|0|0|0,0:2|0:0|0:0|0:0|0:2,0:0:0:0:
408,224,11033,1,0,0:0:0:0:
408,224,11116,2,0,P|420:200|420:172,1,41.2500015735627,8|0,0:0|0:0,0:0:0:0:
404,64,11283,2,0,P|392:88|392:116,1,41.2500015735627,4|0,0:2|0:0,0:0:0:0:
472,28,11449,6,0,L|464:4,4,20.6250007867813,12|0|0|0|0,0:2|0:0|0:0|0:0|0:0,0:0:0:0:
472,108,11699,1,0,0:0:0:0:
472,108,11783,2,0,L|488:156,1,41.2500015735627,8|0,0:0|0:0,0:0:0:0:
421,263,11949,2,0,L|405:215,1,41.2500015735627,4|0,0:2|0:0,0:0:0:0:
292,136,12116,6,0,L|288:160,4,20.6250007867813,12|0|0|0|0,0:2|0:0|0:0|0:0|0:0,0:0:0:0:
251,288,12449,2,0,L|247:267,4,20.6250007867813,12|0|0|0|0,0:2|0:0|0:0|0:0|0:0,0:0:0:0:
152,72,12783,2,0,L|148:96,4,20.6250007867813,12|0|0|0|4,0:2|0:0|0:0|0:0|0:2,0:0:0:0:
80,340,13116,2,0,L|84:364,7,20.6250007867813,12|0|0|0|0|0|0|0,0:2|0:0|0:0|0:0|0:0|0:0|0:0|0:0,0:0:0:0:
136,284,13449,5,6,0:0:0:0:
28,144,13616,1,2,0:0:0:0:
276,32,13783,1,10,0:0:0:0:
155,362,13949,2,0,P|106:358|69:327,1,82.5000031471254,0|0,0:0|0:2,0:0:0:0:
208,148,14283,2,0,L|300:156,1,82.5000031471254,10|8,0:0|0:2,0:0:0:0:
380,252,14616,1,2,0:0:0:0:
152,72,14783,5,4,0:3:0:0:
290,155,14949,2,0,L|346:139,1,41.2500015735627,8|8,0:0|0:0,0:0:0:0:
152,72,15116,2,0,P|108:64|68:84,1,82.5000031471254,2|0,0:0|0:0,0:0:0:0:
40,156,15366,2,0,B|52:196|52:196|40:256,1,82.5000031471254,8|0,0:0|0:0,0:0:0:0:
16,320,15616,1,10,0:0:0:0:
16,320,15699,2,0,L|124:308,1,82.5000031471254,0|2,0:0|0:0,0:0:0:0:
192,248,15949,2,0,L|260:264,1,41.2500015735627,0|2,0:0|0:0,0:0:0:0:
328,336,16116,5,6,0:0:0:0:
440,188,16283,1,0,0:0:0:0:
152,72,16449,1,10,0:0:0:0:
232,257,16616,2,0,B|276:261|276:261|324:237,1,82.5000031471254,0|0,0:0|0:2,0:0:0:0:
230,58,16949,2,0,B|186:54|186:54|138:78,1,82.5000031471254,2|8,0:0|0:2,0:0:0:0:
96,248,17283,1,2,0:0:0:0:
328,336,17449,5,6,0:0:0:0:
328,336,17533,1,8,0:0:0:0:
328,336,17616,2,0,L|336:296,1,41.2500015735627,8|8,0:0|0:0,0:0:0:0:
268,164,17783,1,2,0:3:0:0:
68,320,17949,1,2,0:1:0:0:
68,320,18033,2,0,P|24:284|16:240,1,82.5000031471254,2|2,0:0|0:0,0:0:0:0:
176,240,18283,2,0,P|176:267|164:292,1,41.2500015735627,8|0,0:0|0:0,0:0:0:0:
72,148,18449,1,8,0:0:0:0:
92,108,18533,1,8,0:0:0:0:
112,68,18616,2,0,L|104:20,1,41.2500015735627,2|0,0:0|0:0,0:0:0:0:
20,220,18783,5,6,0:0:0:0:
148,360,18949,1,2,0:0:0:0:
392,192,19116,1,8,0:2:0:0:
112,68,19283,2,0,P|48:60|-20:164,1,165.000006294251,4|2,0:2|0:0,0:0:0:0:
176,240,19783,2,0,L|280:216,1,82.5000031471254,8|2,0:2|0:0,0:0:0:0:
424,280,20116,5,2,0:1:0:0:
240,100,20283,1,8,0:0:0:0:
240,100,20366,2,0,B|204:120|204:120|148:116,1,82.5000031471254,2|8,0:0|0:0,0:0:0:0:
96,168,20616,2,0,L|40:156,1,41.2500015735627,2|0,0:1|0:0,0:0:0:0:
24,88,20783,1,2,0:0:0:0:
24,88,20866,1,2,0:0:0:0:
24,88,20949,2,0,P|56:84|72:84,1,41.2500015735627,0|0,0:0|0:0,0:0:0:0:
216,236,21116,2,0,P|184:240|168:240,1,41.2500015735627,2|0,0:1|0:0,0:0:0:0:
328,140,21283,2,0,L|376:152,1,41.2500015735627,2|0,0:0|0:0,0:0:0:0:
424,280,21449,5,6,0:0:0:0:
168,336,21616,1,2,0:0:0:0:
96,168,21783,1,8,0:2:0:0:
316,224,21949,2,0,P|376:216|408:176,1,82.5000031471254,4|0,0:2|0:0,0:0:0:0:
472,48,22283,1,2,0:0:0:0:
240,100,22449,2,0,L|152:92,1,82.5000031471254,8|2,0:2|0:0,0:0:0:0:
68,24,22783,5,2,0:0:0:0:
172,168,22949,2,0,P|168:188|156:216,1,41.2500015735627,2|2,0:3|0:3,0:0:0:0:
0,312,23116,2,0,P|4:292|16:264,1,41.2500015735627,2|0,0:0|0:0,0:0:0:0:
172,168,23283,1,2,0:0:0:0:
172,168,23366,2,0,B|212:176|212:176|256:164,1,82.5000031471254,0|0,0:0|0:0,0:0:0:0:
324,120,23616,2,0,L|376:132,1,41.2500015735627,0|2,0:0|0:3,0:0:0:0:
452,240,23783,1,0,0:0:0:0:
467,293,23866,1,0,0:0:0:0:
441,338,23949,1,10,0:3:0:0:
392,360,24033,1,8,0:3:0:0:
340,344,24116,5,4,0:2:0:0:
172,168,24283,1,0,0:0:0:0:
352,48,24449,1,8,0:2:0:0:
220,268,24616,2,0,P|176:280|68:212,1,165.000006294251,4|4,0:2|2:0,0:0:0:0:
140,40,25116,2,0,B|180:32|180:32|236:48,1,82.5000031471254,8|4,0:2|2:0,0:0:0:0:
416,160,25449,5,4,0:2:0:0:
352,48,25616,1,0,0:0:0:0:
116,232,25783,1,8,0:2:0:0:
419,319,25949,2,0,B|439:243|439:243|415:159,1,165.000006294251,4|4,0:2|0:2,0:0:0:0:
208,124,26449,2,0,L|188:216,1,82.5000031471254,8|4,0:2|0:2,0:0:0:0:
40,308,26783,5,4,0:2:0:0:
0,124,26949,1,0,0:0:0:0:
292,192,27116,1,8,0:2:0:0:
136,44,27283,2,0,P|184:24|296:64,1,165.000006294251,4|4,0:2|0:2,0:0:0:0:
352,272,27783,2,0,L|268:292,1,82.5000031471254,8|4,0:2|0:2,0:0:0:0:
112,192,28116,5,4,0:2:0:0:
416,120,28283,1,0,0:0:0:0:
248,376,28449,1,8,0:2:0:0:
344,48,28616,2,0,P|404:20|496:52,1,165.000006294251,4|4,0:2|0:2,0:0:0:0:
429,270,29116,2,0,P|381:282|349:270,1,82.5000031471254,8|4,0:2|0:2,0:0:0:0:
192,120,29449,5,4,0:2:0:0:
416,120,29616,1,0,0:0:0:0:
124,316,29783,1,10,0:2:0:0:
124,48,29949,2,0,P|164:28|284:72,1,165.000006294251,4|4,0:2|0:2,0:0:0:0:
332,224,30449,1,10,0:2:0:0:
96,224,30616,1,6,0:2:0:0:
273,59,30783,6,0,L|361:67,1,82.5000031471254,6|2,0:2|0:2,0:0:0:0:
452,188,31116,1,10,0:2:0:0:
215,300,31283,2,0,P|143:296|95:216,1,165.000006294251,6|6,0:2|0:2,0:0:0:0:
273,59,31783,2,0,P|285:103|273:143,1,82.5000031471254,8|0,0:2|0:0,0:0:0:0:
95,223,32116,6,0,B|92:180|92:180|111:123,1,82.5000031471254,4|0,0:2|0:0,0:0:0:0:
348,16,32449,1,0,0:0:0:0:
380,280,32616,1,0,0:0:0:0:
186,150,32783,2,0,L|98:142,1,82.5000031471254,0|0,0:0|0:0,0:0:0:0:
20,328,33116,2,0,P|56:348|100:348,1,82.5000031471254,0|0,0:0|0:0,0:0:0:0:
314,110,33449,6,0,P|288:53|209:19,1,123.750004720688,0|0,0:0|0:0,0:0:0:0:
274,250,33783,6,0,P|351:260|407:234,1,123.750004720688,0|0,0:0|0:0,0:0:0:0:
186,150,34116,6,0,P|141:183|112:280,1,123.750004720688,0|0,0:0|0:0,0:0:0:0:
329,110,34449,6,0,P|316:47|240:3,1,123.750004720688,0|0,0:0|0:0,0:0:0:0:
261,243,34783,5,2,0:0:0:0:
448,144,34949,1,2,0:0:0:0:
128,92,35116,1,8,0:0:0:0:
232,332,35283,2,0,P|284:332|352:228,1,165.000006294251,0|2,0:0|0:0,0:0:0:0:
128,92,35783,2,0,L|24:104,1,82.5000031471254,8|2,0:0|0:0,0:0:0:0:
261,243,36116,6,0,B|272:184|272:184|256:116,1,123.750004720688,4|0,0:0|2:0,0:0:0:0:
348,32,36449,2,0,B|340:72|340:72|352:112,1,82.5000031471254,8|0,0:0|0:0,0:0:0:0:
476,204,36783,2,0,L|456:148,1,41.2500015735627,4|0,0:0|0:0,0:0:0:0:
243,83,36949,2,0,L|263:139,1,41.2500015735627,0|0,0:0|0:0,0:0:0:0:
440,315,37116,2,0,P|468:279|468:183,1,123.750004720688,10|0,0:0|2:0,0:0:0:0:
351,111,37449,5,0,0:0:0:0:
200,300,37616,1,0,0:0:0:0:
68,180,37783,1,10,0:0:0:0:
440,180,37949,2,0,P|464:136|428:24,1,165.000006294251,0|2,0:0|0:0,0:0:0:0:
244,0,38449,1,8,0:0:0:0:
136,132,38616,1,2,0:0:0:0:
288,240,38783,6,0,P|300:280|288:324,1,82.5000031471254,4|4,0:3|0:3,0:0:0:0:
208,376,39033,2,0,B|144:356|144:356|88:356,1,123.750004720688,0|0,0:0|0:0,0:0:0:0:
16,160,39449,2,0,L|20:128,1,20.6250007867813,0|0,0:0|0:0,0:0:0:0:
56,156,39533,2,0,L|56:124,1,20.6250007867813,0|0,0:0|0:0,0:0:0:0:
96,144,39616,2,0,L|92:112,1,20.6250007867813,0|8,0:0|0:0,0:0:0:0:
128,124,39699,2,0,L|120:104,1,20.6250007867813,0|0,0:0|0:0,0:0:0:0:
156,100,39783,5,0,0:0:0:0:
188,108,39866,6,0,L|184:140,1,20.6250007867813,0|0,0:0|0:0,0:0:0:0:
228,108,39949,2,0,L|236:140,1,20.6250007867813,0|0,0:0|0:0,0:0:0:0:
268,96,40033,2,0,L|280:116,1,20.6250007867813,0|0,0:0|0:0,0:0:0:0:
288,76,40116,5,10,0:0:0:0:
132,264,40283,1,2,0:0:0:0:
400,308,40449,1,2,0:0:0:0:
128,124,40616,2,0,L|16:132,1,82.5000031471254,0|0,0:2|0:0,0:0:0:0:
240,324,40949,2,0,B|284:328|284:328|320:312,1,82.5000031471254,2|8,0:0|0:0,0:0:0:0:
416,140,41283,1,2,0:0:0:0:
217,25,41449,6,0,P|137:51|128:168,1,206.250007867813,4|0,0:0|0:0,0:0:0:0:
204,248,41949,6,0,L|224:244,1,18.3333333333333,0|0,0:0|0:0,0:0:0:0:
332,136,42116,2,0,L|308:140,1,18.3333333333333,8|0,0:0|0:0,0:0:0:0:
217,25,42282,6,0,L|200:52,1,18.3333333333333,0|0,0:0|0:0,0:0:0:0:
304,368,42449,2,0,L|316:344,1,18.3333333333333,0|0,0:0|0:0,0:0:0:0:
456,276,42615,6,0,L|452:252,1,18.3333333333333,0|0,0:0|0:0,0:0:0:0:
40,144,42783,1,6,0:0:0:0:
200,332,42949,6,0,P|248:320|280:276,1,82.5000031471254,0|8,0:0|0:0,0:0:0:0:
217,25,43283,2,0,P|169:25|128:136,1,165.000006294251,2|2,0:0|0:0,0:0:0:0:
408,212,43783,2,0,L|404:124,1,82.5000031471254,8|2,0:0|0:0,0:0:0:0:
216,24,44116,6,0,B|196:100|196:100|228:192,1,165.000006294251,4|8,3:0|0:0,0:0:0:0:
332,296,44616,1,4,0:3:0:0:
472,40,44783,2,0,P|424:16|336:60,1,123.750004720688,0|0,0:0|0:0,0:0:0:0:
412,212,45116,2,0,P|436:168|408:96,1,123.750004720688,0|0,0:0|0:0,0:0:0:0:
320,216,45449,5,4,0:0:0:0:
256,192,45533,12,4,48116,0:0:0:0:
