osu file format v14

[General]
AudioFilename: PEPSIMAN.mp3
AudioLeadIn: 0
PreviewTime: 33
Countdown: 0
SampleSet: Normal
StackLeniency: 0.7
Mode: 1
LetterboxInBreaks: 0
WidescreenStoryboard: 0

[Editor]
DistanceSpacing: 1.2
BeatDivisor: 4
GridSize: 4
TimelineZoom: 3.499999

[Metadata]
Title:PEPSI * MAN
TitleUnicode:PEPSI ☆ MAN
Artist:NOMA
ArtistUnicode:NOMA
Creator:Zetera
Version:MAJIN ONI MAN
Source:
Tags:MowtenDoo YTPMV MAD Irreversible Snaggletooth Mao Yuzu- [Nicole] Stjpa Feerum Phil stankill
BeatmapID:800534
BeatmapSetID:364712

[Difficulty]
HPDrainRate:9
CircleSize:2
OverallDifficulty:6
ApproachRate:9
SliderMultiplier:1.3999999666214
SliderTickRate:1

[Events]
//Background and Video events
0,0,"BG_MTNDW.jpg",0,0
//Break Periods
//Storyboard Layer 0 (Background)
//Storyboard Layer 1 (Fail)
//Storyboard Layer 2 (Pass)
//Storyboard Layer 3 (Foreground)
//Storyboard Sound Samples

[TimingPoints]
1450,333.333333333333,4,1,1,90,1,0
48116,-83.3333333333333,4,1,1,90,0,0

[Colours]
Combo1 : 192,192,192
Combo2 : 128,128,255

[HitObjects]
271,156,1450,5,8,0:0:0:0:
271,156,1783,1,8,0:0:0:0:
271,156,2116,1,8,0:0:0:0:
384,178,2283,1,0,0:0:0:0:
383,72,2449,1,12,0:0:0:0:
290,66,2783,1,4,0:0:0:0:
293,266,2949,1,0,0:0:0:0:
345,267,3033,1,0,0:0:0:0:
393,250,3116,1,8,0:0:0:0:
327,171,3283,1,0,0:0:0:0:
327,171,3366,1,0,0:0:0:0:
327,171,3449,1,0,0:0:0:0:
327,171,3533,1,0,0:0:0:0:
403,162,3616,1,8,0:0:0:0:
427,172,3699,1,8,0:0:0:0:
427,172,3783,1,0,0:0:0:0:
207,125,3949,1,8,0:0:0:0:
170,197,4116,1,0,0:0:0:0:
259,206,4283,1,8,0:0:0:0:
259,206,4366,1,8,0:0:0:0:
410,171,4449,1,0,0:0:0:0:
400,113,4616,1,8,0:0:0:0:
342,235,4783,1,0,0:0:0:0:
342,235,4866,1,0,0:0:0:0:
342,235,4949,1,0,0:0:0:0:
424,207,5033,1,0,0:0:0:0:
413,185,5116,1,8,0:0:0:0:
295,112,5283,1,8,0:0:0:0:
281,179,5449,1,0,0:0:0:0:
395,166,5616,1,0,0:0:0:0:
393,146,5699,1,0,0:0:0:0:
418,154,5783,1,8,0:0:0:0:
380,146,5949,1,0,0:0:0:0:
340,157,6033,1,0,0:0:0:0:
340,157,6116,1,0,0:0:0:0:
340,157,6199,1,0,0:0:0:0:
400,147,6283,1,8,0:0:0:0:
376,155,6366,1,8,0:0:0:0:
395,164,6449,1,0,0:0:0:0:
412,166,6616,1,8,0:0:0:0:
355,203,6783,1,0,0:0:0:0:
300,147,6949,1,8,0:0:0:0:
300,147,7033,1,8,0:0:0:0:
406,157,7116,1,0,0:0:0:0:
336,166,7283,1,8,0:0:0:0:
279,167,7449,1,0,0:0:0:0:
315,157,7616,1,8,0:0:0:0:
315,157,7699,1,8,0:0:0:0:
315,157,7783,1,8,0:0:0:0:
315,157,7949,1,8,0:0:0:0:
322,154,8116,1,8,0:0:0:0:
322,154,8199,1,8,0:0:0:0:
399,162,8283,1,0,0:0:0:0:
399,162,8366,1,0,0:0:0:0:
397,157,8449,1,8,0:0:0:0:
460,166,8533,1,8,0:0:0:0:
448,167,8616,1,0,0:0:0:0:
452,168,8699,1,0,0:0:0:0:
426,171,8783,1,8,0:0:0:0:
425,171,8866,1,8,0:0:0:0:
411,166,8949,1,0,0:0:0:0:
411,166,9033,1,0,0:0:0:0:
427,166,9116,1,8,0:0:0:0:
438,167,9199,1,0,0:0:0:0:
445,172,9283,1,8,0:0:0:0:
438,168,9366,1,0,0:0:0:0:
439,115,9449,1,8,0:0:0:0:
439,115,9505,1,8,0:0:0:0:
439,115,9561,1,8,0:0:0:0:
459,126,9616,1,0,0:0:0:0:
445,146,9699,1,0,0:0:0:0:
340,174,9783,1,8,0:0:0:0:
357,175,9866,1,8,0:0:0:0:
399,162,9949,1,0,0:0:0:0:
398,163,10033,1,0,0:0:0:0:
419,106,10116,1,8,0:0:0:0:
419,106,10199,1,8,0:0:0:0:
374,144,10283,1,0,0:0:0:0:
382,198,10366,1,0,0:0:0:0:
425,171,10449,1,8,0:0:0:0:
392,183,10533,1,0,0:0:0:0:
266,171,10616,1,8,0:0:0:0:
266,171,10699,1,0,0:0:0:0:
334,122,10783,1,8,0:0:0:0:
334,122,10838,1,8,0:0:0:0:
334,122,10894,1,8,0:0:0:0:
354,135,10949,1,0,0:0:0:0:
395,123,11033,1,0,0:0:0:0:
389,90,11116,1,8,0:0:0:0:
389,90,11199,1,8,0:0:0:0:
473,90,11283,1,0,0:0:0:0:
394,117,11366,1,0,0:0:0:0:
403,66,11449,1,8,0:0:0:0:
403,74,11505,1,8,0:0:0:0:
401,80,11561,1,8,0:0:0:0:
392,100,11616,1,0,0:0:0:0:
377,163,11699,1,0,0:0:0:0:
222,154,11783,1,8,0:0:0:0:
222,154,11866,1,8,0:0:0:0:
371,177,11949,1,0,0:0:0:0:
368,178,12033,1,0,0:0:0:0:
384,106,12116,1,8,0:0:0:0:
384,106,12172,1,8,0:0:0:0:
384,106,12227,1,8,0:0:0:0:
293,201,12283,1,0,0:0:0:0:
339,173,12366,1,0,0:0:0:0:
338,138,12449,1,8,0:0:0:0:
338,138,12505,1,8,0:0:0:0:
338,138,12561,1,8,0:0:0:0:
395,123,12616,1,0,0:0:0:0:
390,177,12699,1,0,0:0:0:0:
397,186,12783,1,8,0:0:0:0:
442,175,12866,1,8,0:0:0:0:
430,168,12949,1,0,0:0:0:0:
430,168,13033,1,0,0:0:0:0:
429,169,13116,1,8,0:0:0:0:
429,169,13172,1,8,0:0:0:0:
429,169,13227,1,8,0:0:0:0:
429,169,13283,1,8,0:0:0:0:
429,169,13338,1,8,0:0:0:0:
429,169,13394,1,8,0:0:0:0:
161,177,13449,1,0,0:0:0:0:
253,228,13616,1,0,0:0:0:0:
268,80,13783,1,12,0:0:0:0:
231,108,13949,1,0,0:0:0:0:
288,117,14283,1,12,0:0:0:0:
288,117,14616,1,12,0:0:0:0:
337,179,14783,1,0,0:0:0:0:
414,162,14949,1,0,0:0:0:0:
414,162,15033,1,0,0:0:0:0:
428,163,15116,1,8,0:0:0:0:
337,185,15283,1,0,0:0:0:0:
398,168,15366,1,8,0:0:0:0:
417,167,15533,1,8,0:0:0:0:
427,178,15616,1,0,0:0:0:0:
433,167,15783,1,0,0:0:0:0:
435,176,15866,1,8,0:0:0:0:
424,172,15949,1,0,0:0:0:0:
443,171,16033,1,8,0:0:0:0:
417,171,16116,1,0,0:0:0:0:
307,188,16283,1,0,0:0:0:0:
362,137,16449,1,12,0:0:0:0:
396,159,16616,1,0,0:0:0:0:
411,142,16949,1,12,0:0:0:0:
411,142,17283,1,12,0:0:0:0:
251,177,17449,1,8,0:0:0:0:
280,183,17533,1,0,0:0:0:0:
455,189,17616,1,0,0:0:0:0:
465,184,17699,1,0,0:0:0:0:
460,182,17783,1,8,0:0:0:0:
474,188,17866,1,0,0:0:0:0:
470,187,17949,1,8,0:0:0:0:
459,181,18033,1,8,0:0:0:0:
233,213,18116,1,0,0:0:0:0:
363,186,18199,1,8,0:0:0:0:
439,173,18283,1,0,0:0:0:0:
374,226,18449,1,0,0:0:0:0:
374,226,18533,1,0,0:0:0:0:
415,186,18616,1,8,0:0:0:0:
186,115,18783,1,0,0:0:0:0:
277,105,18949,1,0,0:0:0:0:
290,88,19116,1,8,0:0:0:0:
218,200,19283,1,0,0:0:0:0:
308,179,19616,1,8,0:0:0:0:
308,179,19949,1,8,0:0:0:0:
288,260,20116,1,12,0:0:0:0:
426,188,20283,1,8,0:0:0:0:
442,185,20366,1,0,0:0:0:0:
372,182,20449,1,0,0:0:0:0:
323,127,20533,1,8,0:0:0:0:
397,186,20616,1,0,0:0:0:0:
355,144,20783,1,8,0:0:0:0:
271,143,20949,1,8,0:0:0:0:
219,144,21033,1,8,0:0:0:0:
385,162,21116,1,0,0:0:0:0:
382,163,21199,1,0,0:0:0:0:
367,151,21283,1,8,0:0:0:0:
264,144,21449,1,0,0:0:0:0:
264,144,21616,1,0,0:0:0:0:
270,130,21783,1,8,0:0:0:0:
330,142,21949,1,0,0:0:0:0:
355,144,22283,1,8,0:0:0:0:
284,152,22616,1,8,0:0:0:0:
231,222,22783,1,8,0:0:0:0:
203,190,22866,1,0,0:0:0:0:
231,222,22949,1,0,0:0:0:0:
248,183,23033,1,8,0:0:0:0:
332,234,23116,1,0,0:0:0:0:
354,198,23199,1,0,0:0:0:0:
386,157,23283,1,8,0:0:0:0:
411,168,23366,1,8,0:0:0:0:
375,142,23449,1,0,0:0:0:0:
338,180,23533,1,8,0:0:0:0:
364,160,23616,1,8,0:0:0:0:
210,151,23699,1,8,0:0:0:0:
393,179,23783,1,0,0:0:0:0:
393,179,23866,1,0,0:0:0:0:
402,185,23949,1,8,0:0:0:0:
184,177,24116,1,4,0:0:0:0:
292,88,24283,1,0,0:0:0:0:
292,88,24366,1,0,0:0:0:0:
397,145,24449,1,8,0:0:0:0:
416,155,24616,1,0,0:0:0:0:
415,155,24699,1,0,0:0:0:0:
415,155,24783,1,0,0:0:0:0:
415,155,24866,1,0,0:0:0:0:
423,156,24949,1,8,0:0:0:0:
423,156,25033,1,8,0:0:0:0:
409,160,25116,1,0,0:0:0:0:
397,156,25283,1,8,0:0:0:0:
284,164,25449,1,0,0:0:0:0:
412,165,25616,1,8,0:0:0:0:
468,168,25699,1,8,0:0:0:0:
435,168,25783,1,0,0:0:0:0:
345,167,25949,1,8,0:0:0:0:
305,147,26116,1,0,0:0:0:0:
305,147,26199,1,0,0:0:0:0:
305,147,26283,1,0,0:0:0:0:
387,151,26449,1,8,0:0:0:0:
438,165,26616,1,8,0:0:0:0:
245,168,26783,1,0,0:0:0:0:
336,178,26949,1,0,0:0:0:0:
336,178,27033,1,0,0:0:0:0:
404,165,27116,1,8,0:0:0:0:
376,166,27283,1,0,0:0:0:0:
376,166,27449,1,0,0:0:0:0:
376,166,27533,1,0,0:0:0:0:
376,166,27616,1,0,0:0:0:0:
376,166,27699,1,0,0:0:0:0:
411,168,27783,1,8,0:0:0:0:
438,165,27866,1,0,0:0:0:0:
420,180,27949,1,8,0:0:0:0:
184,90,28116,1,0,0:0:0:0:
262,100,28283,1,8,0:0:0:0:
343,80,28366,1,8,0:0:0:0:
302,81,28449,1,0,0:0:0:0:
313,106,28616,1,8,0:0:0:0:
229,180,28783,1,0,0:0:0:0:
332,154,28866,1,0,0:0:0:0:
359,158,28949,1,0,0:0:0:0:
312,164,29116,1,8,0:0:0:0:
338,147,29283,1,8,0:0:0:0:
278,134,29449,1,4,0:0:0:0:
229,180,29616,1,0,0:0:0:0:
229,180,29699,1,0,0:0:0:0:
271,178,29783,1,8,0:0:0:0:
359,158,29949,1,0,0:0:0:0:
338,147,30033,1,0,0:0:0:0:
338,147,30116,1,0,0:0:0:0:
338,147,30199,1,0,0:0:0:0:
338,147,30283,1,0,0:0:0:0:
359,158,30449,1,8,0:0:0:0:
259,152,30616,1,8,0:0:0:0:
342,157,30783,1,8,0:0:0:0:
383,163,30866,1,0,0:0:0:0:
424,166,30949,1,8,0:0:0:0:
424,166,31116,1,8,0:0:0:0:
424,166,31283,1,8,0:0:0:0:
424,166,31366,1,0,0:0:0:0:
424,166,31449,1,8,0:0:0:0:
424,166,31533,1,8,0:0:0:0:
424,166,31616,1,8,0:0:0:0:
424,166,31783,1,8,0:0:0:0:
424,166,31866,1,8,0:0:0:0:
424,166,31949,1,0,0:0:0:0:
424,166,32033,1,0,0:0:0:0:
382,146,32116,1,0,0:0:0:0:
341,156,32199,1,0,0:0:0:0:
424,166,32283,1,8,0:0:0:0:
382,166,32366,1,0,0:0:0:0:
424,166,32449,1,8,0:0:0:0:
424,166,32533,1,8,0:0:0:0:
424,166,32616,1,0,0:0:0:0:
424,166,32699,1,8,0:0:0:0:
341,156,32783,1,0,0:0:0:0:
424,166,32866,1,8,0:0:0:0:
424,166,32949,1,8,0:0:0:0:
380,166,33033,1,0,0:0:0:0:
341,156,33116,1,8,0:0:0:0:
424,166,33172,1,0,0:0:0:0:
285,157,33227,1,8,0:0:0:0:
424,166,33283,1,0,0:0:0:0:
285,157,33338,1,8,0:0:0:0:
424,166,33394,1,0,0:0:0:0:
384,153,33449,1,8,0:0:0:0:
224,107,33783,1,8,0:0:0:0:
306,126,33949,1,0,0:0:0:0:
397,148,34116,1,8,0:0:0:0:
258,70,34449,1,8,0:0:0:0:
262,187,34783,5,0,0:0:0:0:
262,187,34949,1,0,0:0:0:0:
350,128,35116,1,12,0:0:0:0:
315,131,35283,1,0,0:0:0:0:
336,114,35616,1,12,0:0:0:0:
336,114,35949,1,12,0:0:0:0:
162,146,36116,1,8,0:0:0:0:
162,146,36199,1,8,0:0:0:0:
162,146,36283,1,0,0:0:0:0:
209,148,36449,1,8,0:0:0:0:
352,208,36616,1,8,0:0:0:0:
431,180,36783,1,8,0:0:0:0:
426,174,36866,1,0,0:0:0:0:
432,164,36949,1,8,0:0:0:0:
212,197,37116,1,8,0:0:0:0:
189,94,37172,1,8,0:0:0:0:
293,89,37227,1,8,0:0:0:0:
196,112,37283,1,8,0:0:0:0:
328,94,37449,1,0,0:0:0:0:
328,94,37616,1,0,0:0:0:0:
316,82,37783,1,12,0:0:0:0:
371,111,37949,1,0,0:0:0:0:
344,107,38283,1,12,0:0:0:0:
344,107,38616,1,12,0:0:0:0:
276,225,38783,1,0,0:0:0:0:
276,225,38866,1,0,0:0:0:0:
413,190,38949,1,8,0:0:0:0:
233,203,39116,1,8,0:0:0:0:
340,194,39199,1,8,0:0:0:0:
413,190,39283,1,0,0:0:0:0:
413,190,39366,1,0,0:0:0:0:
135,162,39449,1,8,0:0:0:0:
135,162,39505,1,8,0:0:0:0:
135,162,39561,1,8,0:0:0:0:
135,162,39616,1,0,0:0:0:0:
184,262,39783,1,8,0:0:0:0:
184,262,39838,1,8,0:0:0:0:
184,262,39894,1,8,0:0:0:0:
184,262,39949,1,0,0:0:0:0:
276,120,40116,1,0,0:0:0:0:
276,120,40283,1,0,0:0:0:0:
381,85,40449,1,12,0:0:0:0:
393,113,40616,1,0,0:0:0:0:
400,83,40949,1,12,0:0:0:0:
400,83,41283,1,12,0:0:0:0:
326,213,41449,1,0,0:0:0:0:
326,213,41533,1,0,0:0:0:0:
443,182,41616,1,8,0:0:0:0:
237,154,41783,1,0,0:0:0:0:
237,154,41949,1,0,0:0:0:0:
259,83,42116,1,8,0:0:0:0:
323,105,42199,1,0,0:0:0:0:
259,83,42283,1,8,0:0:0:0:
259,83,42449,1,8,0:0:0:0:
323,105,42533,1,0,0:0:0:0:
259,83,42616,1,8,0:0:0:0:
323,96,42783,1,12,0:0:0:0:
360,173,42949,1,0,0:0:0:0:
360,173,43116,1,0,0:0:0:0:
387,119,43283,1,12,0:0:0:0:
409,126,43616,1,0,0:0:0:0:
425,108,43783,1,12,0:0:0:0:
200,149,44116,1,8,0:0:0:0:
221,202,44227,1,8,0:0:0:0:
268,221,44338,1,8,0:0:0:0:
431,192,44449,1,8,0:0:0:0:
359,214,44561,1,8,0:0:0:0:
329,226,44672,1,8,0:0:0:0:
344,108,44783,1,0,0:0:0:0:
296,155,44838,1,0,0:0:0:0:
296,155,44894,1,0,0:0:0:0:
276,174,44949,1,0,0:0:0:0:
404,156,45116,1,8,0:0:0:0:
343,158,45172,1,8,0:0:0:0:
343,158,45227,1,8,0:0:0:0:
154,147,45283,1,0,0:0:0:0:
355,100,45338,1,0,0:0:0:0:
337,104,45394,1,0,0:0:0:0:
360,111,45449,1,12,0:0:0:0:
256,192,45616,12,0,47783,0:0:0:0:
251,136,48116,5,4,0:0:0:0:
