osu file format v14

[General]
AudioFilename: PEPSIMAN.mp3
AudioLeadIn: 0
PreviewTime: 33
Countdown: 0
SampleSet: Normal
StackLeniency: 0.7
Mode: 1
LetterboxInBreaks: 0
WidescreenStoryboard: 0

[Editor]
DistanceSpacing: 1.2
BeatDivisor: 4
GridSize: 4
TimelineZoom: 2.1

[Metadata]
Title:PEPSI * MAN
TitleUnicode:PEPSI ☆ MAN
Artist:NOMA
ArtistUnicode:NOMA
Creator:Zetera
Version:KANTAN MAN
Source:
Tags:MowtenDoo YTPMV MAD Irreversible Snaggletooth Mao Yuzu- [Nicole] Stjpa Feerum Phil stankill
BeatmapID:801374
BeatmapSetID:364712

[Difficulty]
HPDrainRate:5
CircleSize:4
OverallDifficulty:4
ApproachRate:9
SliderMultiplier:1.4
SliderTickRate:1

[Events]
//Background and Video events
0,0,"BG_MTNDW.jpg",0,0
//Break Periods
//Storyboard Layer 0 (Background)
//Storyboard Layer 1 (Fail)
//Storyboard Layer 2 (Pass)
//Storyboard Layer 3 (Foreground)
//Storyboard Sound Samples

[TimingPoints]
1450,333.333333333333,4,1,1,90,1,0

[Colours]
Combo1 : 192,192,192
Combo2 : 128,128,255

[HitObjects]
260,188,1450,5,8,0:0:0:0:
272,228,2116,1,8,0:0:0:0:
308,200,2783,1,4,0:0:0:0:
268,144,3783,1,8,0:0:0:0:
256,168,4116,1,0,0:0:0:0:
340,168,4783,1,8,0:0:0:0:
328,152,5449,1,0,0:0:0:0:
360,120,6449,1,8,0:0:0:0:
336,112,6783,1,0,0:0:0:0:
348,132,7449,1,8,0:0:0:0:
376,104,7783,1,0,0:0:0:0:
376,104,8116,1,0,0:0:0:0:
320,140,8783,1,0,0:0:0:0:
320,140,9449,1,0,0:0:0:0:
320,140,10116,1,0,0:0:0:0:
320,140,10783,1,0,0:0:0:0:
320,140,11449,1,0,0:0:0:0:
320,140,12116,1,0,0:0:0:0:
320,140,12449,1,0,0:0:0:0:
320,140,12783,1,0,0:0:0:0:
284,136,13449,1,0,0:0:0:0:
324,116,13783,1,8,0:0:0:0:
228,92,14449,1,8,0:0:0:0:
348,120,14783,1,0,0:0:0:0:
184,108,15449,1,8,0:0:0:0:
380,144,15783,1,0,0:0:0:0:
372,72,16116,1,0,0:0:0:0:
392,96,16449,1,8,0:0:0:0:
392,96,17116,1,8,0:0:0:0:
392,132,17449,1,0,0:0:0:0:
424,116,18116,1,0,0:0:0:0:
364,140,18783,1,0,0:0:0:0:
420,148,19116,1,8,0:0:0:0:
324,160,19783,1,8,0:0:0:0:
244,84,20116,1,0,0:0:0:0:
204,120,20783,1,8,0:0:0:0:
208,140,21116,1,0,0:0:0:0:
348,128,21449,1,0,0:0:0:0:
408,144,21783,1,8,0:0:0:0:
424,152,22449,1,8,0:0:0:0:
296,164,22783,1,0,0:0:0:0:
96,148,23116,1,0,0:0:0:0:
96,148,23449,1,0,0:0:0:0:
300,144,24116,1,0,0:0:0:0:
272,116,25116,1,8,0:0:0:0:
328,128,25449,1,0,0:0:0:0:
304,116,26116,1,8,0:0:0:0:
376,128,26783,1,0,0:0:0:0:
344,132,27783,1,8,0:0:0:0:
360,128,28116,1,0,0:0:0:0:
372,120,28783,1,8,0:0:0:0:
352,120,29116,1,0,0:0:0:0:
352,120,29449,1,0,0:0:0:0:
180,168,30116,1,8,0:0:0:0:
320,148,30783,1,8,0:0:0:0:
380,152,31449,1,8,0:0:0:0:
336,144,32116,1,0,0:0:0:0:
424,160,32449,1,8,0:0:0:0:
368,152,32783,1,0,0:0:0:0:
344,164,33449,1,0,0:0:0:0:
416,156,33783,1,8,0:0:0:0:
416,156,34116,1,0,0:0:0:0:
328,148,34783,1,8,0:0:0:0:
328,148,35783,1,8,0:0:0:0:
296,112,36116,1,0,0:0:0:0:
216,208,36449,1,0,0:0:0:0:
312,156,36783,1,8,0:0:0:0:
300,144,37449,1,0,0:0:0:0:
316,140,37783,1,8,0:0:0:0:
316,140,38449,1,8,0:0:0:0:
344,148,38783,1,0,0:0:0:0:
344,148,39116,1,0,0:0:0:0:
412,160,39449,1,8,0:0:0:0:
312,168,40116,1,0,0:0:0:0:
360,156,40449,1,8,0:0:0:0:
360,156,41116,1,8,0:0:0:0:
380,144,41449,1,0,0:0:0:0:
404,164,42116,1,8,0:0:0:0:
384,136,42783,1,8,0:0:0:0:
304,132,43783,1,8,0:0:0:0:
328,136,44116,1,0,0:0:0:0:
388,152,44783,1,8,0:0:0:0:
384,144,45116,1,0,0:0:0:0:
384,144,45449,1,12,0:0:0:0:
