osu file format v14

[General]
AudioFilename: PEPSIMAN.mp3
AudioLeadIn: 0
PreviewTime: 33
Countdown: 0
SampleSet: Normal
StackLeniency: 0.7
Mode: 1
LetterboxInBreaks: 0
WidescreenStoryboard: 0

[Editor]
DistanceSpacing: 1.2
BeatDivisor: 4
GridSize: 4
TimelineZoom: 2.1

[Metadata]
Title:PEPSI * MAN
TitleUnicode:PEPSI ☆ MAN
Artist:NOMA
ArtistUnicode:NOMA
Creator:Zetera
Version:FUTSUU MAN
Source:
Tags:MowtenDoo YTPMV MAD Irreversible Snaggletooth Mao Yuzu- [Nicole] Stjpa Feerum Phil stankill
BeatmapID:801372
BeatmapSetID:364712

[Difficulty]
HPDrainRate:5
CircleSize:2
OverallDifficulty:4
ApproachRate:9
SliderMultiplier:1.3999999666214
SliderTickRate:1

[Events]
//Background and Video events
0,0,"BG_MTNDW.jpg",0,0
//Break Periods
//Storyboard Layer 0 (Background)
//Storyboard Layer 1 (Fail)
//Storyboard Layer 2 (Pass)
//Storyboard Layer 3 (Foreground)
//Storyboard Sound Samples

[TimingPoints]
1450,333.333333333333,4,1,1,90,1,0

[Colours]
Combo1 : 192,192,192
Combo2 : 128,128,255

[HitObjects]
256,200,1450,5,8,0:0:0:0:
256,200,1783,1,8,0:0:0:0:
256,200,2116,1,8,0:0:0:0:
256,200,2449,1,8,0:0:0:0:
312,192,2783,1,4,0:0:0:0:
280,188,3116,1,8,0:0:0:0:
336,192,3283,1,0,0:0:0:0:
296,240,3783,1,8,0:0:0:0:
312,216,4116,1,0,0:0:0:0:
340,208,4449,1,8,0:0:0:0:
368,196,4616,1,0,0:0:0:0:
376,208,5116,1,8,0:0:0:0:
165,163,5283,1,0,0:0:0:0:
344,224,5449,1,0,0:0:0:0:
328,184,5783,1,8,0:0:0:0:
352,184,5949,1,0,0:0:0:0:
248,172,6449,1,8,0:0:0:0:
344,168,6783,1,0,0:0:0:0:
368,148,7116,1,8,0:0:0:0:
392,168,7283,1,0,0:0:0:0:
276,152,7616,1,0,0:0:0:0:
304,160,7783,1,8,0:0:0:0:
368,164,7949,1,0,0:0:0:0:
368,164,8116,1,0,0:0:0:0:
272,176,8449,1,8,0:0:0:0:
272,176,8783,1,0,0:0:0:0:
296,176,9116,1,8,0:0:0:0:
332,172,9283,1,0,0:0:0:0:
332,172,9449,1,0,0:0:0:0:
340,144,9783,1,8,0:0:0:0:
328,152,10116,1,0,0:0:0:0:
284,160,10449,1,8,0:0:0:0:
344,164,10616,1,0,0:0:0:0:
344,164,10783,1,0,0:0:0:0:
376,156,11116,1,8,0:0:0:0:
392,156,11449,1,0,0:0:0:0:
292,152,11783,1,8,0:0:0:0:
360,168,11949,1,0,0:0:0:0:
360,168,12116,1,8,0:0:0:0:
296,164,12449,1,8,0:0:0:0:
300,224,12783,1,0,0:0:0:0:
292,128,12949,1,0,0:0:0:0:
296,168,13116,1,0,0:0:0:0:
336,152,13449,1,0,0:0:0:0:
296,120,13783,1,12,0:0:0:0:
296,120,14283,1,12,0:0:0:0:
296,120,14616,1,12,0:0:0:0:
312,192,14783,1,0,0:0:0:0:
176,128,15116,1,8,0:0:0:0:
352,152,15283,1,0,0:0:0:0:
168,152,15449,1,0,0:0:0:0:
200,152,15783,1,8,0:0:0:0:
400,156,16116,1,0,0:0:0:0:
420,152,16449,1,12,0:0:0:0:
368,156,16949,1,12,0:0:0:0:
372,152,17283,1,12,0:0:0:0:
308,136,17449,1,12,0:0:0:0:
244,150,17783,1,0,0:0:0:0:
400,124,17949,1,12,0:0:0:0:
396,160,18783,1,0,0:0:0:0:
436,120,19116,1,8,0:0:0:0:
388,176,19616,1,8,0:0:0:0:
388,176,19949,1,8,0:0:0:0:
348,152,20116,1,12,0:0:0:0:
400,140,20616,1,12,0:0:0:0:
400,140,21116,1,12,0:0:0:0:
404,144,21449,1,0,0:0:0:0:
396,180,21783,1,8,0:0:0:0:
376,156,22283,1,8,0:0:0:0:
376,156,22616,1,0,0:0:0:0:
252,100,22783,1,12,0:0:0:0:
266,171,23116,1,0,0:0:0:0:
300,136,23283,1,12,0:0:0:0:
288,157,23783,1,0,0:0:0:0:
448,164,24116,1,4,0:0:0:0:
380,180,24449,1,8,0:0:0:0:
368,184,24616,1,0,0:0:0:0:
372,180,25116,1,8,0:0:0:0:
364,156,25449,1,0,0:0:0:0:
400,160,25783,1,8,0:0:0:0:
380,160,25949,1,0,0:0:0:0:
380,160,26449,1,8,0:0:0:0:
372,160,26616,1,0,0:0:0:0:
372,160,26783,1,0,0:0:0:0:
288,144,27116,1,8,0:0:0:0:
392,160,27283,1,0,0:0:0:0:
356,160,27783,1,8,0:0:0:0:
372,160,28116,1,0,0:0:0:0:
376,152,28449,1,8,0:0:0:0:
384,160,28616,1,0,0:0:0:0:
372,184,28949,1,0,0:0:0:0:
400,168,29116,1,8,0:0:0:0:
404,160,29283,1,0,0:0:0:0:
404,160,29449,1,0,0:0:0:0:
167,240,29783,1,8,0:0:0:0:
229,239,29949,1,0,0:0:0:0:
267,156,30449,1,8,0:0:0:0:
245,165,30783,1,0,0:0:0:0:
180,144,31116,1,8,0:0:0:0:
296,146,31283,1,0,0:0:0:0:
363,138,31783,1,8,0:0:0:0:
354,124,31949,1,0,0:0:0:0:
354,124,32116,1,0,0:0:0:0:
297,118,32449,1,8,0:0:0:0:
334,132,32783,1,0,0:0:0:0:
348,120,33116,1,8,0:0:0:0:
278,145,33283,1,0,0:0:0:0:
313,120,33449,1,0,0:0:0:0:
313,120,33783,1,8,0:0:0:0:
313,120,34116,1,0,0:0:0:0:
313,120,34449,1,8,0:0:0:0:
268,152,34783,5,0,0:0:0:0:
332,176,35116,1,12,0:0:0:0:
328,196,35616,1,12,0:0:0:0:
328,196,35949,1,12,0:0:0:0:
300,172,36116,1,0,0:0:0:0:
264,136,36449,1,0,0:0:0:0:
264,136,36616,1,0,0:0:0:0:
264,136,36783,1,0,0:0:0:0:
296,164,37116,1,8,0:0:0:0:
324,136,37449,1,0,0:0:0:0:
372,152,37783,1,12,0:0:0:0:
372,152,38283,1,12,0:0:0:0:
372,152,38616,1,12,0:0:0:0:
384,128,38783,1,0,0:0:0:0:
404,168,39116,1,8,0:0:0:0:
384,164,39283,1,0,0:0:0:0:
404,168,39449,1,8,0:0:0:0:
404,168,39783,1,8,0:0:0:0:
376,148,40116,1,0,0:0:0:0:
416,112,40449,1,12,0:0:0:0:
416,112,40949,1,12,0:0:0:0:
416,112,41283,1,12,0:0:0:0:
268,160,41449,1,0,0:0:0:0:
316,156,41783,1,8,0:0:0:0:
316,156,42116,1,8,0:0:0:0:
240,140,42283,1,0,0:0:0:0:
316,156,42449,1,8,0:0:0:0:
408,128,42783,1,12,0:0:0:0:
408,128,43283,1,12,0:0:0:0:
408,128,43783,1,12,0:0:0:0:
312,196,44116,1,0,0:0:0:0:
344,172,44449,1,0,0:0:0:0:
368,168,44616,1,0,0:0:0:0:
384,152,44783,1,0,0:0:0:0:
324,124,45116,1,0,0:0:0:0:
316,112,45449,1,12,0:0:0:0:
