osu file format v14

[General]
AudioFilename: PEPSIMAN.mp3
AudioLeadIn: 0
PreviewTime: 33
Countdown: 0
SampleSet: Normal
StackLeniency: 0.3
Mode: 3
LetterboxInBreaks: 0
SpecialStyle: 0
WidescreenStoryboard: 1

[Editor]
DistanceSpacing: 0.1
BeatDivisor: 4
GridSize: 4
TimelineZoom: 2.799999

[Metadata]
Title:PEPSI * MAN
TitleUnicode:PEPSI ☆ MAN
Artist:NOMA
ArtistUnicode:NOMA
Creator:Zetera
Version:EZ MAN
Source:
Tags:MowtenDoo YTPMV MAD Irreversible Snaggletooth Mao Yuzu- [Nicole] Stjpa Feerum Phil stankill
BeatmapID:1283617
BeatmapSetID:364712

[Difficulty]
HPDrainRate:7
CircleSize:4
OverallDifficulty:8
ApproachRate:9.9
SliderMultiplier:2.2
SliderTickRate:1

[Events]
//Background and Video events
0,0,"BG_MTNDW.jpg",0,0
//Break Periods
//Storyboard Layer 0 (Background)
//Storyboard Layer 1 (Fail)
//Storyboard Layer 2 (Pass)
//Storyboard Layer 3 (Foreground)
//Storyboard Sound Samples

[TimingPoints]
1450,333.333333333333,4,2,2,40,1,0

[Colours]
Combo1 : 192,192,192
Combo2 : 128,128,255

[HitObjects]
320,192,1450,5,8,1:0:0:0:
320,192,1783,1,8,1:0:0:0:
320,192,2116,1,8,1:0:0:0:
192,192,2283,1,4,0:0:0:0:
320,192,2449,1,8,1:0:0:0:
64,192,2783,1,0,0:0:0:50:Cheer.wav
448,192,2783,1,4,0:0:0:0:
192,192,3283,1,4,0:0:0:0:
448,192,3783,1,8,0:0:0:0:
320,192,3949,1,4,0:0:0:0:
64,192,4116,1,4,0:0:0:0:
192,192,4116,1,0,0:0:0:0:
448,192,4616,1,4,0:0:0:0:
64,192,5116,1,8,0:0:0:0:
320,192,5283,1,4,0:0:0:0:
192,192,5449,1,4,0:0:0:0:
448,192,5449,1,0,0:0:0:0:
64,192,5949,1,4,0:0:0:0:
320,192,6449,1,8,0:0:0:0:
192,192,6616,1,4,0:0:0:0:
448,192,6783,1,4,0:0:0:0:
64,192,6783,1,0,0:0:0:0:
320,192,7283,1,4,0:0:0:0:
64,192,7616,1,4,0:0:0:0:
192,192,7783,1,8,0:0:0:0:
320,192,7949,1,4,0:0:0:0:
448,192,8116,1,0,0:0:0:40:Finish.wav
64,192,8116,128,4,9449:0:0:0:0:
320,192,9449,128,0,10783:0:0:0:40:Finish.wav
448,192,9449,1,4,0:0:0:0:
192,192,10783,128,0,11116:0:0:0:40:Finish.wav
448,192,11449,128,0,11783:0:0:0:40:Finish.wav
64,192,12116,128,0,12449:0:0:0:40:Finish.wav
320,192,12449,128,0,12783:0:0:0:40:Finish.wav
192,192,12783,128,4,13449:0:0:0:0:
448,192,13449,1,0,0:0:0:40:Finish.wav
64,192,13616,1,0,0:0:0:0:
320,192,13949,1,4,0:0:0:0:
192,192,14283,1,0,0:0:0:0:
448,192,14616,1,4,0:0:0:0:
64,192,14783,128,8,16116:3:0:0:0:
448,192,16116,1,4,0:0:0:0:
192,192,16283,1,0,0:0:0:0:
320,192,16616,1,4,0:0:0:0:
64,192,16949,1,0,0:0:0:0:
448,192,17283,1,4,0:0:0:0:
320,192,17449,128,8,17783:3:0:0:0:
192,192,17783,128,2,18783:3:0:0:0:
320,192,18783,1,4,0:0:0:0:
64,192,18949,1,0,0:0:0:0:
448,192,19283,1,4,0:0:0:0:
192,192,19616,1,0,0:0:0:0:
320,192,19949,1,4,0:0:0:0:
192,192,20116,128,8,21449:3:0:0:0:
64,192,21449,1,4,0:0:0:0:
320,192,21616,1,0,0:0:0:0:
192,192,21949,1,4,0:0:0:0:
448,192,22283,1,0,0:0:0:0:
192,192,22616,1,4,0:0:0:0:
320,192,22783,128,8,24116:3:0:0:0:
64,192,24116,1,0,0:0:0:50:Cheer.wav
192,192,24116,1,0,0:0:0:40:Finish.wav
448,192,24616,1,4,0:0:0:0:
64,192,25116,1,8,0:0:0:0:
320,192,25283,1,4,0:0:0:0:
192,192,25449,1,4,0:0:0:0:
448,192,25449,1,0,0:0:0:0:
64,192,25949,1,4,0:0:0:0:
320,192,26449,1,8,0:0:0:0:
192,192,26616,1,4,0:0:0:0:
448,192,26783,1,4,0:0:0:0:
64,192,26783,1,0,0:0:0:0:
320,192,27283,1,4,0:0:0:0:
64,192,27783,1,8,0:0:0:0:
192,192,27949,1,4,0:0:0:0:
320,192,28116,1,4,0:0:0:0:
448,192,28116,1,0,0:0:0:0:
192,192,28616,1,4,0:0:0:0:
64,192,29116,1,8,0:0:0:0:
320,192,29283,1,4,0:0:0:0:
448,192,29449,1,4,0:0:0:0:
192,192,29449,1,0,0:0:0:0:
64,192,29949,1,4,0:0:0:0:
320,192,30449,1,8,0:0:0:0:
192,192,30616,1,4,0:0:0:0:
448,192,30783,1,4,0:0:0:0:
64,192,30783,1,0,0:0:0:0:
320,192,31283,1,4,0:0:0:0:
192,192,31783,1,8,0:0:0:0:
448,192,31949,1,4,0:0:0:0:
320,192,32116,1,4,0:0:0:0:
64,192,32116,1,0,0:0:0:0:
448,192,32616,1,4,0:0:0:0:
64,192,33116,1,8,0:0:0:0:
320,192,33283,1,4,0:0:0:0:
448,192,33449,1,4,0:0:0:0:
192,192,33449,1,0,0:0:0:0:
64,192,33783,1,8,0:0:0:0:
192,192,33783,1,0,0:0:0:0:
448,192,34116,1,4,0:0:0:0:
64,192,34449,1,8,0:0:0:0:
192,192,34449,1,0,0:0:0:0:
448,192,34783,1,0,0:0:0:40:Finish.wav
192,192,34949,1,0,0:0:0:0:
320,192,35283,1,4,0:0:0:0:
64,192,35616,1,0,0:0:0:0:
448,192,35949,1,4,0:0:0:0:
192,192,36116,128,4,36449:0:0:0:0:
320,192,36449,1,0,0:0:0:0:
64,192,36616,1,4,0:0:0:0:
448,192,36783,1,8,0:0:0:0:
192,192,36949,1,0,0:0:0:0:
320,192,37116,128,0,37449:0:0:0:0:
64,192,37449,1,4,0:0:0:0:
448,192,37616,1,0,0:0:0:0:
192,192,37949,1,4,0:0:0:0:
320,192,38283,1,0,0:0:0:0:
64,192,38616,1,4,0:0:0:0:
448,192,38783,128,4,39449:0:0:0:0:
64,192,39449,128,0,39783:0:0:0:0:
320,192,39783,128,0,40116:0:0:0:0:
192,192,40116,1,4,0:0:0:0:
448,192,40283,1,0,0:0:0:0:
64,192,40616,1,4,0:0:0:0:
448,192,40949,1,0,0:0:0:0:
320,192,41283,1,4,0:0:0:0:
192,192,41449,128,4,42783:0:0:0:0:
448,192,42783,1,4,0:0:0:0:
64,192,42949,1,0,0:0:0:0:
320,192,43283,1,4,0:0:0:0:
64,192,43616,1,0,0:0:0:0:
448,192,43949,1,4,0:0:0:0:
192,192,44116,128,4,44783:0:0:0:0:
320,192,44783,128,8,45116:0:0:0:0:
64,192,45116,128,0,45449:0:0:0:0:
448,192,45449,1,0,0:0:0:40:Finish.wav
320,192,45449,1,4,0:0:0:0:
