osu file format v14

[General]
AudioFilename: PEPSIMAN.mp3
AudioLeadIn: 0
PreviewTime: 33
Countdown: 0
SampleSet: Normal
StackLeniency: 0.7
Mode: 0
LetterboxInBreaks: 0
WidescreenStoryboard: 0

[Editor]
DistanceSpacing: 0.64
BeatDivisor: 4
GridSize: 4
TimelineZoom: 2.1

[Metadata]
Title:PEPSI * MAN
TitleUnicode:PEPSI ☆ MAN
Artist:NOMA
ArtistUnicode:NOMA
Creator:Zetera
Version:EXTRA MAN
Source:
Tags:MowtenDoo YTPMV MAD Irreversible Snaggletooth Mao Yuzu- [Nicole] Stjpa Feerum Phil stankill
BeatmapID:800533
BeatmapSetID:364712

[Difficulty]
HPDrainRate:6
CircleSize:6
OverallDifficulty:7
ApproachRate:9
SliderMultiplier:1.6
SliderTickRate:1

[Events]
//Background and Video events
0,0,"BG_MTNDW.jpg",0,0
//Break Periods
//Storyboard Layer 0 (Background)
//Storyboard Layer 1 (Fail)
//Storyboard Layer 2 (Pass)
//Storyboard Layer 3 (Foreground)
//Storyboard Sound Samples

[TimingPoints]
1450,333.333333333333,4,1,1,70,1,0
1699,-71.4285714285714,4,1,1,5,0,0
1783,-83.3333333333333,4,1,1,70,0,0
2033,-83.3333333333333,4,1,1,5,0,0
2116,-83.3333333333333,4,1,1,70,0,0
5199,-83.3333333333333,4,1,1,5,0,0
5283,-83.3333333333333,4,1,1,70,0,0
5366,-83.3333333333333,4,1,1,5,0,0
5449,-83.3333333333333,4,1,1,70,0,0
6533,-83.3333333333333,4,1,1,5,0,0
6616,-83.3333333333333,4,1,1,70,0,0
7283,-133.333333333333,4,1,1,70,0,0
8116,-133.333333333333,4,1,0,70,0,0
8199,-133.333333333333,4,1,1,70,0,0
9449,-100,4,1,0,70,0,0
9533,-100,4,1,1,70,0,0
14783,-66.6666666666667,4,3,1,70,0,0
16116,-66.6666666666667,4,1,1,70,0,0
16449,-100,4,1,1,70,0,0
17449,-100,4,1,0,70,0,0
17533,-100,4,3,1,70,0,0
17783,-66.6666666666667,4,3,1,70,0,0
18783,-100,4,1,1,70,0,0
20116,-66.6666666666667,4,1,1,70,0,0
20283,-66.6666666666667,4,3,1,70,0,0
21449,-66.6666666666667,4,1,1,70,0,0
32116,-100,4,1,1,70,0,0
36116,-133.333333333333,4,1,1,70,0,0
37116,-100,4,1,1,70,0,0
38783,-133.333333333333,4,1,1,70,0,0
40116,-100,4,1,1,70,0,0
41449,-80,4,1,1,70,0,0
42783,-100,4,1,1,70,0,0
45033,-100,4,1,1,5,0,0
45116,-100,4,1,1,70,0,0
45366,-100,4,1,1,5,0,0
45449,-100,4,1,1,70,0,0
48116,-66.6666666666667,4,1,3,70,0,0

[Colours]
Combo1 : 40,140,220
Combo2 : 255,0,0
Combo3 : 70,70,70

[HitObjects]
36,328,1450,6,0,L|168:316,1,120,8|0,0:2|0:0,0:0:0:0:
276,352,1783,6,0,L|120:332,1,143.999995605469,8|0,0:2|0:0,0:0:0:0:
0,256,2116,6,0,L|71:248,1,47.9999985351563,8|0,0:2|0:0,0:0:0:0:
216,172,2283,6,0,P|226:155|228:124,1,47.9999985351563,4|0,0:3|0:0,0:0:0:0:
153,37,2449,2,0,L|169:153,1,95.9999970703126,2|0,0:0|0:0,0:0:0:0:
368,192,2783,6,0,L|381:96,1,95.9999970703126,4|0,0:0|0:0,0:0:0:0:
484,192,3116,1,8,0:0:0:0:
368,328,3283,2,0,P|254:342|219:278,1,191.999994140625,4|0,0:3|0:0,0:0:0:0:
306,274,3783,1,8,0:0:0:0:
88,324,3949,1,4,0:3:0:0:
196,136,4116,6,0,P|189:190|161:234,1,95.9999970703126,4|0,0:3|0:0,0:0:0:0:
72,144,4449,1,8,0:0:0:0:
252,44,4616,1,4,0:3:0:0:
275,45,4699,1,0,0:0:0:0:
299,46,4782,1,0,0:0:0:0:
323,48,4865,1,0,0:0:0:0:
347,49,4949,1,0,0:0:0:0:
444,160,5116,6,0,P|452:192|448:224,1,47.9999985351563,8|0,0:0|0:0,0:0:0:0:
376,248,5283,2,0,P|368:216|372:184,1,47.9999985351563,4|0,0:3|0:0,0:0:0:0:
436,304,5449,6,0,P|384:332|336:320,1,95.9999970703126,4|0,0:3|0:0,0:0:0:0:
256,376,5783,1,8,0:0:0:0:
112,236,5949,6,0,P|162:267|175:314,1,95.9999970703126,4|0,0:3|0:0,0:0:0:0:
92,320,6283,1,0,0:0:0:0:
256,144,6449,2,0,L|248:72,1,47.9999985351563,8|0,0:0|0:0,0:0:0:0:
242,16,6616,1,4,0:3:0:0:
376,248,6783,6,0,L|392:144,2,95.9999970703126,4|0|8,0:3|0:0|0:0,0:0:0:0:
480,104,7283,1,4,0:3:0:0:
476,92,7366,1,0,0:0:0:0:
472,80,7449,2,0,L|453:27,1,30.0000011444092,0|0,0:0|0:0,0:0:0:0:
380,68,7616,1,4,0:3:0:0:
376,56,7699,1,0,0:0:0:0:
372,44,7783,2,0,L|353:-9,1,30.0000011444092,8|0,0:0|0:2,0:0:0:0:
256,96,7949,2,0,L|245:124,1,30.0000011444092,4|0,0:3|0:2,0:0:0:0:
104,36,8116,5,4,0:2:0:0:
83,42,8199,1,0,0:0:0:0:
64,54,8282,1,0,0:0:0:0:
49,70,8366,1,0,0:0:0:0:
39,89,8449,1,8,0:0:0:0:
33,110,8532,1,0,0:0:0:0:
32,132,8616,1,4,0:3:0:0:
37,153,8699,1,0,0:0:0:0:
46,173,8783,2,0,L|38:213,3,30.0000011444092,0|0|0|0,0:0|0:0|0:0|0:0,0:0:0:0:
124,276,9116,2,0,L|118:246,3,30.0000011444092,8|0|4|0,0:0|0:0|0:3|0:0,0:0:0:0:
192,192,9449,5,4,0:2:0:0:
215,183,9533,1,0,0:0:0:0:
241,180,9616,1,0,0:0:0:0:
266,183,9699,1,0,0:0:0:0:
290,193,9783,1,8,0:0:0:0:
311,208,9866,1,0,0:0:0:0:
327,228,9949,1,4,0:3:0:0:
341,252,10033,1,0,0:0:0:0:
344,276,10116,6,0,L|384:268,3,40,0|0|0|0,0:0|0:0|0:0|0:0,0:0:0:0:
480,192,10449,2,0,L|418:179,3,40,8|0|4|0,0:0|0:0|0:3|0:0,0:0:0:0:
360,112,10783,6,0,P|344:64|344:48,1,40,4|0,0:2|0:0,0:0:0:0:
415,69,10949,2,0,P|424:51|429:31,1,40,0|0,0:0|0:0,0:0:0:0:
480,192,11116,6,0,P|496:240|496:256,1,40,8|0,0:0|0:0,0:0:0:0:
384,240,11282,2,0,P|374:257|369:277,1,40,4|0,0:3|0:0,0:0:0:0:
472,116,11449,6,0,L|520:112,1,40,4|0,0:2|0:0,0:0:0:0:
328,180,11616,2,0,L|280:176,1,40,0|0,0:0|0:0,0:0:0:0:
464,128,11783,2,0,L|512:124,1,40,8|0,0:0|0:0,0:0:0:0:
320,192,11950,2,0,L|272:188,1,40,4|0,0:3|0:0,0:0:0:0:
152,112,12116,6,0,P|108:88|96:148,1,120,4|0,0:2|0:0,0:0:0:0:
152,112,12449,6,0,P|112:80|90:137,1,120,4|0,0:2|0:0,0:0:0:0:
104,244,12783,6,0,P|67:281|35:239,1,120,4|0,0:2|0:0,0:0:0:0:
104,243,13116,6,0,P|73:286|35:250,1,120
104,243,13449,6,0,L|97:282,1,40,6|0,0:0|0:0,0:0:0:0:
168,188,13616,1,2,0:0:0:0:
305,347,13783,2,0,P|253:367|229:359,1,80,10|4,0:0|0:3,0:0:0:0:
400,368,14116,1,0,0:0:0:0:
259,295,14283,2,0,P|239:243|247:219,1,80,2|8,0:0|0:0,0:0:0:0:
400,368,14616,1,2,0:0:0:0:
489,189,14783,6,0,P|495:150|420:120,1,120.000004577637,4|0,3:0|0:0,0:0:0:0:
426,124,15033,1,0,0:0:0:0:
424,136,15116,2,0,L|304:128,1,120.000004577637,8|4,0:0|3:0,0:0:0:0:
256,64,15366,2,0,L|136:72,1,120.000004577637,2|0,3:0|0:0,0:0:0:0:
64,48,15616,2,0,P|60:124|84:148,1,60.0000022888184,2|0,3:0|0:0,0:0:0:0:
136,212,15783,2,0,P|136:182|124:155,1,60.0000022888184,8|0,0:0|0:0,0:0:0:0:
40,256,15949,2,0,P|36:332|60:356,1,60.0000022888184,2|0,0:3|0:0,0:0:0:0:
92,368,16116,5,6,0:0:0:0:
332,332,16283,1,2,0:0:0:0:
216,252,16449,2,0,L|204:144,1,80,8|4,0:0|0:3,0:0:0:0:
216,252,16783,1,0,0:0:0:0:
296,188,16949,2,0,L|284:80,2,80,2|8|2,0:0|0:0|0:0,0:0:0:0:
356,127,17449,5,4,3:0:0:0:
346,72,17532,5,0,0:0:0:0:
301,42,17615,5,0,0:0:0:0:
249,53,17698,5,0,0:0:0:0:
219,100,17783,5,8,0:0:0:0:
320,280,17949,1,4,0:3:0:0:
336,284,18033,2,0,L|464:272,1,120.000004577637,2|0,3:0|0:0,0:0:0:0:
288,364,18283,2,0,L|168:352,1,120.000004577637,2|8,3:0|0:0,0:0:0:0:
76,340,18533,1,0,0:0:0:0:
76,340,18616,1,2,0:3:0:0:
40,192,18783,5,6,0:0:0:0:
76,340,18949,1,2,0:0:0:0:
92,140,19116,2,0,P|112:204|88:244,1,80,8|4,0:0|0:3,0:0:0:0:
109,213,19366,1,0,0:0:0:0:
109,213,19449,1,0,0:0:0:0:
109,213,19533,1,0,0:0:0:0:
109,213,19616,2,0,L|201:201,1,80,2|8,0:0|0:0,0:0:0:0:
408,112,19949,1,2,0:0:0:0:
404,216,20116,6,0,B|376:164|376:164|408:112,1,120.000004577637,4|0,3:0|0:0,0:0:0:0:
448,264,20366,1,0,0:0:0:0:
435,277,20449,6,0,P|403:285|359:269,1,60.0000022888184,8|0,0:0|0:0,0:0:0:0:
304,288,20616,2,0,P|272:280|228:296,1,60.0000022888184,4|2,0:3|3:0,0:0:0:0:
188,316,20783,2,0,P|156:324|112:308,1,60.0000022888184,2|0,0:3|0:0,0:0:0:0:
72,252,20949,6,0,L|60:176,1,60.0000022888184,2|0,3:0|0:0,0:0:0:0:
128,208,21116,6,0,L|116:132,1,60.0000022888184,8|0,0:0|0:0,0:0:0:0:
188,168,21283,6,0,L|176:92,1,60.0000022888184,2|0,0:3|0:0,0:0:0:0:
120,64,21449,5,6,0:0:0:0:
380,124,21616,1,2,0:0:0:0:
50,128,22283,1,2,0:0:0:0:
379,210,22616,1,2,0:0:0:0:
392,96,22783,6,0,P|396:176|364:228,1,120.000004577637,4|0,3:0|0:0,0:0:0:0:
328,340,23033,2,0,P|303:285|256:250,1,120.000004577637,0|0,0:0|0:0,0:0:0:0:
308,144,23283,1,4,0:3:0:0:
308,144,23366,1,2,3:0:0:0:
308,144,23449,6,0,L|227:123,1,60.0000022888184,0|0,0:0|0:0,0:0:0:0:
132,232,23616,2,0,L|52:253,1,60.0000022888184,2|0,3:0|0:0,0:0:0:0:
187,202,23783,2,0,P|195:234|171:278,1,60.0000022888184,8|0,0:0|0:0,0:0:0:0:
80,112,23949,2,0,P|72:80|96:36,1,60.0000022888184,2|0,0:3|0:0,0:0:0:0:
256,192,24116,5,4,0:0:0:0:
256,192,24199,12,4,29949,0:3:0:0:
68,316,30116,6,0,L|188:308,2,120.000004577637,2|0|10,0:0|0:0|0:0,0:0:0:0:
232,224,30616,6,0,P|232:272|240:344,2,120.000004577637,4|2|0,0:3|0:0|0:0,0:0:0:0:
292,128,31116,5,10,0:0:0:0:
364,248,31283,1,4,0:3:0:0:
132,168,31449,5,2,0:0:0:0:
368,72,31616,5,0,0:0:0:0:
232,224,31783,1,10,0:0:0:0:
256,48,31949,5,4,0:3:0:0:
148,248,32116,6,0,B|140:260|140:260|108:260|108:260|100:252|100:252|72:256|72:256|32:272,2,120,2|0|4,0:0|0:0|0:3,0:0:0:0:
256,336,32783,2,0,P|284:364|284:372,1,40,2|2,0:0|0:0,0:0:0:0:
460,216,33116,6,0,B|440:196|440:196|444:176|444:176|472:200,1,80,10|4,0:0|0:3,0:0:0:0:
392,128,33449,6,0,P|336:136|300:132,1,80,4|0,0:0|0:0,0:0:0:0:
216,44,33783,2,0,B|208:108|208:108|160:108,1,80,12|0,0:0|0:0,0:0:0:0:
116,184,34033,5,0,2:0:0:0:
104,192,34116,2,0,B|88:192|88:192|80:128,1,80,4|0,0:0|0:0,0:0:0:0:
128,280,34449,2,0,B|64:304|64:304|32:304,1,80,12|0,0:0|0:0,0:0:0:0:
256,352,34783,5,0,0:0:0:0:
312,192,34949,1,0,0:0:0:0:
444,272,35116,2,0,L|352:264,1,80,8|0,0:0|0:0,0:0:0:0:
232,185,35449,1,0,0:0:0:0:
312,192,35616,2,0,L|220:184,1,80,0|8,0:0|0:0,0:0:0:0:
368,268,35949,1,0,0:0:0:0:
444,152,36116,6,0,B|460:128|452:100|452:100|460:96|460:96|444:68|452:24,1,120.000004577637,6|2,0:0|0:0,0:0:0:0:
508,59,36616,1,4,3:0:0:0:
396,118,36783,2,0,L|324:104,1,60.0000022888184,0|0,1:0|1:0,0:0:0:0:
258,108,37116,6,0,B|354:92|354:92|334:108,1,120.000004577637,2|0,0:0|2:0,0:0:0:0:
244,172,37449,5,6,0:0:0:0:
196,36,37616,1,2,0:0:0:0:
112,192,37783,2,0,P|56:212|8:192,1,80,8|4,0:0|0:3,0:0:0:0:
60,146,38116,1,0,0:0:0:0:
188,224,38283,2,0,P|208:280|188:328,1,80,2|8,0:0|0:0,0:0:0:0:
64,144,38616,1,2,0:0:0:0:
168,52,38783,6,0,B|196:44|196:44|264:56,2,90.0000034332277,4|4|4,0:3|0:3|0:3,0:0:0:0:
288,104,39449,2,0,P|304:88|304:84,4,15.0000005722046,0|0|0|0|0,0:0|0:0|0:0|0:0|0:0,0:0:0:0:
408,80,39783,2,0,P|392:64|392:60,4,15.0000005722046,0|0|0|0|0,0:0|0:0|0:0|0:0|0:0,0:0:0:0:
440,28,40116,5,6,0:0:0:0:
360,132,40283,1,2,0:0:0:0:
448,276,40449,2,0,L|440:184,1,80,8|4,0:0|0:3,0:0:0:0:
300,192,40783,1,0,0:0:0:0:
388,336,40949,2,0,L|380:244,1,80,2|8,0:0|0:0,0:0:0:0:
300,192,41283,1,2,0:0:0:0:
195,311,41449,6,0,B|124:266|110:359|30:337|26:279|79:271|93:297,1,200,2|0,1:0|0:0,0:0:0:0:
107,197,41949,1,4,3:0:0:0:
92,296,42116,6,0,L|108:192,1,100,2|4,1:0|3:3,0:0:0:0:
195,311,42449,2,0,L|211:207,1,100,2|4,1:0|3:0,0:0:0:0:
304,120,42783,6,0,P|347:140|397:132,1,80,6|2,0:0|0:0,0:0:0:0:
356,72,43116,1,8,0:0:0:0:
376,208,43283,6,0,P|421:191|450:150,1,80,4|0,0:3|0:0,0:0:0:0:
378,137,43616,1,2,0:0:0:0:
256,328,43783,1,8,0:0:0:0:
256,328,44116,6,0,L|188:320,2,53.3333333333333,4|0|0,3:0|0:0|0:0,0:0:0:0:
196,256,44449,2,0,P|152:276|136:312,1,80,0|0,0:0|1:0,0:0:0:0:
348,164,44783,6,0,P|404:184|500:192,1,120,0|0,1:0|0:0,0:0:0:0:
432,112,45116,2,0,P|376:92|280:84,1,120,0|0,1:0|0:0,0:0:0:0:
196,256,45449,5,4,1:0:0:0:
256,192,45533,12,4,48116,0:0:0:0:
