osu file format v14

[General]
AudioFilename: audio.mp3
AudioLeadIn: 0
PreviewTime: 0
Countdown: 0
SampleSet: Soft
StackLeniency: 0.7
Mode: 0
LetterboxInBreaks: 0
WidescreenStoryboard: 0

[Editor]
Bookmarks: 13330,23997
DistanceSpacing: 1.3
BeatDivisor: 1
GridSize: 32
TimelineZoom: 2.3

[Metadata]
Title:PEPSI * MAN
TitleUnicode:PEPSI ☆ MAN
Artist:NOMA
ArtistUnicode:ノマ
Creator:Seto Kousuke
Version:TRYNNA THE PEPSI GIRL
Source:ペプシマン
Tags:NOFFY MONSTRATA TRYNNA TESTO BLUE DRAGON MISMAGIUS ALEXSANDER BOSSANDY PEPSIMAN MOWTENDOO THE COMPLETIONIST
BeatmapID:1838666
BeatmapSetID:879193

[Difficulty]
HPDrainRate:6
CircleSize:4.2
OverallDifficulty:8.9
ApproachRate:9.6
SliderMultiplier:2
SliderTickRate:1

[Events]
//Background and Video events
Video,0,"pepsi man.avi"
0,0,"pepsi_anime.jpg",0,0
//Break Periods
//Storyboard Layer 0 (Background)
//Storyboard Layer 1 (Fail)
//Storyboard Layer 2 (Pass)
//Storyboard Layer 3 (Foreground)
//Storyboard Sound Samples

[TimingPoints]
10,333.333333333333,4,2,1,60,1,0
1259,-100,4,2,0,60,0,0
2093,-100,4,2,1,60,0,0
2343,-83.3333333333333,4,2,1,60,0,0
2684,333.333333333333,4,2,1,80,1,0
33433,-100,4,2,1,5,0,0
33517,-100,4,2,1,80,0,0
33600,-100,4,2,1,5,0,0
33683,-100,4,2,1,80,0,0
33767,-100,4,2,1,5,0,0
33850,-100,4,2,1,80,0,0
33933,-100,4,2,1,5,0,0
34017,-100,4,2,1,80,0,0
34100,-100,4,2,1,5,0,0
34183,-100,4,2,1,80,0,0
34267,-100,4,2,1,5,0,0
34350,-100,4,2,1,80,0,0
34433,-100,4,2,1,5,0,0
34517,-100,4,2,1,80,0,0
34600,-100,4,2,1,5,0,0
34683,-100,4,2,1,80,0,0

[Colours]
Combo1 : 217,13,44
Combo2 : 198,106,4
Combo3 : 0,96,213
Combo4 : 245,146,10
SliderBorder : 255,255,255

[HitObjects]
429,332,1343,5,8,0:0:0:0:
63,279,1676,1,8,0:0:0:0:
319,102,2009,1,8,0:0:0:0:
256,192,2176,6,0,P|263:216|267:241,1,50,0|0,3:0|0:0,0:0:0:0:
236,69,2343,2,0,P|300:13|386:37,1,179.999994506836,8|0,0:2|0:0,0:0:0:0:
481,75,2684,5,0,3:0:0:0:
474,99,2767,1,0,1:0:0:0:
469,123,2850,1,0,1:0:0:0:
467,147,2933,1,0,1:0:0:0:
466,173,3017,2,0,P|468:196|474:222,1,50,8|0,0:2|1:0,0:0:0:0:
386,326,3183,5,0,3:0:0:0:
361,304,3266,1,0,1:0:0:0:
331,291,3349,1,0,1:0:0:0:
298,288,3432,1,0,1:0:0:0:
266,296,3516,1,0,1:0:0:0:
239,314,3599,1,0,1:0:0:0:
219,340,3683,2,0,L|167:326,1,50,8|0,0:2|1:0,0:0:0:0:
46,259,3850,2,0,L|94:246,1,50,0|0,3:0|1:0,0:0:0:0:
212,148,4017,5,0,3:0:0:0:
219,124,4100,1,0,1:0:0:0:
221,99,4183,1,0,1:0:0:0:
218,73,4267,1,0,1:0:0:0:
212,48,4350,2,0,L|197:0,1,50,8|0,0:2|1:0,0:0:0:0:
322,160,4517,5,0,3:0:0:0:
356,156,4600,1,0,1:0:0:0:
390,153,4683,1,0,1:0:0:0:
425,149,4767,1,0,1:0:0:0:
446,120,4850,1,0,1:0:0:0:
448,85,4933,1,0,1:0:0:0:
428,56,5017,2,0,P|405:45|381:39,1,50,8|0,0:2|1:0,0:0:0:0:
306,179,5183,2,0,P|307:203|314:227,1,50,0|0,3:0|1:0,0:0:0:0:
344,361,5350,5,0,3:0:0:0:
362,343,5433,1,0,1:0:0:0:
382,328,5517,1,0,1:0:0:0:
404,318,5600,1,0,1:0:0:0:
428,312,5683,2,0,P|452:313|477:318,1,50,8|0,0:2|1:0,0:0:0:0:
253,309,5850,5,0,3:0:0:0:
221,314,5933,1,0,1:0:0:0:
187,306,6017,1,0,1:0:0:0:
162,286,6100,1,0,1:0:0:0:
132,271,6183,1,0,1:0:0:0:
99,269,6267,1,0,1:0:0:0:
67,282,6350,2,0,B|62:307|62:307|63:331,1,50,8|0,0:2|1:0,0:0:0:0:
221,223,6517,2,0,B|224:198|224:198|219:173,1,50,0|0,3:0|1:0,0:0:0:0:
125,50,6683,5,0,3:0:0:0:
79,62,6766,1,0,1:0:0:0:
76,109,6849,1,0,1:0:0:0:
118,128,6932,1,0,1:0:0:0:
151,95,7017,2,0,P|176:93|201:97,1,50,8|0,0:2|1:0,0:0:0:0:
397,55,7183,5,0,3:0:0:0:
444,48,7266,1,0,1:0:0:0:
480,79,7349,1,0,1:0:0:0:
477,127,7432,1,0,1:0:0:0:
437,154,7516,1,0,3:0:0:0:
391,140,7599,1,0,1:0:0:0:
373,95,7683,2,0,L|364:40,1,50,8|0,0:2|1:0,0:0:0:0:
296,192,7850,2,0,L|287:142,1,50,0|0,3:0|1:0,0:0:0:0:
359,280,8017,5,2,3:3:0:0:
309,289,8100,1,2,0:3:0:0:
260,298,8183,1,2,0:3:0:0:
210,309,8267,1,2,0:3:0:0:
162,318,8350,1,2,0:3:0:0:
113,293,8433,1,2,0:3:0:0:
97,239,8517,1,2,3:3:0:0:
122,190,8600,1,2,0:3:0:0:
172,172,8683,6,0,P|177:147|179:122,1,50,2|2,0:3|0:3,0:0:0:0:
260,13,8850,2,0,P|262:37|267:62,1,50,2|2,0:3|0:3,0:0:0:0:
342,180,9017,2,0,L|293:167,1,50,2|2,3:3|0:3,0:0:0:0:
76,61,9183,2,0,L|124:48,1,50,2|2,3:3|0:3,0:0:0:0:
368,0,9350,5,2,3:3:0:0:
405,32,9433,1,2,0:3:0:0:
425,77,9516,1,2,0:3:0:0:
422,127,9600,1,2,0:3:0:0:
397,170,9683,1,2,0:3:0:0:
360,202,9766,1,2,0:3:0:0:
340,247,9849,1,2,3:3:0:0:
343,297,9933,1,2,0:3:0:0:
368,340,10017,2,0,P|390:349|415:354,1,50,2|2,0:3|0:3,0:0:0:0:
137,285,10183,2,0,P|112:289|89:299,1,50,2|2,0:3|0:3,0:0:0:0:
265,384,10350,2,0,L|270:334,1,50,2|2,3:3|0:3,0:0:0:0:
229,191,10517,2,0,L|223:240,1,50,2|2,3:3|0:3,0:0:0:0:
169,115,10683,6,0,L|136:124,2,25,2|2|2,3:3|1:3|1:3,0:0:0:0:
221,54,10850,2,0,L|286:62,1,50,2|2,0:3|0:3,0:0:0:0:
354,191,11017,1,2,0:3:0:0:
387,181,11100,1,2,0:3:0:0:
420,171,11183,1,2,3:3:0:0:
453,159,11267,1,2,0:3:0:0:
486,148,11350,6,0,L|497:180,4,25,2|2|2|0|2,3:3|1:3|1:3|0:0|0:3,0:0:0:0:
346,325,11683,1,2,0:3:0:0:
311,295,11767,1,2,0:3:0:0:
268,281,11850,1,2,3:3:0:0:
224,289,11933,1,2,0:3:0:0:
183,310,12017,6,0,L|177:343,4,25,2|2|2|0|2,3:3|1:3|1:3|0:0|0:3,0:0:0:0:
57,190,12350,2,0,L|61:165,4,25,2|2|2|0|2,3:3|1:3|1:3|0:0|0:3,0:0:0:0:
253,93,12683,1,2,3:3:0:0:
230,106,12767,2,0,L|116:96,1,100,2|2,1:3|0:3,0:0:0:0:
75,39,13017,2,0,L|49:36,7,25,2|2|2|2|2|2|2|0,3:3|1:3|1:3|1:3|1:3|1:3|1:3|0:0,0:0:0:0:
187,7,13350,5,0,3:0:0:0:
166,311,13517,1,0,1:0:0:0:
407,221,13683,2,0,L|352:227,1,50,10|0,0:2|1:0,0:0:0:0:
474,276,13850,1,0,3:0:0:0:
298,162,14017,1,0,3:0:0:0:
496,29,14183,2,0,L|483:135,1,100,2|8,1:2|0:2,0:0:0:0:
314,351,14517,2,0,L|310:301,1,50,2|0,3:2|1:0,0:0:0:0:
290,56,14683,5,2,0:1:0:0:
121,194,14850,1,2,0:3:0:0:
91,198,14933,1,2,0:3:0:0:
62,190,15017,1,2,0:3:0:0:
185,17,15183,1,2,0:1:0:0:
185,17,15267,2,0,L|193:137,1,100,0|2,1:0|0:3,0:0:0:0:
284,185,15517,1,2,0:3:0:0:
284,185,15601,2,0,L|276:305,1,100,0|0,1:0|0:0,0:0:0:0:
187,342,15850,2,0,L|129:333,1,50,2|2,0:1|0:1,0:0:0:0:
467,252,16017,5,0,3:0:0:0:
203,233,16183,1,0,1:0:0:0:
420,82,16350,2,0,L|490:95,1,50,10|0,0:2|0:0,0:0:0:0:
349,132,16517,1,0,3:0:0:0:
412,337,16683,1,0,3:0:0:0:
267,210,16850,2,0,L|217:211,1,50,2|0,1:2|1:0,0:0:0:0:
46,289,17017,1,8,0:2:0:0:
203,359,17183,1,2,3:2:0:0:
99,190,17350,5,2,0:1:0:0:
88,162,17433,1,0,3:0:0:0:
78,133,17517,1,0,3:0:0:0:
92,106,17600,1,0,3:0:0:0:
109,82,17683,1,2,0:3:0:0:
346,162,17850,5,2,0:1:0:0:
358,188,17933,1,2,0:1:0:0:
367,217,18016,1,0,1:0:0:0:
352,244,18100,1,0,1:0:0:0:
337,270,18183,1,2,0:1:0:0:
220,167,18350,6,0,L|229:117,1,50,0|0,3:0|3:0,0:0:0:0:
311,60,18517,1,2,0:1:0:0:
85,206,18683,5,0,3:0:0:0:
427,138,18850,1,0,1:0:0:0:
240,355,19017,2,0,L|247:233,1,100,10|0,0:2|3:0,0:0:0:0:
176,52,19350,1,0,3:0:0:0:
40,286,19517,2,0,L|49:359,1,50,2|0,1:2|1:0,0:0:0:0:
168,167,19683,1,8,0:2:0:0:
54,49,19850,2,0,P|23:48|4:53,1,50,2|0,3:2|1:0,0:0:0:0:
272,111,20017,6,0,L|385:93,1,100,2|2,0:1|3:2,0:0:0:0:
389,75,20267,1,2,3:2:0:0:
393,104,20350,1,2,3:2:0:0:
398,133,20433,1,2,3:2:0:0:
402,162,20517,2,0,L|394:221,1,50,2|0,0:1|0:0,0:0:0:0:
258,380,20683,1,2,3:2:0:0:
236,358,20767,1,2,3:2:0:0:
225,330,20850,1,2,3:2:0:0:
224,300,20933,1,0,0:0:0:0:
232,271,21017,1,2,0:1:0:0:
258,232,21100,1,2,0:1:0:0:
272,185,21183,1,2,3:2:0:0:
260,137,21267,1,0,0:0:0:0:
227,102,21350,5,0,3:0:0:0:
378,307,21517,1,0,1:0:0:0:
138,187,21683,2,0,L|88:190,1,50,10|0,0:2|1:0,0:0:0:0:
259,20,21850,1,0,3:0:0:0:
259,20,21933,1,0,0:0:0:0:
259,20,22017,1,0,3:0:0:0:
427,167,22183,2,0,P|442:147|453:125,1,50,2|0,1:2|1:0,0:0:0:0:
258,232,22350,1,8,0:2:0:0:
340,86,22517,1,2,3:2:0:0:
432,338,22683,5,2,0:1:0:0:
382,334,22766,1,2,1:3:0:0:
332,332,22849,1,2,0:3:0:0:
282,330,22932,1,2,1:3:0:0:
231,326,23017,1,2,0:3:0:0:
67,118,23183,5,2,0:1:0:0:
67,118,23267,1,2,1:3:0:0:
67,118,23350,2,0,L|116:108,1,50,2|2,0:3|1:3,0:0:0:0:
170,285,23517,2,0,L|219:294,1,50,2|0,0:3|0:0,0:0:0:0:
271,48,23683,2,0,L|320:38,1,50,2|2,0:1|0:1,0:0:0:0:
374,341,23850,2,0,L|423:350,1,50,2|2,0:1|0:3,0:0:0:0:
473,187,24017,5,0,3:0:0:0:
449,178,24100,1,0,1:0:0:0:
424,174,24183,1,0,1:0:0:0:
398,175,24267,1,0,1:0:0:0:
374,182,24350,2,0,P|350:190|325:192,1,50,8|0,0:2|1:0,0:0:0:0:
219,294,24517,5,0,3:0:0:0:
212,259,24600,1,0,1:0:0:0:
208,224,24683,1,0,1:0:0:0:
205,188,24767,1,0,1:0:0:0:
201,153,24850,1,0,1:0:0:0:
198,118,24933,1,0,1:0:0:0:
196,82,25017,2,0,L|221:28,1,50,8|0,0:2|1:0,0:0:0:0:
78,133,25183,2,0,L|53:79,1,50,0|0,3:0|1:0,0:0:0:0:
126,235,25350,5,0,3:0:0:0:
104,225,25433,1,0,1:0:0:0:
80,223,25516,1,0,1:0:0:0:
55,226,25600,1,0,1:0:0:0:
33,237,25683,2,0,B|24:260|24:260|28:284,1,50,8|0,0:2|1:0,0:0:0:0:
138,350,25850,5,0,3:0:0:0:
171,358,25933,1,0,1:0:0:0:
206,355,26017,1,0,1:0:0:0:
239,338,26100,1,0,1:0:0:0:
271,326,26183,1,0,1:0:0:0:
306,325,26267,1,0,1:0:0:0:
336,338,26350,2,0,P|332:314|333:289,1,50,8|0,0:2|1:0,0:0:0:0:
444,169,26517,2,0,P|445:193|440:218,1,50,0|0,3:0|1:0,0:0:0:0:
291,100,26683,5,0,3:0:0:0:
266,107,26767,1,0,1:0:0:0:
241,109,26850,1,0,1:0:0:0:
216,104,26933,1,0,1:0:0:0:
192,95,27017,2,0,P|167:90|143:95,1,50,8|0,0:2|1:0,0:0:0:0:
329,8,27183,5,0,3:0:0:0:
362,29,27266,1,0,1:0:0:0:
384,62,27349,1,0,1:0:0:0:
391,101,27432,1,0,1:0:0:0:
382,140,27516,1,0,1:0:0:0:
359,172,27599,1,0,1:0:0:0:
325,192,27683,2,0,L|275:199,1,50,8|0,0:2|1:0,0:0:0:0:
154,277,27850,2,0,L|203:283,1,50,0|0,3:0|1:0,0:0:0:0:
364,352,28017,5,0,3:0:0:0:
375,330,28100,1,0,1:0:0:0:
391,311,28183,1,0,1:0:0:0:
412,297,28267,1,0,1:0:0:0:
434,287,28350,2,0,P|462:284|493:289,1,50,8|0,0:2|1:0,0:0:0:0:
325,192,28517,5,0,3:0:0:0:
305,163,28600,1,0,1:0:0:0:
294,129,28683,1,0,1:0:0:0:
295,93,28767,1,0,1:0:0:0:
305,59,28850,1,0,3:0:0:0:
326,31,28933,1,0,1:0:0:0:
358,16,29017,2,0,L|422:25,1,50,8|0,0:2|1:0,0:0:0:0:
271,105,29183,2,0,L|221:98,1,50,0|0,3:0|1:0,0:0:0:0:
68,48,29350,5,0,3:0:0:0:
74,72,29433,1,0,1:0:0:0:
80,96,29517,1,0,1:0:0:0:
87,119,29600,1,0,1:0:0:0:
93,143,29683,2,0,L|86:212,1,50,8|0,0:2|1:0,0:0:0:0:
30,338,29850,5,0,3:0:0:0:
65,310,29933,1,0,1:0:0:0:
109,302,30017,1,0,1:0:0:0:
152,312,30100,1,0,1:0:0:0:
190,334,30183,1,0,1:0:0:0:
235,337,30267,1,0,1:0:0:0:
272,312,30350,2,0,P|278:286|278:262,1,50,8|0,0:2|1:0,0:0:0:0:
198,112,30517,2,0,P|198:136|204:161,1,50,0|0,3:0|1:0,0:0:0:0:
392,171,30683,6,0,L|342:164,1,50,0|0,3:0|0:0,0:0:0:0:
109,261,30850,2,0,L|158:254,1,50,0|0,0:0|1:0,0:0:0:0:
422,289,31017,2,0,L|496:276,2,75,8|0|0,0:2|1:0|1:0,0:0:0:0:
417,93,31350,2,0,L|343:80,2,75,0|0|0,1:0|1:0|1:0,0:0:0:0:
269,197,31683,1,8,0:2:0:0:
269,197,31850,2,0,L|217:192,1,50,0|0,1:0|0:0,0:0:0:0:
117,222,32017,6,0,P|109:173|127:127,1,100,0|0,3:0|0:0,0:0:0:0:
230,96,32350,1,8,0:0:0:0:
254,292,32517,2,0,L|341:288,1,50,0|0,3:0|0:0,0:0:0:0:
414,335,32683,2,0,B|429:286|429:286|411:240,1,100,0|0,3:0|0:0,0:0:0:0:
470,160,33017,2,0,B|455:111|455:111|472:65,1,100,8|0,0:0|0:0,0:0:0:0:
339,121,33350,6,0,B|225:150|261:69|148:90,1,200,0|8,3:0|3:2,0:0:0:0:
256,192,33850,12,4,34683,0:1:0:0:
