osu file format v14

[General]
AudioFilename: audio.mp3
AudioLeadIn: 0
PreviewTime: 0
Countdown: 0
SampleSet: Soft
StackLeniency: 0.2
Mode: 0
LetterboxInBreaks: 0
WidescreenStoryboard: 0

[Editor]
Bookmarks: 13330,23997,29997
DistanceSpacing: 1.3
BeatDivisor: 4
GridSize: 8
TimelineZoom: 3.599998

[Metadata]
Title:PEPSI * MAN
TitleUnicode:PEPSI ☆ MAN
Artist:NOMA
ArtistUnicode:ノマ
Creator:Seto Kousuke
Version:MONSTRATA THE PEPSI ILLUMINATI
Source:ペプシマン
Tags:NOFFY MONSTRATA TRYNNA TESTO BLUE DRAGON MISMAGIUS ALEXSANDER BOSSANDY PEPSIMAN MOWTENDOO THE COMPLETIONIST
BeatmapID:1865037
BeatmapSetID:879193

[Difficulty]
HPDrainRate:4
CircleSize:4.3
OverallDifficulty:9.4
ApproachRate:9.6
SliderMultiplier:1.8
SliderTickRate:1

[Events]
//Background and Video events
Video,0,"pepsi man.avi"
0,0,"coca cola man.jpg",0,0
//Break Periods
//Storyboard Layer 0 (Background)
//Storyboard Layer 1 (Fail)
//Storyboard Layer 2 (Pass)
//Storyboard Layer 3 (Foreground)
//Storyboard Sound Samples

[TimingPoints]
10,333.333333333333,4,2,1,60,1,0
1343,-100,4,2,2,60,0,0
1676,-90.9090909090909,4,2,2,60,0,0
2009,-83.3333333333333,4,2,2,60,0,0
2093,-83.3333333333333,4,2,1,60,0,0
2343,-38.4615384615385,4,2,1,60,0,0
2684,333.333333333333,4,2,1,80,1,0
2684,-100,4,2,1,80,0,0
4017,-90.9090909090909,4,2,1,80,0,0
5350,-83.3333333333333,4,2,1,80,0,0
6683,-76.9230769230769,4,2,1,80,0,0
8017,-76.9230769230769,4,2,1,80,0,0
8183,-71.4285714285714,4,2,1,80,0,0
8350,-66.6666666666667,4,2,1,80,0,0
8517,-62.5,4,2,1,80,0,0
8683,-58.8235294117647,4,2,1,80,0,0
8850,-55.5555555555556,4,2,1,80,0,0
9017,-52.6315789473684,4,2,1,80,0,0
9183,-50,4,2,1,80,0,0
9350,-47.6190476190476,4,2,1,80,0,0
9517,-45.4545454545455,4,2,1,80,0,0
9683,-43.4782608695652,4,2,1,80,0,0
9850,-41.6666666666667,4,2,1,80,0,0
10017,-40,4,2,1,80,0,0
10183,-38.4615384615385,4,2,1,80,0,0
10350,-37.037037037037,4,2,1,80,0,0
10517,-35.7142857142857,4,2,1,80,0,0
10683,-34.4827586206897,4,2,1,80,0,0
10850,-32.258064516129,4,2,1,80,0,0
11017,-30.3030303030303,4,2,1,80,0,0
11183,-28.5714285714286,4,2,1,80,0,0
11350,-27.027027027027,4,2,1,80,0,0
11517,-25.6410256410256,4,2,1,80,0,0
11683,-23.8095238095238,4,2,1,80,0,0
11850,-22.2222222222222,4,2,1,80,0,0
12017,-20.4081632653061,4,2,1,80,0,0
12183,-18.1818181818182,4,2,1,80,0,0
12350,-16.6666666666667,4,2,1,80,0,0
12517,-15.1515151515152,4,2,1,80,0,0
12683,-13.8888888888889,4,2,1,80,0,0
13017,-33.3333333333333,4,2,1,80,0,0
13350,-50,4,2,1,80,0,0
13683,-33.3333333333333,4,2,1,80,0,0
14683,-62.5,4,2,1,80,0,0
16017,-50,4,2,1,80,0,0
16350,-33.3333333333333,4,2,1,80,0,0
17350,-62.5,4,2,1,80,0,0
18683,-50,4,2,1,80,0,0
19017,-33.3333333333333,4,2,1,80,0,0
20017,-62.5,4,2,1,80,0,0
21350,-50,4,2,1,80,0,0
21683,-33.3333333333333,4,2,1,80,0,0
22683,-62.5,4,2,1,80,0,0
24017,-57.1428571428571,4,2,1,80,0,0
26683,-50,4,2,1,80,0,0
27683,-38.4615384615385,4,2,1,80,0,0
28017,-50,4,2,1,80,0,0
28850,-40,4,2,1,80,0,0
29017,-40,4,2,1,80,0,0
29183,-66.6666666666667,4,2,1,80,0,0
29350,-62.5,4,2,1,80,0,0
29517,-55.5555555555556,4,2,1,80,0,0
29683,-50,4,2,1,80,0,0
29850,-45.4545454545455,4,2,1,80,0,0
30017,-36.3636363636364,4,2,1,80,0,0
30183,-33.3333333333333,4,2,1,80,0,0
30350,-27.7777777777778,4,2,1,80,0,0
30517,-23.8095238095238,4,2,1,80,0,0
30683,-21.2765957446809,4,2,1,80,0,0
30850,-18.5185185185185,4,2,1,80,0,0
31017,-16.6666666666667,4,2,1,80,0,0
31183,-13.8888888888889,4,2,1,80,0,0
31350,-12.5,4,2,1,80,0,0
31517,-11.4285714285714,4,2,1,80,0,0
31683,-10.5263157894737,4,2,1,80,0,0
31850,-10,4,2,1,80,0,0
32017,-30.03003003003,4,2,1,80,0,0
32350,-41.6666666666667,4,2,1,80,0,0
32767,-50,4,2,1,80,0,0
33350,-44.4444444444445,4,2,1,80,0,0
38433,-44.4444444444445,4,2,1,5,0,0

[Colours]
Combo1 : 217,13,44
Combo2 : 198,106,4
Combo3 : 0,96,213
Combo4 : 245,146,10
SliderBorder : 255,255,255

[HitObjects]
113,219,1343,6,0,L|202:208,1,90,8|0,0:0|0:0,0:0:0:0:
111,232,1676,6,0,L|220:218,1,99.0000030212403,8|0,0:0|0:0,0:0:0:0:
109,245,2009,6,0,L|218:231,1,107.999996704102,8|0,0:0|3:0,0:0:0:0:
107,258,2343,6,0,L|239:241,1,116.999994644165,8|0,0:2|0:0,0:0:0:0:
470,74,2684,6,0,L|451:173,1,90,0|0,3:0|1:0,0:0:0:0:
350,279,3017,1,8,0:2:0:0:
453,162,3183,2,0,L|416:351,1,180,0|0,3:0|1:0,0:0:0:0:
282,221,3683,1,8,0:2:0:0:
367,191,3850,1,0,3:0:0:0:
172,93,4017,6,0,L|191:192,1,99.0000030212403,0|0,3:0|1:0,0:0:0:0:
301,319,4350,1,8,0:2:0:0:
190,190,4516,2,0,L|233:418,1,198.000006042481,0|0,3:0|1:0,0:0:0:0:
376,254,5017,1,8,0:2:0:0:
282,221,5183,1,0,3:0:0:0:
368,49,5350,6,0,L|346:159,1,107.999996704102,0|0,3:0|1:0,0:0:0:0:
224,296,5683,1,8,0:2:0:0:
347,155,5850,2,0,L|302:386,1,215.999993408203,0|0,3:0|1:0,0:0:0:0:
143,226,6350,1,8,0:2:0:0:
245,191,6517,1,0,3:0:0:0:
70,30,6683,6,0,L|94:155,1,116.999994644165,0|0,3:0|1:0,0:0:0:0:
224,296,7017,1,8,0:2:0:0:
92,144,7183,2,0,L|142:405,1,233.999989288331,0|0,3:0|3:0,0:0:0:0:
312,219,7683,1,8,0:2:0:0:
201,181,7850,1,0,3:0:0:0:
303,3,8017,6,0,L|286:90,1,58.4999973220826,2|2,3:3|0:3,0:0:0:0:
207,34,8183,2,0,L|223:121,1,62.9999980773926,2|2,0:3|0:3,0:0:0:0:
314,84,8350,6,0,L|297:171,1,67.5000025749208,2|2,0:3|0:3,0:0:0:0:
196,115,8517,2,0,L|212:202,1,72,2|2,3:3|0:3,0:0:0:0:
323,173,8683,6,0,L|306:260,1,76.5000014591217,2|2,0:3|0:3,0:0:0:0:
187,204,8850,2,0,L|203:291,1,80.9999975280763,2|2,0:3|0:3,0:0:0:0:
330,270,9017,6,0,L|313:357,1,85.4999977169037,2|2,3:3|0:3,0:0:0:0:
180,301,9183,2,0,L|196:388,1,90,2|2,3:3|0:3,0:0:0:0:
355,342,9350,6,0,L|448:325,1,94.499997116089,2|2,3:3|0:3,0:0:0:0:
145,310,9517,2,0,L|42:290,1,99.0000030212403,2|2,0:3|0:3,0:0:0:0:
359,247,9683,6,0,L|465:226,1,103.500001974106,2|2,0:3|0:3,0:0:0:0:
141,214,9850,2,0,L|34:193,1,107.999996704102,2|2,3:3|0:3,0:0:0:0:
362,151,10017,6,0,L|492:125,1,112.5,2|2,0:3|0:3,0:0:0:0:
138,118,10184,2,0,L|7:92,1,116.999994644165,2|2,0:3|0:3,0:0:0:0:
365,55,10350,6,0,L|495:29,1,121.500000463486,2|2,3:3|0:3,0:0:0:0:
135,22,10517,2,0,L|4:-3,1,125.999996154785,2|2,3:3|0:3,0:0:0:0:
281,72,10683,6,0,P|288:135|256:191,1,130.500003982544,2|2,3:3|1:3,0:0:0:0:
230,320,10850,2,0,P|222:252|256:192,1,139.500001064301,2|2,0:3|0:3,0:0:0:0:
375,120,11017,6,0,P|327:175|256:192,1,148.500001416206,2|2,0:3|0:3,0:0:0:0:
129,265,11183,2,0,P|180:207|255:191,1,157.500001502037,2|2,3:3|0:3,0:0:0:0:
406,227,11350,6,0,P|324:235|256:192,1,166.499999364853,2|2,3:3|1:3,0:0:0:0:
99,156,11517,2,0,P|184:144|256:192,1,175.500000669479,2|2,0:3|0:3,0:0:0:0:
352,340,11683,6,0,P|279:281|256:191,1,188.999994232178,2|2,0:3|0:3,0:0:0:0:
153,33,11850,2,0,P|231:95|256:192,1,202.500007724762,2|2,3:3|0:3,0:0:0:0:
200,378,12017,6,0,P|185:272|255:192,1,220.500002102852,2|2,3:3|1:3,0:0:0:0:
328,1,12183,2,0,P|348:118|256:192,1,247.500002360344,2|2,0:3|0:3,0:0:0:0:
42,306,12350,6,0,P|125:204|256:192,1,270.000010299683,2|2,3:3|1:3,0:0:0:0:
495,82,12517,2,0,P|400:190|256:192,1,297.000002832413,2|2,0:3|0:3,0:0:0:0:
4,98,12683,6,0,P|156:73|256:192,1,323.999990112305,2|2,3:3|1:3,0:0:0:0:
507,285,12850,2,0,P|355:310|256:192,1,323.999990112305,2|2,0:3|0:3,0:0:0:0:
264,16,13017,2,0,P|257:31|255:47,14,33.7500012874604,2|0|2|0|2|0|2|0|2|0|2|0|2|0|0,3:3|0:0|1:3|0:0|1:3|0:0|1:3|0:0|1:3|0:0|1:3|0:0|1:3|0:0|0:0,0:0:0:0:
265,16,13350,6,0,L|169:31,1,90,0|0,3:0|1:0,0:0:0:0:
129,114,13517,2,0,L|33:99,1,90,0|0,1:0|1:0,0:0:0:0:
83,345,13683,6,0,B|62:231|62:231|100:198|151:211|154:290|85:275,1,270.000010299683,10|0,0:2|3:0,0:0:0:0:
334,273,14183,6,0,B|313:159|313:159|351:126|402:139|405:218|336:203,1,270.000010299683,2|8,1:2|0:2,0:0:0:0:
416,265,14517,2,0,P|460:214|465:148,1,135.000005149842,2|0,3:2|1:0,0:0:0:0:
434,16,14683,6,0,L|413:111,1,72,2|0,0:1|1:0,0:0:0:0:
234,155,14850,1,2,0:3:0:0:
234,155,14933,1,2,0:3:0:0:
234,155,15017,2,0,L|250:85,1,72,2|0,0:3|1:0,0:0:0:0:
40,113,15183,5,2,0:1:0:0:
40,113,15267,2,0,P|67:95|122:99,1,72,0|2,1:0|0:3,0:0:0:0:
157,190,15433,1,2,0:3:0:0:
157,190,15517,2,0,P|126:170|91:169,1,72,2|0,0:3|1:0,0:0:0:0:
88,312,15683,2,0,P|86:276|103:245,1,72,2|2,0:1|0:1,0:0:0:0:
180,360,15850,2,0,P|181:324|164:293,1,72,2|2,0:1|0:1,0:0:0:0:
295,220,16017,6,0,L|411:246,1,90,0|0,3:0|1:0,0:0:0:0:
416,323,16183,2,0,L|532:297,1,90,0|0,1:0|1:0,0:0:0:0:
437,166,16350,6,0,B|416:52|416:52|454:19|505:32|508:111|439:96,1,270.000010299683,10|0,0:2|3:0,0:0:0:0:
252,364,16850,6,0,B|231:250|231:250|269:217|320:230|323:309|254:294,2,270.000010299683,2|8|2,1:2|0:2|3:2,0:0:0:0:
47,122,17350,5,2,0:1:0:0:
112,96,17433,1,0,3:0:0:0:
143,33,17516,1,0,3:0:0:0:
184,88,17600,1,0,3:0:0:0:
252,101,17683,2,0,P|326:78|344:52,1,72,2|0,0:3|1:0,0:0:0:0:
420,33,17850,2,0,P|402:108|416:137,1,72,2|2,0:1|0:1,0:0:0:0:
394,212,18017,1,0,1:0:0:0:
394,212,18100,1,0,1:0:0:0:
394,212,18183,2,0,P|337:159|305:156,1,72,2|0,0:1|1:0,0:0:0:0:
248,245,18350,1,0,3:0:0:0:
248,245,18433,2,0,L|320:237,1,72,0|2,3:0|0:1,0:0:0:0:
0,383,18683,6,0,L|96:372,1,90,0|0,3:0|1:0,0:0:0:0:
82,282,18850,2,0,L|178:292,1,90,0|0,1:0|1:0,0:0:0:0:
14,195,19017,6,0,B|29:80|29:80|75:60|120:88|98:164|37:129,1,270.000010299683,10|0,0:2|3:0,0:0:0:0:
259,267,19517,6,0,B|278:152|278:152|325:134|368:164|344:239|284:201,1,270.000010299683,2|8,1:2|0:2,0:0:0:0:
338,287,19851,2,0,P|396:254|424:193,1,135.000005149842,2|0,3:2|1:0,0:0:0:0:
475,107,20017,6,0,L|384:116,1,72,2|2,0:1|0:1,0:0:0:0:
347,37,20183,1,2,3:2:0:0:
347,37,20267,2,0,L|256:46,1,72,2|2,3:2|3:2,0:0:0:0:
241,130,20433,1,2,3:2:0:0:
241,130,20517,2,0,L|150:139,1,72,2|2,0:1|0:1,0:0:0:0:
7,153,20683,6,0,L|98:144,1,72,2|2,3:2|3:2,0:0:0:0:
135,223,20850,2,0,L|226:214,1,72,2|0,3:2|0:0,0:0:0:0:
241,130,21017,2,0,L|332:121,1,72,2|2,0:1|0:1,0:0:0:0:
369,200,21183,2,0,L|460:191,1,72,2|0,3:2|0:0,0:0:0:0:
420,18,21350,6,0,L|411:109,1,90,0|0,3:0|1:0,0:0:0:0:
478,280,21517,2,0,L|469:371,1,90,0|0,1:0|1:0,0:0:0:0:
256,381,21683,6,0,B|271:266|271:266|317:246|362:274|340:350|279:315,1,270.000010299683,10|0,0:2|3:0,0:0:0:0:
7,145,22183,6,0,B|26:30|26:30|73:12|116:42|92:117|32:79,1,270.000010299683,2|8,1:2|0:2,0:0:0:0:
86,165,22517,2,0,P|144:132|172:71,1,135.000005149842,2|0,3:2|1:0,0:0:0:0:
256,36,22683,6,0,P|292:30|346:48,1,72,2|2,0:1|1:3,0:0:0:0:
451,60,22850,2,0,P|417:72|390:96,1,72,2|2,0:3|1:3,0:0:0:0:
293,128,23017,2,0,P|315:155|327:189,1,72,2|0,0:3|0:0,0:0:0:0:
360,266,23183,2,0,P|353:301|361:336,1,72,2|2,0:1|1:3,0:0:0:0:
150,336,23350,6,0,P|158:301|152:266,1,72,2|2,0:3|1:3,0:0:0:0:
184,189,23516,2,0,P|196:155|219:128,1,72,2|0,0:3|0:0,0:0:0:0:
61,60,23683,2,0,P|94:72|121:96,1,72,2|2,0:1|0:1,0:0:0:0:
255,35,23850,2,0,P|220:29|185:37,1,72,2|2,0:1|0:3,0:0:0:0:
7,349,24017,6,0,B|23:206|23:206|88:184|119:231|119:281|69:299|25:289,1,315.000003004074,0|8,3:0|0:2,0:0:0:0:
146,55,24517,6,0,B|184:271|184:271|279:254,1,315.000003004074,0|0,3:0|1:0,0:0:0:0:
250,37,25017,2,0,B|172:51,1,78.7500007510185,8|0,0:2|1:0,0:0:0:0:
243,149,25183,2,0,B|165:163,1,78.7500007510185,0|0,3:0|1:0,0:0:0:0:
355,146,25350,6,0,B|371:3|371:3|436:-19|467:28|467:78|417:96|373:86,1,315.000003004074,0|8,3:0|0:2,0:0:0:0:
311,229,25850,6,0,B|278:180|226:198|206:251|254:283|254:283|304:316|284:363|232:394|180:311,1,315.000003004074,0|0,3:0|1:0,0:0:0:0:
420,302,26350,6,0,L|405:394,1,78.7500007510185,8|0,0:2|1:0,0:0:0:0:
433,216,26517,1,0,3:0:0:0:
182,47,26683,6,0,L|213:224,2,180,0|0|8,3:0|1:0|0:2,0:0:0:0:
0,78,27183,2,0,L|31:255,2,180,0|0|0,3:0|1:0|1:0,0:0:0:0:
0,78,27683,2,0,L|129:146,1,116.999994644165,8|0,0:2|1:0,0:0:0:0:
102,133,27850,2,0,L|180:46,1,116.999994644165,0|0,3:0|1:0,0:0:0:0:
206,221,28017,6,0,B|279:12|279:12|358:215|358:215|317:167|260:140,1,540,0|0,3:0|3:0,0:0:0:0:
291,383,28850,6,0,L|284:270,1,112.5,0|0,3:0|1:0,0:0:0:0:
416,267,29017,2,0,L|422:379,1,112.5,8|0,0:2|1:0,0:0:0:0:
374,350,29183,2,0,L|323:304,1,67.5000025749208,0|0,3:0|1:0,0:0:0:0:
274,122,29350,6,0,L|256:192,1,72,0|0,3:0|1:0,0:0:0:0:
198,249,29517,6,0,L|256:192,1,80.9999975280763,0|0,1:0|1:0,0:0:0:0:
342,167,29683,6,0,L|256:192,1,90,8|0,0:2|1:0,0:0:0:0:
160,166,29850,6,0,L|256:192,1,99.0000030212403,0|0,3:0|1:0,0:0:0:0:
340,279,30017,6,0,P|306:227|256:192,1,123.750001180172,0|0,1:0|1:0,0:0:0:0:
258,70,30183,6,0,P|233:131|257:193,1,135.000005149842,0|0,1:0|1:0,0:0:0:0:
186,312,30350,6,0,B|207:319|272:292|258:234|256:189,1,161.999995056153,8|0,0:2|1:0,0:0:0:0:
379,195,30517,6,0,B|405:166|337:99|294:105|192:298,1,188.999994232178,0|0,3:0|1:0,0:0:0:0:
181,84,30683,6,0,B|161:66|118:111|120:146|171:197|268:207|266:184,1,211.499996772766,0|0,3:0|1:0,0:0:0:0:
278,302,30850,6,0,B|297:348|351:340|380:299|361:252|202:158,1,243.000000926971,0|0,1:0|1:0,0:0:0:0:
284,79,31017,6,0,B|310:26|253:-3|194:23|187:73|278:234,1,270.000010299683,8|0,0:2|1:0,0:0:0:0:
181,284,31183,6,0,B|148:285|110:341|169:386|219:391|284:356|252:166,1,323.999990112305,0|0,3:0|1:0,0:0:0:0:
369,175,31350,6,0,B|333:195|386:237|459:219|467:164|430:87|389:71|310:79|227:242,1,360,0|0,3:0|1:0,0:0:0:0:
150,134,31517,6,0,B|173:170|204:148|210:114|192:56|95:52|49:104|56:189|83:224|168:255|228:217|308:156,1,393.749990612269,0|0,1:0|1:0,0:0:0:0:
288,300,31683,6,0,B|318:274|286:253|248:256|226:283|201:351|262:426|369:417|431:320|422:240|335:170|261:185|161:197,1,427.500004076958,8|0,0:2|1:0,0:0:0:0:
269,95,31850,6,0,B|229:92|237:129|266:153|301:150|366:120|376:24|295:-56|182:-20|131:42|105:144|197:202|272:236|336:153,1,450,0|0,3:0|1:0,0:0:0:0:
434,228,32017,6,0,B|459:258|480:226|477:188|450:166|383:141|307:202|308:316|414:371|494:362|584:309|560:203|531:126|429:134,1,450,0|0,3:0|1:0,0:0:0:0:
435,72,32350,6,0,B|408:86|390:64|391:32|418:10|472:3|502:37|507:100|472:127|391:127,1,215.999993408203,8|0,0:2|1:0,0:0:0:0:
341,102,32600,6,0,B|324:103|296:117|312:181|359:163|377:125|330:121,1,107.999996704102,0|0,3:0|1:0,0:0:0:0:
227,59,32767,6,0,B|193:54|204:30|221:10|256:15|286:45|280:86|230:103|185:81,1,180,0|0,3:0|1:0,0:0:0:0:
104,141,33017,6,0,B|70:145|81:170|98:190|133:185|163:155|157:114|107:97|62:119,1,180,8|0,0:0|3:0,0:0:0:0:
170,250,33350,6,0,B|126:267|83:246|71:159|118:125|182:118|262:138|301:162|335:260|299:355|253:361|209:364|147:379|115:407|29:379|-41:380|-107:247|-166:115|-64:-86|118:-110|280:-172|529:2|570:232|472:409,1,1620,0|4,3:0|1:0,0:0:0:0:
