osu file format v14

[General]
AudioFilename: audio.mp3
AudioLeadIn: 0
PreviewTime: 0
Countdown: 0
SampleSet: Soft
StackLeniency: 0.7
Mode: 0
LetterboxInBreaks: 0
WidescreenStoryboard: 0

[Editor]
Bookmarks: 13330,23997,29997
DistanceSpacing: 1
BeatDivisor: 2
GridSize: 4
TimelineZoom: 2

[Metadata]
Title:PEPSI * MAN
TitleUnicode:PEPSI ☆ MAN
Artist:NOMA
ArtistUnicode:ノマ
Creator:Seto Kousuke
Version:MISMAGIUS THE PEPSI GHOST
Source:ペプシマン
Tags:NOFFY MONSTRATA TRYNNA TESTO BLUE DRAGON MISMAGIUS ALEXSANDER BOSSANDY PEPSIMAN MOWTENDOO THE COMPLETIONIST
BeatmapID:1838664
BeatmapSetID:879193

[Difficulty]
HPDrainRate:4
CircleSize:4
OverallDifficulty:9
ApproachRate:9.4
SliderMultiplier:2.3
SliderTickRate:1

[Events]
//Background and Video events
Video,0,"pepsi man.avi"
0,0,"coca cola man.jpg",0,0
//Break Periods
//Storyboard Layer 0 (Background)
//Storyboard Layer 1 (Fail)
//Storyboard Layer 2 (Pass)
//Storyboard Layer 3 (Foreground)
//Storyboard Sound Samples

[TimingPoints]
10,333.333333333333,4,2,1,60,1,0
1343,-66.6666666666667,4,2,2,60,0,0
2176,-66.6666666666667,4,2,1,60,0,0
2684,333.333333333333,4,2,1,80,1,0
2684,-66.6666666666667,4,2,1,80,0,0
9350,-50,4,2,1,80,0,0
10683,-40,4,2,1,80,0,0
13350,-43.4782608695652,4,2,1,80,0,0
14683,-50,4,2,1,80,0,0
16017,-43.4782608695652,4,2,1,80,0,0
17350,-50,4,2,1,80,0,0
18683,-43.4782608695652,4,2,1,80,0,0
19183,-50,4,2,1,80,0,0
19517,-43.4782608695652,4,2,1,80,0,0
20017,-100,4,2,1,80,0,0
20683,-52.6315789473684,4,2,1,80,0,0
21350,-43.4782608695652,4,2,1,80,0,0
21850,-50,4,2,1,80,0,0
22183,-43.4782608695652,4,2,1,80,0,0
23183,-58.8235294117647,4,2,1,80,0,0
24017,-68.0272108843537,4,2,1,80,0,0
30183,-59.8802395209581,4,2,1,80,0,0
30350,-53.475935828877,4,2,1,80,0,0
30517,-48.3091787439614,4,2,1,80,0,0
30683,-44.0528634361233,4,2,1,80,0,0
30850,-40.4858299595142,4,2,1,80,0,0
31683,-100,4,2,1,80,0,0
32017,-66.6666666666667,4,2,1,80,0,0
33350,-41.6666666666667,4,2,1,80,0,0
33433,-41.6666666666667,4,2,1,5,0,0
33517,-41.6666666666667,4,2,1,80,0,0
33600,-41.6666666666667,4,2,1,5,0,0
33683,-41.6666666666667,4,2,1,80,0,0
33767,-41.6666666666667,4,2,1,5,0,0
33850,-41.6666666666667,4,2,1,80,0,0
33933,-41.6666666666667,4,2,1,5,0,0
34017,-41.6666666666667,4,2,1,80,0,0
34100,-41.6666666666667,4,2,1,5,0,0
34183,-41.6666666666667,4,2,1,80,0,0
34267,-41.6666666666667,4,2,1,5,0,0
34350,-41.6666666666667,4,2,1,80,0,0
34433,-41.6666666666667,4,2,1,5,0,0
34517,-41.6666666666667,4,2,1,80,0,0
34600,-41.6666666666667,4,2,1,5,0,0
34683,-83.3333333333333,4,2,1,80,0,0
37350,-399.999999999997,4,2,1,80,0,0

[Colours]
Combo1 : 217,13,44
Combo2 : 198,106,4
Combo3 : 0,96,213
Combo4 : 245,146,10
SliderBorder : 255,255,255

[HitObjects]
0,115,1343,6,0,B|51:137|97:97|97:97|126:152|126:152|162:117|213:133,1,258.75000987053,8|0,0:0|0:0,0:0:0:0:
300,132,1676,2,0,B|349:117|385:152|385:152|414:97|414:97|460:137|512:115,1,258.75000987053,8|0,0:0|0:0,0:0:0:0:
477,36,2009,2,0,P|435:8|391:8,1,86.2500032901765,8|0,0:0|0:0,0:0:0:0:
327,210,2176,2,0,P|368:237|412:237,1,86.2500032901765,0|0,3:0|0:0,0:0:0:0:
246,1,2343,5,8,0:2:0:0:
246,1,2684,6,0,P|277:75|179:226,1,258.75000987053,0|0,3:0|1:0,0:0:0:0:
69,135,3017,2,0,L|158:135,1,86.2500032901765,8|0,0:2|1:0,0:0:0:0:
229,307,3183,2,0,B|270:341|351:341|320:257|452:257|433:320|433:320|422:340|399:338|363:325|353:284|371:231|407:192,1,431.250016450883,0|0,3:0|1:0,0:0:0:0:
490,130,3683,6,0,B|513:174|513:174|507:225,1,86.2500032901765,8|0,0:2|1:0,0:0:0:0:
314,96,3850,2,0,B|291:52|291:52|297:1,1,86.2500032901765,0|0,3:0|1:0,0:0:0:0:
400,201,4017,6,0,B|167:187|167:187|197:167,1,258.75000987053,0|0,3:0|1:0,0:0:0:0:
277,287,4350,2,0,B|271:374,1,86.2500032901765,8|0,0:2|1:0,0:0:0:0:
83,242,4517,2,0,B|89:121|89:121|91:84|132:66|171:88|169:125|169:125|159:332,1,431.250016450883,0|0,3:0|1:0,0:0:0:0:
34,317,5017,6,0,P|7:295|-2:237,1,86.2500032901765,8|0,0:2|1:0,0:0:0:0:
53,40,5183,2,0,P|80:62|89:120,1,86.2500032901765,0|0,3:0|1:0,0:0:0:0:
160,308,5350,6,0,B|249:292|249:292|283:305|283:305|313:280|313:280|410:263,1,258.75000987053,0|0,3:0|1:0,0:0:0:0:
501,369,5683,2,0,L|411:384,1,86.2500032901765,8|0,0:2|1:0,0:0:0:0:
267,222,5850,2,0,B|221:193|201:93|273:123|273:31|229:2|229:2|230:56|202:98|159:106|159:106|86:92,1,431.250016450883,0|0,3:0|1:0,0:0:0:0:
0,0,6350,6,0,L|16:104,1,86.2500032901765,8|0,0:2|1:0,0:0:0:0:
79,258,6517,2,0,L|95:154,1,86.2500032901765,0|0,3:0|1:0,0:0:0:0:
261,98,6683,6,0,B|445:73|445:73|414:51|414:51|363:58,1,258.75000987053,0|0,3:0|1:0,0:0:0:0:
309,175,7017,2,0,L|401:162,1,86.2500032901765,8|0,0:2|1:0,0:0:0:0:
275,12,7183,2,0,B|91:37|91:37|122:59|122:59|177:53|177:53,1,258.75000987053,0|0,3:0|1:0,0:0:0:0:
261,98,7517,1,0,3:0:0:0:
0,18,7683,1,8,0:2:0:0:
129,159,7850,1,0,3:0:0:0:
401,2,8017,6,0,L|427:87,1,86.2500032901765,2|2,3:3|0:3,0:0:0:0:
286,180,8183,2,0,L|260:97,1,86.2500032901765,2|2,0:3|0:3,0:0:0:0:
407,23,8350,2,0,L|433:108,1,86.2500032901765,2|2,0:3|0:3,0:0:0:0:
292,201,8516,2,0,L|266:118,1,86.2500032901765,2|2,3:3|0:3,0:0:0:0:
413,44,8683,2,0,L|439:129,1,86.2500032901765,2|2,0:3|0:3,0:0:0:0:
298,222,8849,2,0,L|272:139,1,86.2500032901765,2|2,0:3|0:3,0:0:0:0:
419,65,9017,2,0,L|445:150,1,86.2500032901765,2|2,3:3|0:3,0:0:0:0:
304,243,9183,2,0,L|278:160,1,86.2500032901765,2|2,3:3|0:3,0:0:0:0:
425,86,9350,6,0,B|474:118|474:118|451:171,1,115,2|2,3:3|0:3,0:0:0:0:
310,264,9517,2,0,B|261:232|261:232|284:179,1,115,2|2,0:3|0:3,0:0:0:0:
431,107,9683,2,0,B|480:139|480:139|457:192,1,115,2|2,0:3|0:3,0:0:0:0:
316,285,9850,2,0,B|267:253|267:253|290:200,1,115,2|2,3:3|0:3,0:0:0:0:
437,128,10017,2,0,B|486:160|486:160|463:213,1,115,2|2,0:3|0:3,0:0:0:0:
322,306,10184,2,0,B|273:274|273:274|296:221,1,115,2|2,0:3|0:3,0:0:0:0:
443,149,10350,2,0,B|492:181|492:181|469:234,1,115,2|2,3:3|0:3,0:0:0:0:
328,327,10517,2,0,B|279:295|279:295|302:242,1,115,2|2,3:3|0:3,0:0:0:0:
421,335,10683,6,0,L|491:341,2,71.875,2|2|2,3:3|1:3|1:3,0:0:0:0:
334,333,10850,1,2,0:3:0:0:
334,333,10933,1,2,0:3:0:0:
334,333,11017,2,0,L|190:320,1,143.75,2|2,0:3|0:3,0:0:0:0:
158,230,11183,2,0,L|301:242,1,143.75,2|2,3:3|0:3,0:0:0:0:
397,253,11350,6,0,L|467:259,2,71.875,2|2|2,3:3|1:3|1:3,0:0:0:0:
310,251,11517,1,2,0:3:0:0:
310,251,11600,1,2,0:3:0:0:
310,251,11684,2,0,L|166:238,1,143.75,2|2,0:3|0:3,0:0:0:0:
140,154,11850,2,0,L|283:166,1,143.75,2|2,3:3|0:3,0:0:0:0:
379,177,12017,6,0,L|449:183,2,71.875,2|2|2,3:3|1:3|1:3,0:0:0:0:
340,88,12183,1,2,0:3:0:0:
340,88,12267,1,2,0:3:0:0:
340,88,12350,2,0,L|269:81,2,71.875,2|2|2,3:3|1:3|1:3,0:0:0:0:
397,10,12517,1,2,0:3:0:0:
397,10,12600,1,2,0:3:0:0:
397,10,12683,2,0,B|471:16|471:16|465:86|465:86,1,143.75,2|2,3:3|1:3,0:0:0:0:
343,91,12850,2,0,B|268:84|268:84|274:14|274:14,1,143.75,2|2,0:3|0:3,0:0:0:0:
379,177,13017,6,0,L|454:183,1,71.875,2|2,3:3|1:3,0:0:0:0:
376,195,13100,2,0,L|451:201,1,71.875,2|2,1:3|1:3,0:0:0:0:
373,213,13183,2,0,L|448:219,1,71.875,2|2,1:3|1:3,0:0:0:0:
370,231,13267,2,0,L|445:237,1,71.875,2|0,1:3|0:0,0:0:0:0:
367,249,13350,6,0,L|209:235,1,132.250002522469,0|0,3:0|0:0,0:0:0:0:
174,341,13517,2,0,L|331:354,1,132.250002522469,0|0,1:0|0:0,0:0:0:0:
98,335,13683,5,10,0:2:0:0:
380,356,13850,1,0,3:0:0:0:
98,335,14183,5,2,1:2:0:0:
380,356,14350,1,8,0:2:0:0:
98,335,14517,1,2,3:2:0:0:
380,356,14683,6,0,L|223:343,1,115,2|0,0:1|1:0,0:0:0:0:
386,249,14850,2,0,L|229:236,1,115,2|2,0:3|0:3,0:0:0:0:
392,142,15017,2,0,B|236:129|236:129|190:194,1,230,2|2,0:3|0:1,0:0:0:0:
198,39,15267,2,0,B|156:99|156:99|0:86,1,230,0|2,1:0|0:3,0:0:0:0:
78,179,15517,2,0,L|235:192,1,115,2|0,0:3|1:0,0:0:0:0:
72,286,15684,2,0,L|229:299,1,115,2|2,0:1|0:1,0:0:0:0:
81,182,15850,2,0,L|238:195,1,115,2|2,0:1|0:1,0:0:0:0:
363,203,16017,6,0,P|398:154|379:78,1,132.250002522469,0|0,3:0|1:0,0:0:0:0:
167,0,16183,2,0,P|132:49|151:125,1,132.250002522469,0|0,1:0|1:0,0:0:0:0:
283,338,16350,5,10,0:2:0:0:
0,376,16517,1,0,3:0:0:0:
283,338,16850,5,2,1:2:0:0:
0,376,17017,1,8,0:2:0:0:
283,338,17183,1,2,3:2:0:0:
48,166,17350,5,2,0:1:0:0:
33,87,17433,1,0,3:0:0:0:
112,72,17517,1,0,3:0:0:0:
127,151,17600,1,0,3:0:0:0:
48,166,17683,2,0,L|24:293,1,115,2|0,0:3|1:0,0:0:0:0:
33,87,17850,1,2,0:1:0:0:
112,72,17934,1,2,0:1:0:0:
127,151,18017,2,0,L|103:278,1,115,0|0,1:0|1:0,0:0:0:0:
89,342,18183,1,2,0:1:0:0:
449,215,18350,6,0,L|322:191,1,115,0|0,3:0|3:0,0:0:0:0:
127,151,18517,1,2,0:1:0:0:
357,301,18683,6,0,L|305:39,1,264.500005044937,0|0,3:0|1:0,0:0:0:0:
166,185,19017,1,10,0:2:0:0:
484,184,19183,6,0,B|419:131|304:131|344:236|229:236|164:184,1,345,0|0,3:0|1:0,0:0:0:0:
22,118,19517,6,0,B|40:250,1,132.250002522469,2|0,1:2|1:0,0:0:0:0:
57,384,19683,1,8,0:2:0:0:
371,321,19850,6,0,B|353:189,1,132.250002522469,2|0,3:2|1:0,0:0:0:0:
336,55,20017,6,0,B|345:124,1,57.5,2|2,0:1|0:1,0:0:0:0:
492,241,20183,2,0,B|482:171,1,57.5,2|2,3:2|3:2,0:0:0:0:
240,143,20350,2,0,B|249:212,2,57.5,2|2|2,3:2|3:2|0:1,0:0:0:0:
229,57,20600,1,2,0:1:0:0:
229,57,20683,6,0,B|116:73,1,109.24999708271,2|2,3:2|3:2,0:0:0:0:
29,171,20850,2,0,B|137:155,1,109.24999708271,2|0,3:2|0:0,0:0:0:0:
242,41,21017,2,0,B|129:57,1,109.24999708271,2|2,0:1|0:1,0:0:0:0:
16,187,21183,2,0,B|128:170,1,109.24999708271,2|0,3:2|0:0,0:0:0:0:
340,85,21350,6,0,L|288:347,1,264.500005044937,0|0,3:0|1:0,0:0:0:0:
473,155,21683,1,10,0:2:0:0:
190,241,21850,6,0,B|109:269|35:214|22:133|69:69|69:69|64:107|91:135,1,345,0|0,3:0|1:0,0:0:0:0:
190,241,22183,6,0,L|322:213,1,132.250002522469,2|0,1:2|1:0,0:0:0:0:
456,182,22350,1,8,0:2:0:0:
267,15,22517,6,0,L|135:43,1,132.250002522469,2|0,3:2|1:0,0:0:0:0:
1,74,22683,6,0,B|26:133|26:133|1:160|1:200|25:193|26:233|3:262|3:262|21:321,2,264.500005044937,2|2|2,0:1|0:3|0:3,0:0:0:0:
68,11,23100,1,0,0:0:0:0:
68,11,23183,6,0,P|109:-4|164:2,1,97.7500018644333,2|2,0:1|1:3,0:0:0:0:
175,229,23350,2,0,P|140:200|118:149,1,97.7500018644333,2|2,0:3|1:3,0:0:0:0:
310,27,23517,2,0,P|302:70|269:115,1,97.7500018644333,2|0,0:3|0:0,0:0:0:0:
68,11,23683,5,2,0:1:0:0:
65,20,23767,1,2,0:1:0:0:
62,29,23850,1,2,0:1:0:0:
59,38,23933,1,2,0:3:0:0:
57,47,24017,6,0,L|341:24,1,253.574988198796,0|0,3:0|1:0,0:0:0:0:
437,18,24350,2,0,L|415:114,1,84.5249960662653,8|0,0:2|1:0,0:0:0:0:
384,223,24517,2,0,B|99:246|99:246|122:172|122:172|197:166,1,422.624980331326,0|0,3:0|1:0,0:0:0:0:
228,312,25017,6,0,L|133:319,1,84.5249960662653,8|0,0:2|1:0,0:0:0:0:
345,303,25183,2,0,L|439:295,1,84.5249960662653,0|0,3:0|1:0,0:0:0:0:
181,167,25350,6,0,P|129:115|238:133,1,253.574988198796,0|0,3:0|1:0,0:0:0:0:
224,240,25683,2,0,P|168:251|134:241,1,84.5249960662653,8|0,0:2|1:0,0:0:0:0:
241,100,25850,2,0,B|284:67|385:84|331:141|417:174|460:143|460:143|409:124|380:83|387:40|387:40|403:58|433:75,1,422.624980331326,0|0,3:0|1:0,0:0:0:0:
512,199,26350,6,0,L|501:297,1,84.5249960662653,8|0,0:2|1:0,0:0:0:0:
295,362,26517,2,0,L|306:264,1,84.5249960662653,0|0,3:0|1:0,0:0:0:0:
512,199,26683,6,0,B|316:177|316:177|325:107,1,253.574988198796,0|0,3:0|1:0,0:0:0:0:
304,278,27017,2,0,L|295:362,1,84.5249960662653,8|0,0:2|1:0,0:0:0:0:
207,267,27183,2,0,B|11:244|11:244|3:334|3:334|143:349,1,422.624980331326,0|0,3:0|1:0,0:0:0:0:
154,179,27683,2,0,L|163:95,1,84.5249960662653,8|0,0:2|1:0,0:0:0:0:
304,278,27850,2,0,L|294:361,1,84.5249960662653,0|0,3:0|1:0,0:0:0:0:
154,179,28017,6,0,B|48:165|48:165|12:160|-1:118|23:81|61:86|61:86|138:95,1,253.574988198796,0|0,3:0|1:0,0:0:0:0:
261,117,28350,2,0,L|345:126,1,84.5249960662653,8|0,0:2|1:0,0:0:0:0:
154,179,28517,2,0,B|48:164|48:164|12:159|-11:196|2:238|40:243|40:243|116:255,1,253.574988198796,0|0,3:0|1:0,0:0:0:0:
240,274,28850,2,0,L|324:283,1,84.5249960662653,0|0,3:0|1:0,0:0:0:0:
345,126,29017,2,0,L|261:117,1,84.5249960662653,8|0,0:2|1:0,0:0:0:0:
423,295,29183,2,0,L|507:304,1,84.5249960662653,0|0,3:0|1:0,0:0:0:0:
345,126,29350,6,0,B|296:86|211:86|241:164|156:164|108:126,1,253.574988198796,0|0,3:0|1:0,0:0:0:0:
139,235,29683,2,0,L|122:332,1,84.5249960662653,8|0,0:2|1:0,0:0:0:0:
170,55,29850,2,0,P|261:19|408:62,1,253.574988198796,0|0,3:0|1:0,0:0:0:0:
470,142,30183,6,0,P|479:217|470:247,1,96.0249969962884,0|0,1:0|1:0,0:0:0:0:
438,317,30350,2,0,P|377:362|346:369,1,107.524997867088,8|0,0:2|0:0,0:0:0:0:
259,384,30517,2,0,P|182:351|158:326,1,119.025003314524,0|0,3:0|1:0,0:0:0:0:
113,234,30683,6,0,L|127:95,1,130.524998107929,0|0,3:0|0:0,0:0:0:0:
251,59,30850,2,0,L|236:207,1,142.025005472002,0|0,0:0|1:0,0:0:0:0:
290,304,31017,6,0,L|542:329,2,213.037508208003,8|0|0,0:2|0:0|1:0,0:0:0:0:
95,282,31350,2,0,L|123:-3,1,284.050010944004,0|0,1:0|0:0,0:0:0:0:
251,59,31600,1,0,1:0:0:0:
251,59,31683,6,0,L|387:47,1,115,8|0,0:2|3:0,0:0:0:0:
451,39,31933,1,0,1:0:0:0:
409,128,32017,6,0,B|223:143|223:143|253:166|253:166|305:162,1,258.75000987053,0|0,3:0|0:0,0:0:0:0:
365,48,32350,2,0,L|272:56,1,86.2500032901765,8|0,0:0|0:0,0:0:0:0:
402,221,32517,2,0,L|494:212,1,86.2500032901765,0|0,3:0|0:0,0:0:0:0:
352,23,32683,6,0,L|162:41,1,172.500006580353,0|0,3:0|0:0,0:0:0:0:
50,54,32933,1,0,1:0:0:0:
50,54,33017,6,0,L|59:148,1,86.2500032901765,8|0,0:0|0:0,0:0:0:0:
194,177,33183,2,0,L|203:271,1,86.2500032901765,0|0,3:0|0:0,0:0:0:0:
336,298,33350,6,0,B|343:371|343:371|402:325,1,137.999995788574,0|4,3:0|3:1,0:0:0:0:
61,229,33683,6,0,B|53:302|53:302|-5:256,1,137.999995788574,8|0,3:2|0:0,0:0:0:0:
407,111,34017,6,0,B|414:184|414:184|473:138,1,137.999995788574,0|0,3:0|0:0,0:0:0:0:
132,42,34350,6,0,B|124:115|124:115|65:69,1,137.999995788574,8|0,3:2|0:0,0:0:0:0:
256,378,34683,5,4,0:1:0:0:
256,192,34767,12,8,37350,0:1:0:0:
