osu file format v14

[General]
AudioFilename: audio.mp3
AudioLeadIn: 0
PreviewTime: -1
Countdown: 1
SampleSet: None
StackLeniency: 0.7
Mode: 0
LetterboxInBreaks: 0
WidescreenStoryboard: 1

[Editor]
Bookmarks: 7350
DistanceSpacing: 0.3
BeatDivisor: 4
GridSize: 8
TimelineZoom: 1.3

[Metadata]
Title:PEPSI * MAN
TitleUnicode:PEPSI * MAN
Artist:NOMA
ArtistUnicode:NOMA
Creator:MemeMeme_YT
Version:PEPSI INSANE
Source:
Tags:pepsi man cola
BeatmapID:1890547
BeatmapSetID:905876

[Difficulty]
HPDrainRate:5
CircleSize:4
OverallDifficulty:2
ApproachRate:9
SliderMultiplier:2.2
SliderTickRate:1

[Events]
//Background and Video events
0,0,"IRN BRU man is better.jpg",0,0
//Break Periods
//Storyboard Layer 0 (Background)
//Storyboard Layer 1 (Fail)
//Storyboard Layer 2 (Pass)
//Storyboard Layer 3 (Foreground)
//Storyboard Sound Samples

[TimingPoints]
10,333.333333333333,4,2,1,80,1,0
2684,333.333333333333,4,2,1,80,1,1
13350,-66.6666666666667,4,2,1,80,0,1
14683,-100,4,2,1,80,0,1
16100,-66.6666666666667,4,2,1,80,0,1
17850,-100,4,2,1,80,0,1
18767,-66.6666666666667,4,2,1,80,0,1
20100,-100,4,2,1,80,0,1
21350,-66.6666666666667,4,2,1,80,0,1
24017,-100,4,2,1,80,0,0
30017,-100,4,2,1,80,0,0
30100,-66.6666666666667,4,2,1,80,0,0
30183,-100,4,2,1,80,0,0
30267,-133.333333333333,4,2,1,80,0,0
30350,-66.6666666666667,4,2,1,80,0,0

[HitObjects]
96,78,2684,5,0,0:0:0:0:
134,80,2767,1,0,0:0:0:0:
172,83,2850,1,0,0:0:0:0:
212,148,3017,1,0,0:0:0:0:
211,224,3183,1,0,0:0:0:0:
284,201,3350,5,0,0:0:0:0:
287,162,3433,1,0,0:0:0:0:
290,123,3517,1,0,0:0:0:0:
364,139,3683,5,0,0:0:0:0:
368,216,3850,1,0,0:0:0:0:
321,277,4017,5,0,0:0:0:0:
282,277,4100,1,0,0:0:0:0:
243,277,4183,1,0,0:0:0:0:
192,219,4350,5,0,0:0:0:0:
173,144,4517,1,0,0:0:0:0:
213,78,4683,5,0,0:0:0:0:
288,91,4850,1,0,0:0:0:0:
222,132,5017,1,0,0:0:0:0:
294,156,5183,1,0,0:0:0:0:
321,227,5350,5,0,0:0:0:0:
321,227,5433,1,0,0:0:0:0:
321,227,5517,1,0,0:0:0:0:
252,261,5683,1,0,0:0:0:0:
179,234,5850,1,0,0:0:0:0:
164,158,6017,5,0,0:0:0:0:
164,158,6100,1,0,0:0:0:0:
164,158,6183,1,0,0:0:0:0:
229,116,6350,1,0,0:0:0:0:
301,142,6517,1,0,0:0:0:0:
349,201,6683,5,0,0:0:0:0:
349,201,6767,1,0,0:0:0:0:
349,201,6850,1,0,0:0:0:0:
401,144,7017,1,0,0:0:0:0:
401,144,7100,1,0,0:0:0:0:
401,144,7183,1,0,0:0:0:0:
450,203,7350,1,0,0:0:0:0:
450,203,7433,1,0,0:0:0:0:
450,203,7517,1,0,0:0:0:0:
387,247,7683,1,0,0:0:0:0:
390,324,7850,1,0,0:0:0:0:
312,324,8017,6,0,L|167:300,1,110
131,278,8350,2,0,P|196:260|192:192,1,110
281,211,8683,2,0,B|313:164|313:164|379:168,1,110
302,122,9017,1,0,0:0:0:0:
227,102,9183,1,0,0:0:0:0:
159,139,9350,6,0,L|177:280,1,110
238,207,9683,2,0,P|225:275|281:281,1,110
306,234,10017,2,0,B|325:170|325:170|394:137,1,110
292,121,10350,5,0,0:0:0:0:
214,117,10517,1,0,0:0:0:0:
163,174,10683,5,0,0:0:0:0:
163,174,10767,1,0,0:0:0:0:
163,174,10850,1,0,0:0:0:0:
215,230,11017,1,0,0:0:0:0:
215,230,11100,1,0,0:0:0:0:
215,230,11183,1,0,0:0:0:0:
292,228,11350,1,0,0:0:0:0:
292,228,11433,1,0,0:0:0:0:
292,228,11517,1,0,0:0:0:0:
344,172,11683,1,0,0:0:0:0:
344,172,11767,1,0,0:0:0:0:
344,172,11850,1,0,0:0:0:0:
312,101,12017,5,0,0:0:0:0:
235,101,12183,1,0,0:0:0:0:
275,166,12350,1,0,0:0:0:0:
197,166,12517,1,0,0:0:0:0:
237,230,12683,1,0,0:0:0:0:
159,230,12850,1,0,0:0:0:0:
198,296,13017,1,0,0:0:0:0:
121,298,13183,1,0,0:0:0:0:
58,200,13350,5,0,0:0:0:0:
79,86,13517,1,0,0:0:0:0:
108,197,13683,1,0,0:0:0:0:
123,82,13850,1,0,0:0:0:0:
154,193,14017,1,0,0:0:0:0:
164,78,14183,1,0,0:0:0:0:
213,182,14350,1,0,0:0:0:0:
224,66,14517,1,0,0:0:0:0:
286,109,14683,5,0,0:0:0:0:
362,120,14850,1,0,0:0:0:0:
348,195,15017,1,0,0:0:0:0:
272,180,15183,1,0,0:0:0:0:
257,255,15350,1,0,0:0:0:0:
328,283,15517,1,0,0:0:0:0:
311,357,15683,1,0,0:0:0:0:
239,327,15850,1,0,0:0:0:0:
239,327,16017,5,0,0:0:0:0:
151,252,16183,1,0,0:0:0:0:
151,252,16267,1,0,0:0:0:0:
151,252,16350,1,0,0:0:0:0:
261,216,16517,1,0,0:0:0:0:
261,216,16600,1,0,0:0:0:0:
261,216,16683,1,0,0:0:0:0:
170,144,16850,1,0,0:0:0:0:
170,144,16933,1,0,0:0:0:0:
170,144,17017,1,0,0:0:0:0:
284,138,17183,5,0,0:0:0:0:
337,35,17350,1,0,0:0:0:0:
399,132,17517,1,0,0:0:0:0:
349,235,17683,1,0,0:0:0:0:
275,257,17850,5,0,0:0:0:0:
275,257,17933,1,0,0:0:0:0:
275,257,18017,1,0,0:0:0:0:
211,300,18183,5,0,0:0:0:0:
211,300,18267,1,0,0:0:0:0:
211,300,18350,1,0,0:0:0:0:
133,301,18517,5,0,0:0:0:0:
133,301,18600,1,0,0:0:0:0:
133,301,18683,1,0,0:0:0:0:
79,198,18850,1,0,0:0:0:0:
181,143,19017,1,0,0:0:0:0:
275,209,19183,1,0,0:0:0:0:
373,148,19350,1,0,0:0:0:0:
265,104,19517,6,0,L|316:29,2,82.5000031471254
151,124,19850,1,0,0:0:0:0:
182,235,20017,1,0,0:0:0:0:
105,228,20183,5,0,0:0:0:0:
105,228,20267,1,0,0:0:0:0:
105,228,20350,1,0,0:0:0:0:
140,296,20517,1,0,0:0:0:0:
140,296,20600,1,0,0:0:0:0:
140,296,20683,1,0,0:0:0:0:
204,337,20850,1,0,0:0:0:0:
204,337,20933,1,0,0:0:0:0:
204,337,21017,1,0,0:0:0:0:
207,260,21183,1,0,0:0:0:0:
254,154,21350,5,0,0:0:0:0:
335,236,21517,1,0,0:0:0:0:
336,150,21683,1,0,0:0:0:0:
255,245,21850,1,0,0:0:0:0:
152,191,22017,5,0,0:0:0:0:
145,76,22183,1,0,0:0:0:0:
47,137,22350,1,0,0:0:0:0:
47,137,22517,1,0,0:0:0:0:
77,247,22683,5,0,0:0:0:0:
188,276,22850,1,0,0:0:0:0:
295,232,23017,2,0,P|269:197|242:278,2,165.000006294251
202,162,23517,5,0,0:0:0:0:
275,73,23683,1,0,0:0:0:0:
367,142,23850,1,0,0:0:0:0:
330,209,24017,5,0,0:0:0:0:
259,240,24183,1,0,0:0:0:0:
189,274,24350,1,0,0:0:0:0:
119,307,24517,1,0,0:0:0:0:
64,252,24683,5,0,0:0:0:0:
61,174,24850,1,0,0:0:0:0:
61,96,25017,1,0,0:0:0:0:
59,19,25183,1,0,0:0:0:0:
128,52,25350,6,0,P|190:82|239:60,1,110
299,94,25683,2,0,L|272:204,1,110
341,236,26017,6,0,P|403:206|452:228,1,110
448,140,26350,2,0,L|421:30,1,110
349,61,26683,5,0,0:0:0:0:
273,78,26850,1,0,0:0:0:0:
294,152,27017,1,0,0:0:0:0:
367,131,27183,1,0,0:0:0:0:
348,206,27350,1,0,0:0:0:0:
274,230,27517,1,0,0:0:0:0:
296,303,27683,1,0,0:0:0:0:
370,282,27850,1,0,0:0:0:0:
302,244,28017,6,0,L|265:137,1,110
192,117,28350,2,0,P|239:162|284:137,1,110
329,94,28683,2,0,B|366:69|366:69|391:96|391:96|383:169,1,110
362,197,29017,2,0,L|215:232,1,110
178,212,29350,1,0,0:0:0:0:
178,134,29517,1,0,0:0:0:0:
253,119,29683,1,0,0:0:0:0:
259,195,29850,1,0,0:0:0:0:
330,224,30017,5,0,0:0:0:0:
406,218,30183,1,0,0:0:0:0:
407,102,30350,1,0,0:0:0:0:
467,200,30517,1,0,0:0:0:0:
371,136,30683,1,0,0:0:0:0:
255,147,30850,1,0,0:0:0:0:
139,143,31017,6,0,P|98:172|165:257,1,165.000006294251
241,201,31350,2,0,B|252:46|252:46|214:69,1,165.000006294251
319,138,31683,2,0,B|374:206|374:206|343:288,1,165.000006294251
231,297,32017,2,0,L|202:106,1,165.000006294251
319,111,32350,2,0,P|218:76|191:150,1,165.000006294251
255,134,32683,2,0,B|251:234|251:234|197:287,1,165.000006294251
101,224,33017,2,0,L|120:135,4,82.5000031471254
214,202,33517,2,0,L|233:113,4,82.5000031471254
327,180,34017,2,0,L|346:91,4,82.5000031471254
223,127,34517,1,0,0:0:0:0:
223,127,34600,1,0,0:0:0:0:
223,127,34683,1,0,0:0:0:0:
