osu file format v14

[General]
AudioFilename: audio.mp3
AudioLeadIn: 0
PreviewTime: -1
Countdown: 1
SampleSet: Soft
StackLeniency: 0.7
Mode: 0
LetterboxInBreaks: 0
WidescreenStoryboard: 1

[Editor]
Bookmarks: 7350
DistanceSpacing: 0.5
BeatDivisor: 1
GridSize: 8
TimelineZoom: 1.3

[Metadata]
Title:PEPSI * MAN
TitleUnicode:PEPSI * MAN
Artist:NOMA
ArtistUnicode:NOMA
Creator:MemeMeme_YT
Version:PEPSI EASY
Source:
Tags:pepsi man cola
BeatmapID:1890545
BeatmapSetID:905876

[Difficulty]
HPDrainRate:0
CircleSize:2
OverallDifficulty:0
ApproachRate:2
SliderMultiplier:0.799999999999999
SliderTickRate:1

[Events]
//Background and Video events
0,0,"IRN BRU man is better.jpg",0,0
//Break Periods
//Storyboard Layer 0 (Background)
//Storyboard Layer 1 (Fail)
//Storyboard Layer 2 (Pass)
//Storyboard Layer 3 (Foreground)
//Storyboard Sound Samples

[TimingPoints]
10,333.333333333333,4,2,1,80,1,0
2684,333.333333333333,4,2,1,80,1,1
13350,-66.6666666666667,4,2,1,80,0,1
14683,-100,4,2,1,80,0,1
16100,-66.6666666666667,4,2,1,80,0,1
17850,-100,4,2,1,80,0,1
18767,-66.6666666666667,4,2,1,80,0,1
20100,-100,4,2,1,80,0,1
21350,-66.6666666666667,4,2,1,80,0,1
24017,-100,4,2,1,80,0,0
30017,-100,4,2,1,80,0,0
30100,-66.6666666666667,4,2,1,80,0,0
30183,-100,4,2,1,80,0,0
30267,-133.333333333333,4,2,1,80,0,0
30350,-66.6666666666667,4,2,1,80,0,0

[HitObjects]
81,53,2676,5,0,0:0:0:0:
121,57,3017,1,0,0:0:0:0:
160,61,3350,1,0,0:0:0:0:
199,66,3683,1,0,0:0:0:0:
238,71,4017,1,0,0:0:0:0:
277,76,4350,1,0,0:0:0:0:
316,81,4683,1,0,0:0:0:0:
355,86,5017,1,0,0:0:0:0:
345,124,5350,5,0,0:0:0:0:
335,162,5683,1,0,0:0:0:0:
325,200,6017,1,0,0:0:0:0:
315,238,6350,1,0,0:0:0:0:
305,276,6683,1,0,0:0:0:0:
295,315,7017,1,0,0:0:0:0:
286,354,7350,1,0,0:0:0:0:
247,344,7683,1,0,0:0:0:0:
210,326,8017,6,0,L|194:227,1,79.9999999999999
216,212,8683,2,0,L|244:97,1,79.9999999999999
265,108,9350,2,0,L|378:56,1,79.9999999999999
374,59,10017,1,0,0:0:0:0:
370,98,10350,1,0,0:0:0:0:
347,130,10683,6,0,L|292:123,2,40
308,141,11350,6,0,L|253:134,2,40
270,155,12017,5,0,0:0:0:0:
231,144,12350,1,0,0:0:0:0:
192,134,12683,1,0,0:0:0:0:
152,124,13017,1,0,0:0:0:0:
92,131,13350,5,0,0:0:0:0:
109,188,13683,1,0,0:0:0:0:
127,245,14017,1,0,0:0:0:0:
145,301,14350,1,0,0:0:0:0:
184,302,14683,6,0,L|229:220,1,79.9999999999999
259,217,15350,2,0,L|258:117,1,79.9999999999999
284,106,16017,1,0,0:0:0:0:
303,162,16350,5,0,0:0:0:0:
293,221,16683,1,0,0:0:0:0:
260,271,17017,1,0,0:0:0:0:
210,304,17350,1,0,0:0:0:0:
150,310,17683,1,0,0:0:0:0:
114,291,18017,6,0,L|104:180,1,79.9999999999999
134,182,18683,1,0,0:0:0:0:
193,172,19017,1,0,0:0:0:0:
251,161,19350,1,0,0:0:0:0:
310,150,19683,1,0,0:0:0:0:
369,139,20017,1,0,0:0:0:0:
389,173,20350,6,0,L|222:240,1,160
220,175,21350,6,0,L|265:51,1,120.000004577637
320,71,22017,2,0,L|445:110,1,120.000004577637
409,161,22683,2,0,L|396:299,1,120.000004577637
340,263,23350,2,0,L|199:308,1,120.000004577637
186,289,24017,5,0,0:0:0:0:
186,249,24350,1,0,0:0:0:0:
186,209,24683,1,0,0:0:0:0:
185,168,25017,1,0,0:0:0:0:
184,128,25350,1,0,0:0:0:0:
183,88,25683,1,0,0:0:0:0:
222,83,26017,5,0,0:0:0:0:
261,83,26350,1,0,0:0:0:0:
300,80,26683,1,0,0:0:0:0:
339,77,27017,1,0,0:0:0:0:
378,74,27350,1,0,0:0:0:0:
417,71,27683,1,0,0:0:0:0:
457,68,28017,5,0,0:0:0:0:
451,107,28350,1,0,0:0:0:0:
443,146,28683,1,0,0:0:0:0:
435,185,29017,1,0,0:0:0:0:
427,224,29350,1,0,0:0:0:0:
420,263,29683,1,0,0:0:0:0:
380,258,30017,5,0,0:0:0:0:
321,243,30350,1,0,0:0:0:0:
264,224,30683,1,0,0:0:0:0:
206,205,31017,1,0,0:0:0:0:
149,186,31350,1,0,0:0:0:0:
92,167,31683,1,0,0:0:0:0:
256,192,32017,12,0,34683,0:0:0:0:
