osu file format v14

[General]
AudioFilename: audio.mp3
AudioLeadIn: 0
PreviewTime: 22509
Countdown: 0
SampleSet: Normal
StackLeniency: 0.7
Mode: 1
LetterboxInBreaks: 0
WidescreenStoryboard: 0

[Editor]
Bookmarks: 13426
DistanceSpacing: 1.3
BeatDivisor: 6
GridSize: 32
TimelineZoom: 2.799999

[Metadata]
Title:PEPSI * MAN
TitleUnicode:PEPSI ☆ MAN
Artist:NOMA
ArtistUnicode:ノマ
Creator:Lime717
Version:PEPSI MAN
Source:ペプシマン
Tags:mowtendoo cola electronic drum and bass pepsiman pepsico -GN Junior
BeatmapID:1897824
BeatmapSetID:909461

[Difficulty]
HPDrainRate:6.5
CircleSize:2
OverallDifficulty:6
ApproachRate:0
SliderMultiplier:1.4
SliderTickRate:1

[Events]
//Background and Video events
0,0,"Pepsi_Man.jpg",0,0
//Break Periods
//Storyboard Layer 0 (Background)
//Storyboard Layer 1 (Fail)
//Storyboard Layer 2 (Pass)
//Storyboard Layer 3 (Foreground)
//Storyboard Sound Samples

[TimingPoints]
10,333.333333333333,4,1,0,100,1,0
7509,-98.0392156862745,4,1,0,100,0,0
7593,-96.1538461538461,4,1,0,100,0,0
7676,-94.3396226415094,4,1,0,100,0,0
7759,-92.5925925925926,4,1,0,100,0,0
7843,-90.9090909090909,4,1,0,100,0,0
9009,-89.2857142857143,4,1,0,100,0,0
9093,-87.719298245614,4,1,0,100,0,0
9176,-86.2068965517241,4,1,0,100,0,0
10343,-84.7457627118644,4,1,0,100,0,0
10426,-83.3333333333333,4,1,0,100,0,0
10509,-81.9672131147541,4,1,0,100,0,0
12676,-82.6446280991736,4,1,0,100,0,0
12759,-83.3333333333333,4,1,0,100,0,0
12843,-84.0336134453781,4,1,0,100,0,0
12898,-84.7457627118644,4,1,0,100,0,0
12954,-85.4700854700855,4,1,0,100,0,0
13009,-86.2068965517241,4,1,0,100,0,0
13065,-86.9565217391304,4,1,0,100,0,0
13121,-87.719298245614,4,1,0,100,0,0
13176,-88.4955752212389,4,1,0,100,0,0
13232,-89.2857142857143,4,1,0,100,0,0
13287,-90.0900900900901,4,1,0,100,0,0
13343,-90.9090909090909,4,1,0,100,0,0
23259,-91.743119266055,4,1,0,100,0,0
23343,-92.5925925925926,4,1,0,100,0,0
23426,-93.4579439252336,4,1,0,100,0,0
23509,-94.3396226415094,4,1,0,100,0,0
23593,-95.2380952380952,4,1,0,100,0,0
23676,-96.1538461538461,4,1,0,100,0,0
23759,-97.0873786407767,4,1,0,100,0,0
23843,-98.0392156862745,4,1,0,100,0,0
23926,-99.009900990099,4,1,0,100,0,0
24009,-100,4,1,0,100,0,0
35676,-100,4,1,0,88,0,0
36009,-100,4,1,0,76,0,0
36343,-100,4,1,0,64,0,0
36676,-100,4,1,0,52,0,0
37009,-100,4,1,0,40,0,0
37343,-100,4,1,0,28,0,0

[HitObjects]
256,192,10,5,8,0:0:0:0:
256,192,343,1,0,0:0:0:0:
256,192,509,1,8,0:0:0:0:
256,192,676,12,0,1176,0:0:0:0:
256,192,1343,5,12,0:0:0:0:
256,192,1676,1,12,0:0:0:0:
256,192,2009,1,12,0:0:0:0:
256,192,2176,1,0,0:0:0:0:
256,192,2343,1,12,0:0:0:0:
256,192,2676,1,0,0:0:0:0:
256,192,2843,1,0,0:0:0:0:
256,192,2926,1,0,0:0:0:0:
256,192,3009,1,8,0:0:0:0:
256,192,3176,1,0,0:0:0:0:
256,192,3509,1,0,0:0:0:0:
256,192,3676,1,8,0:0:0:0:
256,192,3843,1,8,0:0:0:0:
256,192,4009,1,0,0:0:0:0:
256,192,4176,1,0,0:0:0:0:
256,192,4259,1,0,0:0:0:0:
256,192,4343,1,8,0:0:0:0:
256,192,4509,1,0,0:0:0:0:
256,192,4843,1,0,0:0:0:0:
256,192,5010,1,8,0:0:0:0:
256,192,5177,1,8,0:0:0:0:
256,192,5343,1,0,0:0:0:0:
256,192,5510,1,0,0:0:0:0:
256,192,5593,1,0,0:0:0:0:
256,192,5677,1,8,0:0:0:0:
256,192,5843,1,0,0:0:0:0:
256,192,6176,1,0,0:0:0:0:
256,192,6343,1,8,0:0:0:0:
256,192,6509,1,8,0:0:0:0:
256,192,6676,1,0,0:0:0:0:
256,192,6843,1,0,0:0:0:0:
256,192,6926,1,0,0:0:0:0:
256,192,7009,1,8,0:0:0:0:
256,192,7176,1,0,0:0:0:0:
256,192,7343,1,0,0:0:0:0:
256,192,7509,1,8,0:0:0:0:
256,192,7593,1,0,0:0:0:0:
256,192,7676,1,8,0:0:0:0:
256,192,7759,1,8,0:0:0:0:
256,192,7843,1,0,0:0:0:0:
256,192,8009,1,12,0:0:0:0:
256,192,8176,1,0,0:0:0:0:
256,192,8259,1,0,0:0:0:0:
256,192,8343,1,8,0:0:0:0:
256,192,8426,1,8,0:0:0:0:
256,192,8509,1,0,0:0:0:0:
256,192,8593,1,0,0:0:0:0:
256,192,8676,1,8,0:0:0:0:
256,192,8843,1,0,0:0:0:0:
256,192,8926,1,8,0:0:0:0:
256,192,9009,1,0,0:0:0:0:
256,192,9093,1,0,0:0:0:0:
256,192,9176,1,8,0:0:0:0:
256,192,9343,1,12,0:0:0:0:
256,192,9509,1,0,0:0:0:0:
256,192,9593,1,0,0:0:0:0:
256,192,9676,1,8,0:0:0:0:
256,192,9759,1,8,0:0:0:0:
256,192,9843,1,0,0:0:0:0:
256,192,9926,1,0,0:0:0:0:
256,192,10009,1,8,0:0:0:0:
256,192,10176,1,8,0:0:0:0:
256,192,10259,1,0,0:0:0:0:
256,192,10343,1,8,0:0:0:0:
256,192,10426,1,8,0:0:0:0:
256,192,10509,1,0,0:0:0:0:
256,192,10676,1,0,0:0:0:0:
256,192,10732,1,0,0:0:0:0:
256,192,10787,1,0,0:0:0:0:
256,192,10843,1,8,0:0:0:0:
256,192,10926,1,0,0:0:0:0:
256,192,11009,1,8,0:0:0:0:
256,192,11093,1,0,0:0:0:0:
256,192,11176,1,8,0:0:0:0:
256,192,11259,1,8,0:0:0:0:
256,192,11343,1,0,0:0:0:0:
256,192,11399,1,0,0:0:0:0:
256,192,11454,1,0,0:0:0:0:
256,192,11510,1,8,0:0:0:0:
256,192,11593,1,0,0:0:0:0:
256,192,11676,1,8,0:0:0:0:
256,192,11760,1,0,0:0:0:0:
256,192,11843,1,8,0:0:0:0:
256,192,11926,1,8,0:0:0:0:
256,192,12009,1,0,0:0:0:0:
256,192,12065,1,0,0:0:0:0:
256,192,12121,1,0,0:0:0:0:
256,192,12176,1,8,0:0:0:0:
256,192,12259,1,8,0:0:0:0:
256,192,12343,1,0,0:0:0:0:
256,192,12398,1,0,0:0:0:0:
256,192,12454,1,0,0:0:0:0:
256,192,12509,1,8,0:0:0:0:
256,192,12593,1,8,0:0:0:0:
256,192,12676,1,0,0:0:0:0:
256,192,12759,1,0,0:0:0:0:
256,192,12843,1,8,0:0:0:0:
256,192,12898,1,8,0:0:0:0:
256,192,12954,1,0,0:0:0:0:
256,192,13009,1,8,0:0:0:0:
256,192,13065,1,8,0:0:0:0:
256,192,13121,1,0,0:0:0:0:
256,192,13176,1,8,0:0:0:0:
256,192,13232,1,8,0:0:0:0:
256,192,13287,1,8,0:0:0:0:
256,192,13343,1,0,0:0:0:0:
256,192,13509,1,0,0:0:0:0:
256,192,13676,1,8,0:0:0:0:
256,192,13843,1,0,0:0:0:0:
256,192,14176,1,8,0:0:0:0:
256,192,14343,1,0,0:0:0:0:
256,192,14509,1,8,0:0:0:0:
256,192,14676,1,0,0:0:0:0:
256,192,14843,1,0,0:0:0:0:
256,192,14926,1,0,0:0:0:0:
256,192,15009,1,8,0:0:0:0:
256,192,15176,1,0,0:0:0:0:
256,192,15259,1,8,0:0:0:0:
256,192,15426,1,8,0:0:0:0:
256,192,15509,1,8,0:0:0:0:
256,192,15593,1,0,0:0:0:0:
256,192,15676,1,8,0:0:0:0:
256,192,15759,1,0,0:0:0:0:
256,192,15843,1,8,0:0:0:0:
256,192,15926,1,8,0:0:0:0:
256,192,16009,1,0,0:0:0:0:
256,192,16176,1,0,0:0:0:0:
256,192,16343,1,8,0:0:0:0:
256,192,16509,1,0,0:0:0:0:
256,192,16843,1,8,0:0:0:0:
256,192,17009,1,0,0:0:0:0:
256,192,17176,1,8,0:0:0:0:
256,192,17343,1,8,0:0:0:0:
440,323,17426,1,0,0:0:0:0:
256,192,17509,1,0,0:0:0:0:
256,192,17593,1,0,0:0:0:0:
256,192,17676,1,8,0:0:0:0:
256,192,17843,1,8,0:0:0:0:
256,192,17926,1,0,0:0:0:0:
256,192,18009,1,8,0:0:0:0:
256,192,18093,1,0,0:0:0:0:
256,192,18176,1,8,0:0:0:0:
256,192,18259,1,8,0:0:0:0:
256,192,18343,1,0,0:0:0:0:
256,192,18426,1,0,0:0:0:0:
256,192,18509,1,8,0:0:0:0:
256,192,18593,1,8,0:0:0:0:
256,192,18676,1,0,0:0:0:0:
256,192,18843,1,0,0:0:0:0:
256,192,19009,1,8,0:0:0:0:
256,192,19176,1,0,0:0:0:0:
256,192,19509,1,8,0:0:0:0:
256,192,19676,1,0,0:0:0:0:
256,192,19843,1,8,0:0:0:0:
256,192,20009,1,8,0:0:0:0:
256,192,20093,1,8,0:0:0:0:
256,192,20176,1,0,0:0:0:0:
256,192,20259,1,8,0:0:0:0:
256,192,20343,1,0,0:0:0:0:
256,192,20509,1,0,0:0:0:0:
256,192,20593,1,0,0:0:0:0:
256,192,20676,1,8,0:0:0:0:
256,192,20759,1,0,0:0:0:0:
256,192,20843,1,8,0:0:0:0:
256,192,20926,1,8,0:0:0:0:
256,192,21009,1,0,0:0:0:0:
256,192,21093,1,0,0:0:0:0:
256,192,21176,1,8,0:0:0:0:
256,192,21259,1,8,0:0:0:0:
256,192,21343,1,0,0:0:0:0:
256,192,21509,1,0,0:0:0:0:
256,192,21676,1,8,0:0:0:0:
256,192,21843,1,0,0:0:0:0:
256,192,22176,1,8,0:0:0:0:
256,192,22343,1,0,0:0:0:0:
256,192,22509,1,8,0:0:0:0:
256,192,22676,1,8,0:0:0:0:
256,192,22759,1,8,0:0:0:0:
256,192,22843,1,0,0:0:0:0:
256,192,22926,1,0,0:0:0:0:
256,192,23009,1,8,0:0:0:0:
256,192,23176,1,8,0:0:0:0:
256,192,23259,1,8,0:0:0:0:
256,192,23343,1,0,0:0:0:0:
256,192,23426,1,8,0:0:0:0:
256,192,23509,1,0,0:0:0:0:
256,192,23593,1,0,0:0:0:0:
256,192,23676,1,8,0:0:0:0:
256,192,23759,1,8,0:0:0:0:
256,192,23843,1,8,0:0:0:0:
256,192,23926,1,8,0:0:0:0:
256,192,24009,1,4,0:0:0:0:
256,192,24176,1,0,0:0:0:0:
256,192,24259,1,0,0:0:0:0:
256,192,24343,1,8,0:0:0:0:
256,192,24509,1,0,0:0:0:0:
256,192,24843,1,8,0:0:0:0:
256,192,25009,1,8,0:0:0:0:
256,192,25176,1,0,0:0:0:0:
256,192,25343,1,0,0:0:0:0:
256,192,25509,1,8,0:0:0:0:
256,192,25593,1,8,0:0:0:0:
256,192,25676,1,8,0:0:0:0:
256,192,25843,1,0,0:0:0:0:
256,192,26176,1,0,0:0:0:0:
256,192,26342,1,8,0:0:0:0:
256,192,26509,1,0,0:0:0:0:
256,192,26676,1,0,0:0:0:0:
256,192,26842,1,0,0:0:0:0:
256,192,26926,1,0,0:0:0:0:
256,192,27009,1,8,0:0:0:0:
256,192,27176,1,0,0:0:0:0:
256,192,27509,1,8,0:0:0:0:
256,192,27675,1,8,0:0:0:0:
256,192,27842,1,0,0:0:0:0:
256,192,28009,1,0,0:0:0:0:
256,192,28176,1,8,0:0:0:0:
256,192,28259,1,8,0:0:0:0:
256,192,28342,1,8,0:0:0:0:
256,192,28509,1,0,0:0:0:0:
256,192,28843,1,0,0:0:0:0:
256,192,29009,1,8,0:0:0:0:
256,192,29176,1,0,0:0:0:0:
256,192,29343,1,0,0:0:0:0:
256,192,29509,1,8,0:0:0:0:
256,192,29593,1,8,0:0:0:0:
256,192,29676,1,8,0:0:0:0:
256,192,29843,1,0,0:0:0:0:
256,192,30009,1,8,0:0:0:0:
256,192,30176,1,0,0:0:0:0:
256,192,30343,1,8,0:0:0:0:
256,192,30426,1,8,0:0:0:0:
256,192,30509,1,0,0:0:0:0:
256,192,30676,1,0,0:0:0:0:
256,192,30843,1,8,0:0:0:0:
256,192,30926,1,8,0:0:0:0:
256,192,31009,1,8,0:0:0:0:
256,192,31176,1,0,0:0:0:0:
256,192,31343,1,8,0:0:0:0:
256,192,31454,1,8,0:0:0:0:
256,192,31565,1,0,0:0:0:0:
256,192,31676,1,8,0:0:0:0:
256,192,31843,1,0,0:0:0:0:
256,192,32009,1,0,0:0:0:0:
256,192,32121,1,8,0:0:0:0:
256,192,32232,1,0,0:0:0:0:
256,192,32343,1,8,0:0:0:0:
256,192,32454,1,0,0:0:0:0:
256,192,32565,1,8,0:0:0:0:
256,192,32621,1,0,0:0:0:0:
256,192,32676,1,8,0:0:0:0:
250,193,32843,1,0,0:0:0:0:
256,192,32926,1,0,0:0:0:0:
256,192,33009,1,8,0:0:0:0:
256,192,33176,1,0,0:0:0:0:
256,192,33343,1,8,0:0:0:0:
256,192,33426,1,8,0:0:0:0:
256,192,33509,1,0,0:0:0:0:
256,192,33593,1,0,0:0:0:0:
256,192,33676,1,8,0:0:0:0:
250,193,33843,1,0,0:0:0:0:
256,192,34009,1,8,0:0:0:0:
256,192,34093,1,8,0:0:0:0:
256,192,34176,1,0,0:0:0:0:
256,192,34259,1,0,0:0:0:0:
256,192,34343,1,8,0:0:0:0:
256,192,34509,1,0,0:0:0:0:
256,192,34676,1,12,0:0:0:0:
256,192,35009,1,0,0:0:0:0:
256,192,35176,1,8,0:0:0:0:
256,192,35343,12,0,37343,0:0:0:0:
