osu file format v14

[General]
AudioFilename: audio.mp3
AudioLeadIn: 0
PreviewTime: 22509
Countdown: 0
SampleSet: Normal
StackLeniency: 0.7
Mode: 1
LetterboxInBreaks: 0
WidescreenStoryboard: 1

[Editor]
DistanceSpacing: 1.7
BeatDivisor: 4
GridSize: 32
TimelineZoom: 2

[Metadata]
Title:PEPSI * MAN
TitleUnicode:PEPSI ☆ MAN
Artist:NOMA
ArtistUnicode:ノマ
Creator:Lime717
Version:MUZUKASHII
Source:ペプシマン
Tags:mowtendoo cola electronic drum and bass pepsiman pepsico -GN Junior
BeatmapID:1900027
BeatmapSetID:909461

[Difficulty]
HPDrainRate:7.5
CircleSize:2
OverallDifficulty:4
ApproachRate:0
SliderMultiplier:1.4
SliderTickRate:1

[Events]
//Background and Video events
0,0,"Pepsi_Man.jpg",0,0
//Break Periods
//Storyboard Layer 0 (Background)
//Storyboard Layer 1 (Fail)
//Storyboard Layer 2 (Pass)
//Storyboard Layer 3 (Foreground)
//Storyboard Sound Samples

[TimingPoints]
10,333.333333333333,4,1,0,100,1,0
8009,-98.0392156862745,4,1,0,100,0,0
9343,-96.1538461538461,4,1,0,100,0,0
10676,-94.3396226415094,4,1,0,100,0,0
13343,-98.0392156862745,4,1,0,100,0,0
24343,-100,4,1,0,100,0,0
35676,-100,4,1,0,88,0,0
36009,-100,4,1,0,76,0,0
36343,-100,4,1,0,64,0,0
36676,-100,4,1,0,52,0,0
37009,-100,4,1,0,40,0,0
37343,-100,4,1,0,28,0,0

[HitObjects]
256,192,10,5,8,0:0:0:0:
256,192,343,1,0,0:0:0:0:
256,192,509,1,8,0:0:0:0:
256,192,1343,1,12,0:0:0:0:
256,192,1676,1,12,0:0:0:0:
256,192,2009,1,12,0:0:0:0:
256,192,2176,1,0,0:0:0:0:
256,192,2343,1,12,0:0:0:0:
256,192,2676,1,0,0:0:0:0:
256,192,2843,1,8,0:0:0:0:
256,192,3009,1,8,0:0:0:0:
256,192,3176,1,0,0:0:0:0:
256,192,3676,1,8,0:0:0:0:
256,192,3843,1,8,0:0:0:0:
256,192,4009,1,0,0:0:0:0:
256,192,4176,1,0,0:0:0:0:
256,192,4343,1,8,0:0:0:0:
256,192,4509,1,0,0:0:0:0:
256,192,5010,1,0,0:0:0:0:
256,192,5177,1,8,0:0:0:0:
256,192,5343,1,0,0:0:0:0:
256,192,5509,1,0,0:0:0:0:
256,192,5677,1,0,0:0:0:0:
256,192,5843,1,8,0:0:0:0:
256,192,6343,1,8,0:0:0:0:
256,192,6509,1,8,0:0:0:0:
256,192,6676,1,0,0:0:0:0:
256,192,6843,1,0,0:0:0:0:
256,192,7009,1,8,0:0:0:0:
256,192,7176,1,0,0:0:0:0:
256,192,7509,1,0,0:0:0:0:
256,192,7676,1,8,0:0:0:0:
256,192,7843,1,0,0:0:0:0:
256,192,8009,1,12,0:0:0:0:
256,192,8176,1,0,0:0:0:0:
256,192,8259,1,0,0:0:0:0:
256,192,8343,1,0,0:0:0:0:
256,192,8509,1,0,0:0:0:0:
256,192,8676,1,8,0:0:0:0:
256,192,9009,1,8,0:0:0:0:
256,192,9343,1,4,0:0:0:0:
256,192,9509,1,8,0:0:0:0:
256,192,9593,1,8,0:0:0:0:
256,192,9676,1,8,0:0:0:0:
256,192,9843,1,0,0:0:0:0:
256,192,10009,1,0,0:0:0:0:
256,192,10343,1,0,0:0:0:0:
256,192,10676,1,12,0:0:0:0:
256,192,10843,1,0,0:0:0:0:
256,192,10926,1,0,0:0:0:0:
256,192,11009,1,0,0:0:0:0:
256,192,11343,1,4,0:0:0:0:
256,192,11509,1,8,0:0:0:0:
256,192,11593,1,8,0:0:0:0:
256,192,11676,1,8,0:0:0:0:
256,192,12009,1,8,0:0:0:0:
256,192,12093,1,8,0:0:0:0:
256,192,12176,1,8,0:0:0:0:
256,192,12343,1,0,0:0:0:0:
256,192,12509,1,0,0:0:0:0:
256,192,12676,1,12,0:0:0:0:
256,192,12843,1,0,0:0:0:0:
256,192,13009,1,8,0:0:0:0:
256,192,13093,1,8,0:0:0:0:
256,192,13176,1,8,0:0:0:0:
256,192,13343,1,4,0:0:0:0:
256,192,13676,1,8,0:0:0:0:
256,192,14176,1,8,0:0:0:0:
256,192,14509,1,8,0:0:0:0:
256,192,14676,1,0,0:0:0:0:
256,192,14759,1,0,0:0:0:0:
256,192,14843,1,0,0:0:0:0:
256,192,15009,1,8,0:0:0:0:
256,192,15343,1,8,0:0:0:0:
256,192,15509,1,0,0:0:0:0:
256,192,15676,1,8,0:0:0:0:
256,192,15843,1,8,0:0:0:0:
256,192,16009,1,0,0:0:0:0:
256,192,16343,1,8,0:0:0:0:
256,192,16843,1,8,0:0:0:0:
256,192,17176,1,8,0:0:0:0:
256,192,17343,1,8,0:0:0:0:
256,192,17426,1,8,0:0:0:0:
256,192,17509,1,8,0:0:0:0:
256,192,17676,1,0,0:0:0:0:
256,192,17843,1,8,0:0:0:0:
256,192,18176,1,0,0:0:0:0:
256,192,18259,1,0,0:0:0:0:
256,192,18343,1,0,0:0:0:0:
256,192,18509,1,8,0:0:0:0:
256,192,18676,1,0,0:0:0:0:
256,192,19009,1,8,0:0:0:0:
256,192,19509,1,8,0:0:0:0:
256,192,19842,1,8,0:0:0:0:
256,192,20009,1,0,0:0:0:0:
256,192,20176,1,8,0:0:0:0:
256,192,20259,1,8,0:0:0:0:
256,192,20342,1,8,0:0:0:0:
256,192,20509,1,0,0:0:0:0:
256,192,20842,1,0,0:0:0:0:
256,192,21009,1,8,0:0:0:0:
256,192,21176,1,8,0:0:0:0:
256,192,21342,1,0,0:0:0:0:
256,192,21676,1,8,0:0:0:0:
256,192,22176,1,8,0:0:0:0:
256,192,22509,1,8,0:0:0:0:
256,192,22676,1,0,0:0:0:0:
256,192,22759,1,0,0:0:0:0:
256,192,22843,1,0,0:0:0:0:
256,192,23009,1,8,0:0:0:0:
256,192,23176,1,0,0:0:0:0:
256,192,23509,1,8,0:0:0:0:
256,192,23676,1,8,0:0:0:0:
256,192,23843,1,8,0:0:0:0:
256,192,24009,1,4,0:0:0:0:
256,192,24343,1,8,0:0:0:0:
256,192,24509,1,0,0:0:0:0:
256,192,25009,1,0,0:0:0:0:
256,192,25176,1,8,0:0:0:0:
256,192,25343,1,0,0:0:0:0:
256,192,25509,1,0,0:0:0:0:
256,192,25676,1,0,0:0:0:0:
256,192,25843,1,8,0:0:0:0:
256,192,26342,1,8,0:0:0:0:
256,192,26509,1,8,0:0:0:0:
256,192,26676,1,0,0:0:0:0:
256,192,27009,1,8,0:0:0:0:
256,192,27176,1,0,0:0:0:0:
256,192,27675,1,0,0:0:0:0:
256,192,27842,1,8,0:0:0:0:
256,192,28009,1,0,0:0:0:0:
256,192,28176,1,0,0:0:0:0:
256,192,28342,1,0,0:0:0:0:
256,192,28509,1,8,0:0:0:0:
256,192,28843,1,0,0:0:0:0:
256,192,29009,1,8,0:0:0:0:
256,192,29343,1,0,0:0:0:0:
256,192,29509,1,0,0:0:0:0:
256,192,29676,1,8,0:0:0:0:
256,192,30009,1,0,0:0:0:0:
256,192,30176,1,0,0:0:0:0:
256,192,30343,1,8,0:0:0:0:
256,192,30509,1,8,0:0:0:0:
256,192,30676,1,0,0:0:0:0:
256,192,30843,1,8,0:0:0:0:
256,192,31009,1,8,0:0:0:0:
256,192,31343,1,8,0:0:0:0:
256,192,31509,1,8,0:0:0:0:
256,192,31676,1,0,0:0:0:0:
256,192,31843,1,8,0:0:0:0:
256,192,32009,1,0,0:0:0:0:
256,192,32343,1,8,0:0:0:0:
256,192,32426,1,8,0:0:0:0:
256,192,32509,1,8,0:0:0:0:
256,192,32676,1,0,0:0:0:0:
256,192,33009,1,8,0:0:0:0:
256,192,33176,1,0,0:0:0:0:
256,192,33343,1,8,0:0:0:0:
256,192,33426,1,8,0:0:0:0:
256,192,33509,1,8,0:0:0:0:
256,192,33676,1,0,0:0:0:0:
256,192,33759,1,0,0:0:0:0:
250,193,33843,1,0,0:0:0:0:
256,192,34009,1,8,0:0:0:0:
256,192,34176,1,0,0:0:0:0:
256,192,34343,1,8,0:0:0:0:
256,192,34676,1,12,0:0:0:0:
256,192,35009,1,0,0:0:0:0:
256,192,35176,1,8,0:0:0:0:
256,192,35343,12,0,37343,0:0:0:0:
