osu file format v14

[General]
AudioFilename: audio.mp3
AudioLeadIn: 0
PreviewTime: 93838
Countdown: 0
SampleSet: Normal
StackLeniency: 0.7
Mode: 1
LetterboxInBreaks: 0
WidescreenStoryboard: 0

[Editor]
Bookmarks: 264065
DistanceSpacing: 0.9
BeatDivisor: 8
GridSize: 4
TimelineZoom: 3.699998

[Metadata]
Title:Brain Power Long Version
TitleUnicode:Brain Power Long Version
Artist:NOMA
ArtistUnicode:ノマ
Creator:Nofool
Version:B-R-A-I-N-P-O-W-E-R
Source:SOUND VOLTEX II -infinite infection-
Tags:SDVX 2 museca
BeatmapID:1021299
BeatmapSetID:478150

[Difficulty]
HPDrainRate:5
CircleSize:6
OverallDifficulty:6
ApproachRate:8
SliderMultiplier:1.5
SliderTickRate:1

[Events]
//Background and Video events
0,0,"BG13.jpg",0,0
//Break Periods
//Storyboard Layer 0 (Background)
//Storyboard Layer 1 (Fail)
//Storyboard Layer 2 (Pass)
//Storyboard Layer 3 (Foreground)
//Storyboard Sound Samples

[TimingPoints]
2176,352.941176470588,4,1,0,80,1,0
19249,-99.009900990099,4,1,0,80,0,0
19425,-98.0392156862745,4,1,0,80,0,0
19602,-97.0873786407767,4,1,0,80,0,0
19778,-96.1538461538461,4,1,0,80,0,0
19955,-95.2380952380952,4,1,0,80,0,0
20131,-94.3396226415094,4,1,0,80,0,0
20308,-93.4579439252336,4,1,0,80,0,0
20484,-92.5925925925926,4,1,0,80,0,0
20661,-91.743119266055,4,1,0,80,0,0
20837,-90.9090909090909,4,1,0,80,0,0
21014,-90.0900900900901,4,1,0,80,0,0
21190,-89.2857142857143,4,1,0,80,0,0
21367,-88.4955752212389,4,1,0,80,0,0
21543,-87.719298245614,4,1,0,80,0,0
21720,-86.9565217391304,4,1,0,80,0,0
21896,-86.2068965517241,4,1,0,80,0,0
22073,-85.4700854700855,4,1,0,80,0,0
22249,-84.7457627118644,4,1,0,80,0,0
22425,-84.0336134453781,4,1,0,80,0,0
22602,-83.3333333333333,4,1,0,80,0,0
22675,-86.2068965517241,4,1,0,80,0,0
22734,-89.2857142857143,4,1,0,80,0,0
22793,-92.5925925925926,4,1,0,80,0,0
22852,-95.2380952380952,4,1,0,80,0,0
22911,-98.0392156862745,4,1,0,80,0,0
22970,-100,4,1,0,80,0,0
23043,-102.040816326531,4,1,0,80,0,0
23131,-104.166666666667,4,1,0,80,0,0
23220,-106.382978723404,4,1,0,80,0,0
23308,-108.695652173913,4,1,0,80,0,0
23573,-111.111111111111,4,1,0,80,0,0
24720,-100,4,1,0,80,0,0
41837,-99.009900990099,4,1,0,80,0,0
42014,-98.0392156862745,4,1,0,80,0,0
42190,-97.0873786407767,4,1,0,80,0,0
42367,-96.1538461538461,4,1,0,80,0,0
42543,-95.2380952380952,4,1,0,80,0,0
42720,-94.3396226415094,4,1,0,80,0,0
42896,-93.4579439252336,4,1,0,80,0,0
43073,-92.5925925925926,4,1,0,80,0,0
43249,-91.743119266055,4,1,0,80,0,0
43425,-90.9090909090909,4,1,0,80,0,0
43602,-90.0900900900901,4,1,0,80,0,0
43778,-89.2857142857143,4,1,0,80,0,0
43955,-88.4955752212389,4,1,0,80,0,0
44131,-87.719298245614,4,1,0,80,0,0
44308,-86.9565217391304,4,1,0,80,0,0
44484,-86.2068965517241,4,1,0,80,0,0
44661,-85.4700854700855,4,1,0,80,0,0
44837,-84.7457627118644,4,1,0,80,0,0
45014,-84.0336134453781,4,1,0,80,0,0
45190,-83.3333333333333,4,1,0,80,0,0
45264,-86.2068965517241,4,1,0,80,0,0
45323,-89.2857142857143,4,1,0,80,0,0
45381,-92.5925925925926,4,1,0,80,0,0
45440,-95.2380952380952,4,1,0,80,0,0
45499,-98.0392156862745,4,1,0,80,0,0
45558,-100,4,1,0,80,0,0
45631,-102.040816326531,4,1,0,80,0,0
45720,-104.166666666667,4,1,0,80,0,0
45808,-106.382978723404,4,1,0,80,0,0
45896,-108.695652173913,4,1,0,80,0,0
46161,-111.111111111111,4,1,0,80,0,0
47308,-100,4,1,0,80,0,0
67955,-101.010101010101,4,1,0,80,0,0
68131,-102.040816326531,4,1,0,80,0,0
68308,-103.092783505155,4,1,0,80,0,0
68484,-104.166666666667,4,1,0,80,0,0
68661,-105.263157894737,4,1,0,80,0,0
68837,-106.382978723404,4,1,0,80,0,0
69014,-107.52688172043,4,1,0,80,0,0
69190,-108.695652173913,4,1,0,80,0,0
69528,-106.382978723404,4,1,0,80,0,0
69646,-103.092783505155,4,1,0,80,0,0
69764,-100,4,1,0,80,0,0
69881,-96.1538461538461,4,1,0,80,0,0
72102,-97.0873786407767,4,1,0,80,0,0
72190,-98.0392156862745,4,1,0,80,0,0
72278,-99.009900990099,4,1,0,80,0,0
72367,-100,4,1,0,80,0,0
72786,-99.009900990099,4,1,0,80,0,0
72830,-98.0392156862745,4,1,0,80,0,0
72874,-97.0873786407767,4,1,0,80,0,0
72918,-96.1538461538461,4,1,0,80,0,0
72962,-95.2380952380952,4,1,0,80,0,0
73006,-94.3396226415094,4,1,0,80,0,0
73050,-93.4579439252336,4,1,0,80,0,0
73095,-92.5925925925926,4,1,0,80,0,0
74925,-93.4579439252336,4,1,0,80,0,0
75014,-94.3396226415094,4,1,0,80,0,0
75102,-95.2380952380952,4,1,0,80,0,0
75190,-96.1538461538461,4,1,0,80,0,0
75278,-97.0873786407767,4,1,0,80,0,0
75367,-98.0392156862745,4,1,0,80,0,0
75455,-99.009900990099,4,1,0,80,0,0
75543,-100,4,1,0,80,0,0
77021,-99.009900990099,4,1,0,80,0,0
77065,-98.0392156862745,4,1,0,80,0,0
77109,-97.0873786407767,4,1,0,80,0,0
77153,-96.1538461538461,4,1,0,80,0,0
77198,-95.2380952380952,4,1,0,80,0,0
77242,-94.3396226415094,4,1,0,80,0,0
77286,-93.4579439252336,4,1,0,80,0,0
77330,-92.5925925925926,4,1,0,80,0,0
79514,-93.4579439252336,4,1,0,80,0,0
79602,-94.3396226415094,4,1,0,80,0,0
79690,-95.2380952380952,4,1,0,80,0,0
79778,-96.1538461538461,4,1,0,80,0,0
80573,-97.0873786407767,4,1,0,80,0,0
80661,-98.0392156862745,4,1,0,80,0,0
80749,-99.009900990099,4,1,0,80,0,0
80837,-100,4,1,0,80,0,0
86881,350.877192982456,4,1,0,80,1,0
89819,-99.009900990099,4,1,0,80,0,0
89995,-98.0392156862745,4,1,0,80,0,0
90170,-97.0873786407767,4,1,0,80,0,0
90345,-96.1538461538461,4,1,0,80,0,0
90521,-95.2380952380952,4,1,0,80,0,0
90696,-94.3396226415094,4,1,0,80,0,0
90872,-93.4579439252336,4,1,0,80,0,0
91091,348.837209302326,4,1,0,80,1,0
91091,-92.5925925925926,4,1,0,80,0,0
91221,-91.743119266055,4,1,0,80,0,0
91396,-90.9090909090909,4,1,0,80,0,0
91570,-90.0900900900901,4,1,0,80,0,0
91745,-89.2857142857143,4,1,0,80,0,0
91919,-88.4955752212389,4,1,0,80,0,0
92093,-87.719298245614,4,1,0,80,0,0
92268,-86.9565217391304,4,1,0,80,0,0
92442,-86.2068965517241,4,1,0,80,0,0
92617,-85.4700854700855,4,1,0,80,0,0
92791,-84.7457627118644,4,1,0,80,0,0
92966,-84.0336134453781,4,1,0,80,0,0
93140,-83.3333333333333,4,1,0,80,0,0
93213,-86.2068965517241,4,1,0,80,0,0
93271,-89.2857142857143,4,1,0,80,0,0
93329,-92.5925925925926,4,1,0,80,0,0
93387,-95.2380952380952,4,1,0,80,0,0
93445,-98.0392156862745,4,1,0,80,0,0
93503,-100,4,1,0,80,0,0
93576,-102.040816326531,4,1,0,80,0,0
93663,-104.166666666667,4,1,0,80,0,0
93750,-106.382978723404,4,1,0,80,0,0
93838,-108.695652173913,4,1,0,80,0,0
94099,-111.111111111111,4,1,0,80,0,0
95233,-90.9090909090909,4,1,0,80,0,0
95277,346.820809248555,4,1,0,80,1,1
95277,-90.9090909090909,4,1,0,80,0,1
125927,-90.0900900900901,4,1,0,80,0,1
126100,-89.2857142857143,4,1,0,80,0,1
126274,-88.4955752212389,4,1,0,80,0,1
126447,-87.719298245614,4,1,0,80,0,1
126620,-86.9565217391304,4,1,0,80,0,1
126794,-86.2068965517241,4,1,0,80,0,1
126967,-85.4700854700855,4,1,0,80,0,1
127141,-84.7457627118644,4,1,0,80,0,1
127314,-84.0336134453781,4,1,0,80,0,1
127487,-83.3333333333333,4,1,0,80,0,1
127661,-82.6446280991736,4,1,0,80,0,1
127834,-81.9672131147541,4,1,0,80,0,1
128571,352.941176470588,4,1,0,80,1,0
128571,-81.3008130081301,4,1,0,80,0,0
128879,-100,4,1,0,80,0,0
134350,-99.009900990099,4,1,0,80,0,0
134526,-98.0392156862745,4,1,0,80,0,0
134703,-97.0873786407767,4,1,0,80,0,0
134879,-96.1538461538461,4,1,0,80,0,0
135056,-95.2380952380952,4,1,0,80,0,0
135232,-94.3396226415094,4,1,0,80,0,0
135409,-93.4579439252336,4,1,0,80,0,0
135585,-92.5925925925926,4,1,0,80,0,0
135762,-91.743119266055,4,1,0,80,0,0
135938,-90.9090909090909,4,1,0,80,0,0
136115,-90.0900900900901,4,1,0,80,0,0
136291,-89.2857142857143,4,1,0,80,0,0
136468,-88.4955752212389,4,1,0,80,0,0
136644,-87.719298245614,4,1,0,80,0,0
136821,-86.9565217391304,4,1,0,80,0,0
136997,-86.2068965517241,4,1,0,80,0,0
137173,-85.4700854700855,4,1,0,80,0,0
137350,-84.7457627118644,4,1,0,80,0,0
137526,-84.0336134453781,4,1,0,80,0,0
137703,-83.3333333333333,4,1,0,80,0,0
137776,-86.2068965517241,4,1,0,80,0,0
137835,-89.2857142857143,4,1,0,80,0,0
137894,-92.5925925925926,4,1,0,80,0,0
137953,-95.2380952380952,4,1,0,80,0,0
138012,-98.0392156862745,4,1,0,80,0,0
138071,-100,4,1,0,80,0,0
138144,-102.040816326531,4,1,0,80,0,0
138232,-104.166666666667,4,1,0,80,0,0
138321,-106.382978723404,4,1,0,80,0,0
138409,-108.695652173913,4,1,0,80,0,0
138673,-111.111111111111,4,1,0,80,0,0
139821,-100,4,1,0,80,0,0
160820,-101.010101010101,4,1,0,80,0,0
160997,-102.040816326531,4,1,0,80,0,0
161173,-103.092783505155,4,1,0,80,0,0
161350,-104.166666666667,4,1,0,80,0,0
161526,-105.263157894737,4,1,0,80,0,0
161703,-106.382978723404,4,1,0,80,0,0
162041,-104.166666666667,4,1,0,80,0,0
162159,-102.040816326531,4,1,0,80,0,0
162276,-99.009900990099,4,1,0,80,0,0
162394,-96.1538461538461,4,1,0,80,0,0
166468,-97.0873786407767,4,1,0,80,0,0
166644,-98.0392156862745,4,1,0,80,0,0
166820,-99.009900990099,4,1,0,80,0,0
166997,-100,4,1,0,80,0,0
167173,-101.010101010101,4,1,0,80,0,0
167350,-102.040816326531,4,1,0,80,0,0
167703,-104.166666666667,4,1,0,80,0,0
168056,-96.1538461538461,4,1,0,80,0,0
172115,-97.0873786407767,4,1,0,80,0,0
172291,-98.0392156862745,4,1,0,80,0,0
172468,-99.009900990099,4,1,0,80,0,0
172644,-100,4,1,0,80,0,0
172820,-101.010101010101,4,1,0,80,0,0
172997,-102.040816326531,4,1,0,80,0,0
173350,-104.166666666667,4,1,0,80,0,0
173703,-100,4,1,0,80,0,0
179394,350.877192982456,4,1,0,80,1,0
182201,348.837209302326,4,1,0,80,1,0
182331,-99.009900990099,4,1,0,80,0,0
182506,-98.0392156862745,4,1,0,80,0,0
182680,-97.0873786407767,4,1,0,80,0,0
182855,-96.1538461538461,4,1,0,80,0,0
183029,-95.2380952380952,4,1,0,80,0,0
183203,-94.3396226415094,4,1,0,80,0,0
183378,-93.4579439252336,4,1,0,80,0,0
183552,-92.5925925925926,4,1,0,80,0,0
183727,-91.743119266055,4,1,0,80,0,0
183901,-90.9090909090909,4,1,0,80,0,0
184076,-90.0900900900901,4,1,0,80,0,0
184250,-89.2857142857143,4,1,0,80,0,0
184424,-88.4955752212389,4,1,0,80,0,0
184599,-87.719298245614,4,1,0,80,0,0
184773,-86.9565217391304,4,1,0,80,0,0
184991,346.820809248555,4,1,0,80,1,0
184991,-86.2068965517241,4,1,0,80,0,0
185121,-85.4700854700855,4,1,0,80,0,0
185294,-84.7457627118644,4,1,0,80,0,0
185467,-84.0336134453781,4,1,0,80,0,0
185641,-83.3333333333333,4,1,0,80,0,0
185713,-86.2068965517241,4,1,0,80,0,0
185771,-89.2857142857143,4,1,0,80,0,0
185829,-92.5925925925926,4,1,0,80,0,0
185886,-95.2380952380952,4,1,0,80,0,0
185944,-98.0392156862745,4,1,0,80,0,0
186002,-100,4,1,0,80,0,0
186074,-102.040816326531,4,1,0,80,0,0
186161,-104.166666666667,4,1,0,80,0,0
186248,-106.382978723404,4,1,0,80,0,0
186334,-108.695652173913,4,1,0,80,0,0
186595,-111.111111111111,4,1,0,80,0,0
187722,-90.9090909090908,4,1,0,80,0,0
187765,346.820809248555,4,1,0,80,1,1
187765,-90.9090909090909,4,1,0,80,0,1
218415,-90.0900900900901,4,1,0,80,0,1
218588,-89.2857142857143,4,1,0,80,0,1
218762,-88.4955752212389,4,1,0,80,0,1
218935,-87.719298245614,4,1,0,80,0,1
219108,-86.9565217391304,4,1,0,80,0,1
219282,-86.2068965517241,4,1,0,80,0,1
219455,-85.4700854700855,4,1,0,80,0,1
219629,-84.7457627118644,4,1,0,80,0,1
219802,-84.0336134453781,4,1,0,80,0,1
219975,-83.3333333333333,4,1,0,80,0,1
220149,-82.6446280991736,4,1,0,80,0,1
220322,-81.9672131147541,4,1,0,80,0,1
221059,-81.9672131147541,4,1,0,80,0,0
221363,-100,4,1,0,80,0,0
221811,-101.010101010101,4,1,0,80,0,0
221926,-102.040816326531,4,1,0,80,0,0
222042,-103.092783505155,4,1,0,80,0,0
222158,-104.166666666667,4,1,0,80,0,0
222273,-105.263157894737,4,1,0,80,0,0
222389,-106.382978723404,4,1,0,80,0,0
222504,-107.52688172043,4,1,0,80,0,0
222620,-108.695652173913,4,1,0,80,0,0
222967,-107.52688172043,4,1,0,80,0,0
223082,-106.382978723404,4,1,0,80,0,0
223198,-105.263157894737,4,1,0,80,0,0
223314,-104.166666666667,4,1,0,80,0,0
223429,-103.092783505155,4,1,0,80,0,0
223545,-102.040816326531,4,1,0,80,0,0
223660,-101.010101010101,4,1,0,80,0,0
223776,-100,4,1,0,80,0,0
224585,-101.010101010101,4,1,0,80,0,0
224701,-102.040816326531,4,1,0,80,0,0
224817,-103.092783505155,4,1,0,80,0,0
225004,-104.166666666667,4,1,0,80,0,0
225265,-103.092783505155,4,1,0,80,0,0
225351,-102.040816326531,4,1,0,80,0,0
225438,-101.010101010101,4,1,0,80,0,0
225525,-100,4,1,0,80,0,0
225611,-99.009900990099,4,1,0,80,0,0
225698,-98.0392156862745,4,1,0,80,0,0
225785,-97.0873786407767,4,1,0,80,0,0
225871,-96.1538461538461,4,1,0,80,0,0
225958,-95.2380952380952,4,1,0,80,0,0
226132,-93.4579439252336,4,1,0,80,0,0
226218,-92.5925925925926,4,1,0,80,0,0
226565,-100,4,1,0,80,0,0
227013,-101.010101010101,4,1,0,80,0,0
227129,-102.040816326531,4,1,0,80,0,0
227244,-103.092783505155,4,1,0,80,0,0
227360,-104.166666666667,4,1,0,80,0,0
227475,-105.263157894737,4,1,0,80,0,0
227591,-106.382978723404,4,1,0,80,0,0
228054,-105.263157894737,4,1,0,80,0,0
228169,-104.166666666667,4,1,0,80,0,0
228285,-103.092783505155,4,1,0,80,0,0
228386,-102.040816326531,4,1,0,80,0,0
228473,-101.010101010101,4,1,0,80,0,0
228559,-100,4,1,0,80,0,0
228646,-99.009900990099,4,1,0,80,0,0
228993,-98.0392156862745,4,1,0,80,0,0
229080,-97.0873786407767,4,1,0,80,0,0
229166,-96.1538461538461,4,1,0,80,0,0
229253,-95.2380952380952,4,1,0,80,0,0
229340,-94.3396226415094,4,1,0,80,0,0
230048,-95.2380952380952,4,1,0,80,0,0
230163,-96.1538461538461,4,1,0,80,0,0
230293,-97.0873786407767,4,1,0,80,0,0
230452,-98.0392156862745,4,1,0,80,0,0
230568,-99.009900990099,4,1,0,80,0,0
230727,-100,4,1,0,80,0,0
232634,-101.010101010101,4,1,0,80,0,0
232808,-102.040816326531,4,1,0,80,0,0
232981,-103.092783505155,4,1,0,80,0,0
233155,-104.166666666667,4,1,0,80,0,0
234629,-103.092783505155,4,1,0,80,0,0
234715,-102.040816326531,4,1,0,80,0,0
234802,-101.010101010101,4,1,0,80,0,0
234889,-100,4,1,0,80,0,0
234975,-101.010101010101,4,1,0,80,0,0
235062,-102.040816326531,4,1,0,80,0,0
235149,-103.092783505155,4,1,0,80,0,0
235236,-104.166666666667,4,1,0,80,0,0
235337,-105.263157894737,4,1,0,80,0,0
235452,-106.382978723404,4,1,0,80,0,0
235568,-107.52688172043,4,1,0,80,0,0
235684,-108.695652173913,4,1,0,80,0,0
235799,-109.89010989011,4,1,0,80,0,0
235915,-111.111111111111,4,1,0,80,0,0
236001,-109.89010989011,4,1,0,80,0,0
236059,-108.695652173913,4,1,0,80,0,0
236117,-107.52688172043,4,1,0,80,0,0
236175,-106.382978723404,4,1,0,80,0,0
236233,-105.263157894737,4,1,0,80,0,0
236291,-104.166666666667,4,1,0,80,0,0
237056,-103.092783505155,4,1,0,80,0,0
237143,-102.040816326531,4,1,0,80,0,0
237230,-101.010101010101,4,1,0,80,0,0
237317,-100,4,1,0,80,0,0
237765,-101.010101010101,4,1,0,80,0,0
237880,-102.040816326531,4,1,0,80,0,0
237996,-103.092783505155,4,1,0,80,0,0
238111,-104.166666666667,4,1,0,80,0,0
238227,-105.263157894737,4,1,0,80,0,0
238343,-106.382978723404,4,1,0,80,0,0
238791,-105.263157894737,4,1,0,80,0,0
238964,-103.092783505155,4,1,0,80,0,0
239051,-102.040816326531,4,1,0,80,0,0
239224,-100,4,1,0,80,0,0
239311,-99.009900990099,4,1,0,80,0,0
239397,-98.0392156862745,4,1,0,80,0,0
239484,-97.0873786407767,4,1,0,80,0,0
239658,-95.2380952380952,4,1,0,80,0,0
239744,-94.3396226415094,4,1,0,80,0,0
239918,-98.0392156862745,4,1,0,80,0,0
240091,-101.010101010101,4,1,0,80,0,0
240265,-103.092783505155,4,1,0,80,0,0
240438,-94.3396226415094,4,1,0,80,0,0
241146,-95.2380952380952,4,1,0,80,0,0
241262,-96.1538461538461,4,1,0,80,0,0
241392,-97.0873786407767,4,1,0,80,0,0
241551,-98.0392156862745,4,1,0,80,0,0
241666,-99.009900990099,4,1,0,80,0,0
241825,-100,4,1,0,80,0,0
244007,-101.010101010101,4,1,0,80,0,0
244123,-102.040816326531,4,1,0,80,0,0
244238,-103.092783505155,4,1,0,80,0,0
244354,-104.166666666667,4,1,0,80,0,0
244470,-105.263157894737,4,1,0,80,0,0
244585,-106.382978723404,4,1,0,80,0,0
244701,-107.52688172043,4,1,0,80,0,0
244817,-108.695652173913,4,1,0,80,0,0
245163,-107.52688172043,4,1,0,80,0,0
245279,-106.382978723404,4,1,0,80,0,0
245395,-105.263157894737,4,1,0,80,0,0
245510,-104.166666666667,4,1,0,80,0,0
245626,-103.092783505155,4,1,0,80,0,0
245814,-102.040816326531,4,1,0,80,0,0
246767,-103.092783505155,4,1,0,80,0,0
246854,-104.166666666667,4,1,0,80,0,0
246941,-105.263157894737,4,1,0,80,0,0
247028,-106.382978723404,4,1,0,80,0,0
247114,-107.52688172043,4,1,0,80,0,0
247201,-108.695652173913,4,1,0,80,0,0
247288,-109.89010989011,4,1,0,80,0,0
247374,-111.111111111111,4,1,0,80,0,0
247793,-109.89010989011,4,1,0,80,0,0
247851,-108.695652173913,4,1,0,80,0,0
247909,-107.52688172043,4,1,0,80,0,0
247981,-106.382978723404,4,1,0,80,0,0
248068,-105.263157894737,4,1,0,80,0,0
248155,-104.166666666667,4,1,0,80,0,0
248241,-103.092783505155,4,1,0,80,0,0
248328,-102.040816326531,4,1,0,80,0,0
248415,-101.010101010101,4,1,0,80,0,0
248762,-100,4,1,0,80,0,0
249903,-101.010101010101,4,1,0,80,0,0
250019,-102.040816326531,4,1,0,80,0,0
250134,-103.092783505155,4,1,0,80,0,0
250250,-104.166666666667,4,1,0,80,0,0
250366,-105.263157894737,4,1,0,80,0,0
250481,-106.382978723404,4,1,0,80,0,0
250756,-105.263157894737,4,1,0,80,0,0
250843,-104.166666666667,4,1,0,80,0,0
250944,-103.092783505155,4,1,0,80,0,0
251059,-102.040816326531,4,1,0,80,0,0
251189,-101.010101010101,4,1,0,80,0,0
251276,-100,4,1,0,80,0,0
251363,-99.009900990099,4,1,0,80,0,0
251449,-98.0392156862745,4,1,0,80,0,0
251536,-97.0873786407767,4,1,0,80,0,0
251710,-96.1538461538461,4,1,0,80,0,0
251883,-95.2380952380952,4,1,0,80,0,0
252056,-94.3396226415094,4,1,0,80,0,0
252244,-95.2380952380952,4,1,0,80,0,0
252360,-96.1538461538461,4,1,0,80,0,0
252490,-97.0873786407767,4,1,0,80,0,0
252649,-98.0392156862745,4,1,0,80,0,0
252765,-99.009900990099,4,1,0,80,0,0
252923,-100,4,1,0,80,0,0
254759,-101.010101010101,4,1,0,80,0,0
254874,-102.040816326531,4,1,0,80,0,0
254990,-103.092783505155,4,1,0,80,0,0
255106,-104.166666666667,4,1,0,80,0,0
255221,-105.263157894737,4,1,0,80,0,0
255337,-106.382978723404,4,1,0,80,0,0
255799,-105.263157894737,4,1,0,80,0,0
255915,-104.166666666667,4,1,0,80,0,0
256030,-103.092783505155,4,1,0,80,0,0
256825,-102.040816326531,4,1,0,80,0,0
256912,-101.010101010101,4,1,0,80,0,0
256999,-100,4,1,0,80,0,0
257085,-99.009900990099,4,1,0,80,0,0
257172,-100,4,1,0,80,0,0
257259,-101.010101010101,4,1,0,80,0,0
257345,-102.040816326531,4,1,0,80,0,0
257432,-103.092783505155,4,1,0,80,0,0
257606,-104.166666666667,4,1,0,80,0,0
257779,-105.263157894737,4,1,0,80,0,0
257952,-106.382978723404,4,1,0,80,0,0
258198,-105.263157894737,4,1,0,80,0,0
258256,-104.166666666667,4,1,0,80,0,0
258314,-103.092783505155,4,1,0,80,0,0
258371,-102.040816326531,4,1,0,80,0,0
258429,-101.010101010101,4,1,0,80,0,0
258487,-100,4,1,0,80,0,0
259253,-99.009900990099,4,1,0,80,0,0
259340,-98.0392156862745,4,1,0,80,0,0
259426,-97.0873786407767,4,1,0,80,0,0
259513,-96.1538461538461,4,1,0,80,0,0
259961,-97.0873786407767,4,1,0,80,0,0
260077,-98.0392156862745,4,1,0,80,0,0
260192,-99.009900990099,4,1,0,80,0,0
260308,-100,4,1,0,80,0,0
260423,-101.010101010101,4,1,0,80,0,0
260539,-102.040816326531,4,1,0,80,0,0
260900,-106.382978723404,4,1,0,80,0,0
260987,-105.263157894737,4,1,0,80,0,0
261160,-103.092783505155,4,1,0,80,0,0
261247,-102.040816326531,4,1,0,80,0,0
261421,-100,4,1,0,80,0,0
261507,-99.009900990099,4,1,0,80,0,0
261594,-98.0392156862745,4,1,0,80,0,0
261681,-97.0873786407767,4,1,0,80,0,0
261854,-95.2380952380952,4,1,0,80,0,0
261941,-94.3396226415094,4,1,0,80,0,0
262114,-98.0392156862745,4,1,0,80,0,0
262288,-101.010101010101,4,1,0,80,0,0
262461,-103.092783505155,4,1,0,80,0,0
262634,-94.3396226415094,4,1,0,80,0,0
263343,-95.2380952380952,4,1,0,80,0,0
263458,-96.1538461538461,4,1,0,80,0,0
263588,-97.0873786407767,4,1,0,80,0,0
263747,-98.0392156862745,4,1,0,80,0,0
263863,-99.009900990099,4,1,0,80,0,0
264022,-100,4,1,0,80,0,0
264195,-98.0392156862745,4,1,0,80,0,0
264282,-97.0873786407767,4,1,0,80,0,0
264369,-96.1538461538461,4,1,0,80,0,0
264542,-94.3396226415094,4,1,0,80,0,0
264715,-92.5925925925926,4,1,0,80,0,0
264889,-90.9090909090909,4,1,0,80,0,0
264975,-90.0900900900901,4,1,0,80,0,0
265062,-89.2857142857143,4,1,0,80,0,0
265236,-86.9565217391304,4,1,0,80,0,0
265409,-83.3333333333333,4,1,0,80,0,0
265756,-90.9090909090909,4,1,0,80,0,0
275120,-100,4,1,0,80,0,0
275293,-98.0392156862745,4,1,0,80,0,0
275380,-97.0873786407767,4,1,0,80,0,0
275467,-96.1538461538461,4,1,0,80,0,0
275640,-94.3396226415094,4,1,0,80,0,0
275814,-92.5925925925926,4,1,0,80,0,0
275987,-90.9090909090909,4,1,0,80,0,0
276074,-90.0900900900901,4,1,0,80,0,0
276160,-89.2857142857143,4,1,0,80,0,0
276334,-86.9565217391304,4,1,0,80,0,0
276507,-83.3333333333333,4,1,0,80,0,0
276854,-90.9090909090909,4,1,0,80,0,0
286218,-100,4,1,0,80,0,0
286392,-98.0392156862745,4,1,0,80,0,0
286478,-97.0873786407767,4,1,0,80,0,0
286565,-96.1538461538461,4,1,0,80,0,0
286738,-94.3396226415094,4,1,0,80,0,0
286912,-92.5925925925926,4,1,0,80,0,0
287085,-90.9090909090909,4,1,0,80,0,0
287172,-90.0900900900901,4,1,0,80,0,0
287259,-89.2857142857143,4,1,0,80,0,0
287432,-86.9565217391304,4,1,0,80,0,0
287606,-83.3333333333333,4,1,0,80,0,0
287952,-90.9090909090909,4,1,0,80,0,0
297317,-100,4,1,0,80,0,0
297490,-98.0392156862745,4,1,0,80,0,0
297577,-97.0873786407767,4,1,0,80,0,0
297663,-96.1538461538461,4,1,0,80,0,0
297837,-94.3396226415094,4,1,0,80,0,0
298010,-92.5925925925926,4,1,0,80,0,0
298184,-90.9090909090909,4,1,0,80,0,0
298270,-90.0900900900901,4,1,0,80,0,0
298357,-89.2857142857143,4,1,0,80,0,0
298530,-86.9565217391304,4,1,0,80,0,0
298704,-83.3333333333333,4,1,0,80,0,0
299051,-90.9090909090909,4,1,0,80,0,0
307129,-91.743119266055,4,1,0,80,0,0
307244,-92.5925925925926,4,1,0,80,0,0
307360,-93.4579439252336,4,1,0,80,0,0
307475,-94.3396226415094,4,1,0,80,0,0
307591,-95.2380952380952,4,1,0,80,0,0
307707,-96.1538461538461,4,1,0,80,0,0
307895,-97.0873786407767,4,1,0,80,0,0
308068,-98.0392156862745,4,1,0,80,0,0
308415,-100,4,1,0,80,0,0
308762,-98.0392156862745,4,1,0,80,0,0
308935,-96.1538461538461,4,1,0,80,0,0
309022,-95.2380952380952,4,1,0,80,0,0
309108,-94.3396226415094,4,1,0,80,0,0
309181,-93.4579439252336,4,1,0,80,0,0
309238,-92.5925925925926,4,1,0,80,0,0
309296,-91.743119266055,4,1,0,80,0,0
309347,-90.9090909090909,4,1,0,80,0,0
309390,-90.0900900900901,4,1,0,80,0,0
309434,-89.2857142857143,4,1,0,80,0,0
309477,-88.4955752212389,4,1,0,80,0,0
309802,-111.111111111111,4,1,0,80,0,0
311233,-90.9090909090909,4,1,0,80,0,1
352981,-90.0900900900901,4,1,0,80,0,1
353155,-89.2857142857143,4,1,0,80,0,1
353328,-88.4955752212389,4,1,0,80,0,1
353501,-87.719298245614,4,1,0,80,0,1
353675,-86.9565217391304,4,1,0,80,0,1
353848,-86.2068965517241,4,1,0,80,0,1
354022,-85.4700854700855,4,1,0,80,0,1
354195,-84.7457627118644,4,1,0,80,0,1
354369,-84.0336134453781,4,1,0,80,0,1
354542,-83.3333333333333,4,1,0,80,0,1
354715,-82.6446280991736,4,1,0,80,0,1
354889,-81.9672131147541,4,1,0,80,0,1
355062,-81.3008130081301,4,1,0,80,0,1
355236,-80.6451612903226,4,1,0,80,0,1
355409,-80,4,1,0,80,0,1
355582,-79.3650793650794,4,1,0,80,0,1
355756,-78.7401574803149,4,1,0,80,0,1
355929,-78.125,4,1,0,80,0,1
356103,-77.5193798449612,4,1,0,80,0,1
356276,-76.9230769230769,4,1,0,80,0,1
357013,-76.9230769230769,4,1,0,80,0,0
357707,-76.9230769230769,4,1,0,70,0,0
358400,-76.9230769230769,4,1,0,60,0,0
359094,-76.9230769230769,4,1,0,50,0,0
359788,-76.9230769230769,4,1,0,40,0,0
360481,-76.9230769230769,4,1,0,30,0,0

[HitObjects]
256,192,2176,5,4,0:0:0:0:
256,192,2352,1,0,0:0:0:0:
256,192,2528,1,8,0:0:0:0:
256,192,2705,1,0,0:0:0:0:
256,192,2793,1,0,0:0:0:0:
256,192,2881,1,0,0:0:0:0:
256,192,3058,1,0,0:0:0:0:
256,192,3234,1,8,0:0:0:0:
256,192,3411,1,0,0:0:0:0:
256,192,3499,1,0,0:0:0:0:
256,192,3587,1,0,0:0:0:0:
256,192,3764,1,0,0:0:0:0:
256,192,3940,1,8,0:0:0:0:
256,192,4117,1,8,0:0:0:0:
256,192,4205,1,8,0:0:0:0:
256,192,4293,1,0,0:0:0:0:
256,192,4470,1,0,0:0:0:0:
256,192,4558,1,0,0:0:0:0:
256,192,4646,1,8,0:0:0:0:
256,192,4823,1,8,0:0:0:0:
256,192,4999,1,0,0:0:0:0:
256,192,5175,1,0,0:0:0:0:
256,192,5352,1,8,0:0:0:0:
256,192,5528,1,0,0:0:0:0:
256,192,5617,1,0,0:0:0:0:
256,192,5705,1,0,0:0:0:0:
256,192,5881,1,0,0:0:0:0:
256,192,6058,1,8,0:0:0:0:
256,192,6234,1,0,0:0:0:0:
256,192,6323,1,0,0:0:0:0:
256,192,6411,1,0,0:0:0:0:
256,192,6587,1,0,0:0:0:0:
256,192,6764,1,8,0:0:0:0:
256,192,6940,1,8,0:0:0:0:
256,192,7028,1,8,0:0:0:0:
256,192,7117,1,0,0:0:0:0:
256,192,7293,1,0,0:0:0:0:
256,192,7381,1,0,0:0:0:0:
256,192,7470,1,8,0:0:0:0:
256,192,7646,1,0,0:0:0:0:
256,192,7823,1,0,0:0:0:0:
256,192,7999,1,0,0:0:0:0:
256,192,8175,1,8,0:0:0:0:
256,192,8352,1,0,0:0:0:0:
256,192,8440,1,0,0:0:0:0:
256,192,8528,1,0,0:0:0:0:
256,192,8705,1,0,0:0:0:0:
256,192,8881,1,8,0:0:0:0:
256,192,9058,1,0,0:0:0:0:
256,192,9146,1,8,0:0:0:0:
256,192,9234,1,0,0:0:0:0:
256,192,9323,1,8,0:0:0:0:
256,192,9411,1,0,0:0:0:0:
256,192,9587,1,8,0:0:0:0:
256,192,9764,1,8,0:0:0:0:
256,192,9852,1,8,0:0:0:0:
256,192,9940,1,0,0:0:0:0:
256,192,10117,1,0,0:0:0:0:
256,192,10205,1,0,0:0:0:0:
256,192,10293,1,8,0:0:0:0:
256,192,10470,1,8,0:0:0:0:
256,192,10646,1,0,0:0:0:0:
256,192,10823,1,0,0:0:0:0:
256,192,10999,1,8,0:0:0:0:
256,192,11175,1,0,0:0:0:0:
256,192,11264,1,0,0:0:0:0:
256,192,11352,1,0,0:0:0:0:
256,192,11528,1,0,0:0:0:0:
256,192,11705,1,8,0:0:0:0:
256,192,11881,1,0,0:0:0:0:
256,192,11970,1,8,0:0:0:0:
256,192,12058,1,0,0:0:0:0:
256,192,12146,1,8,0:0:0:0:
256,192,12234,1,0,0:0:0:0:
256,192,12411,1,8,0:0:0:0:
256,192,12587,1,0,0:0:0:0:
256,192,12675,1,8,0:0:0:0:
256,192,12764,1,0,0:0:0:0:
256,192,12881,1,0,0:0:0:0:
256,192,12999,1,0,0:0:0:0:
256,192,13117,1,8,0:0:0:0:
256,192,13293,1,8,0:0:0:0:
256,192,13352,1,8,0:0:0:0:
256,192,13411,1,8,0:0:0:0:
256,192,13470,1,0,0:0:0:0:
256,192,13646,1,0,0:0:0:0:
256,192,13823,1,12,0:0:0:0:
256,192,13999,1,0,0:0:0:0:
256,192,14087,1,0,0:0:0:0:
256,192,14175,1,0,0:0:0:0:
256,192,14352,1,0,0:0:0:0:
256,192,14528,1,12,0:0:0:0:
256,192,14705,1,0,0:0:0:0:
256,192,14793,1,0,0:0:0:0:
256,192,14881,1,0,0:0:0:0:
256,192,15058,1,0,0:0:0:0:
256,192,15234,1,12,0:0:0:0:
256,192,15411,1,0,0:0:0:0:
256,192,15499,1,0,0:0:0:0:
256,192,15587,1,0,0:0:0:0:
256,192,15764,1,0,0:0:0:0:
256,192,15940,1,8,0:0:0:0:
256,192,16028,1,8,0:0:0:0:
256,192,16117,1,0,0:0:0:0:
256,192,16205,1,8,0:0:0:0:
256,192,16293,1,0,0:0:0:0:
256,192,16470,1,0,0:0:0:0:
256,192,16646,1,12,0:0:0:0:
256,192,16823,1,0,0:0:0:0:
256,192,16911,1,0,0:0:0:0:
256,192,16999,1,0,0:0:0:0:
256,192,17176,1,0,0:0:0:0:
256,192,17352,1,12,0:0:0:0:
256,192,17529,1,0,0:0:0:0:
256,192,17617,1,0,0:0:0:0:
256,192,17705,1,0,0:0:0:0:
256,192,17882,1,0,0:0:0:0:
256,192,18058,1,12,0:0:0:0:
256,192,18235,1,0,0:0:0:0:
256,192,18323,1,0,0:0:0:0:
256,192,18411,5,0,0:0:0:0:
256,192,18588,1,0,0:0:0:0:
256,192,18764,1,12,0:0:0:0:
256,192,18940,1,0,0:0:0:0:
256,192,19117,1,8,0:0:0:0:
256,192,19205,1,0,0:0:0:0:
256,192,19293,1,0,0:0:0:0:
256,192,19381,1,0,0:0:0:0:
256,192,19470,1,8,0:0:0:0:
256,192,19558,1,0,0:0:0:0:
256,192,19646,1,0,0:0:0:0:
256,192,19734,1,0,0:0:0:0:
256,192,19823,1,8,0:0:0:0:
256,192,19911,1,0,0:0:0:0:
256,192,19999,1,8,0:0:0:0:
256,192,20087,1,8,0:0:0:0:
256,192,20175,1,0,0:0:0:0:
256,192,20264,1,8,0:0:0:0:
256,192,20352,1,8,0:0:0:0:
256,192,20440,1,0,0:0:0:0:
256,192,20528,1,8,0:0:0:0:
256,192,20617,1,0,0:0:0:0:
256,192,20705,1,0,0:0:0:0:
256,192,20793,1,0,0:0:0:0:
256,192,20881,1,8,0:0:0:0:
256,192,20970,1,0,0:0:0:0:
256,192,21058,1,0,0:0:0:0:
256,192,21146,1,0,0:0:0:0:
256,192,21234,1,8,0:0:0:0:
256,192,21323,1,0,0:0:0:0:
256,192,21411,1,8,0:0:0:0:
256,192,21499,1,8,0:0:0:0:
256,192,21587,1,0,0:0:0:0:
256,192,21675,1,0,0:0:0:0:
256,192,21764,1,8,0:0:0:0:
256,192,21852,1,0,0:0:0:0:
256,192,21940,1,8,0:0:0:0:
256,192,22028,1,0,0:0:0:0:
256,192,22117,1,0,0:0:0:0:
256,192,22205,1,0,0:0:0:0:
256,192,22293,1,8,0:0:0:0:
256,192,22381,1,0,0:0:0:0:
256,192,22470,1,0,0:0:0:0:
256,192,22558,1,0,0:0:0:0:
256,192,22646,1,8,0:0:0:0:
256,192,22705,1,8,0:0:0:0:
256,192,22764,1,8,0:0:0:0:
256,192,22823,1,0,0:0:0:0:
256,192,22881,1,0,0:0:0:0:
256,192,22940,1,0,0:0:0:0:
256,192,22999,1,8,0:0:0:0:
256,192,23087,1,0,0:0:0:0:
256,192,23175,1,8,0:0:0:0:
256,192,23264,1,8,0:0:0:0:
256,192,23352,1,0,0:0:0:0:
256,192,23617,1,8,0:0:0:0:
256,192,23881,1,0,0:0:0:0:
256,192,24146,1,8,0:0:0:0:
256,192,24411,1,8,0:0:0:0:
256,192,24587,1,8,0:0:0:0:
256,192,24764,1,4,0:0:0:0:
256,192,24940,1,0,0:0:0:0:
256,192,25028,1,0,0:0:0:0:
256,192,25117,1,8,0:0:0:0:
256,192,25293,1,0,0:0:0:0:
256,192,25381,1,0,0:0:0:0:
256,192,25470,1,0,0:0:0:0:
256,192,25646,1,0,0:0:0:0:
256,192,25734,1,0,0:0:0:0:
256,192,25823,1,8,0:0:0:0:
256,192,25999,1,0,0:0:0:0:
256,192,26175,1,0,0:0:0:0:
256,192,26352,1,0,0:0:0:0:
256,192,26440,1,0,0:0:0:0:
256,192,26528,1,8,0:0:0:0:
256,192,26705,1,0,0:0:0:0:
256,192,26793,1,0,0:0:0:0:
256,192,26881,1,0,0:0:0:0:
256,192,27058,1,0,0:0:0:0:
256,192,27146,1,0,0:0:0:0:
256,192,27234,1,8,0:0:0:0:
256,192,27411,1,8,0:0:0:0:
256,192,27587,1,0,0:0:0:0:
256,192,27764,1,0,0:0:0:0:
256,192,27852,1,0,0:0:0:0:
256,192,27941,1,8,0:0:0:0:
256,192,28117,1,0,0:0:0:0:
256,192,28205,1,0,0:0:0:0:
256,192,28294,1,0,0:0:0:0:
256,192,28470,1,0,0:0:0:0:
256,192,28558,1,0,0:0:0:0:
256,192,28647,1,8,0:0:0:0:
256,192,28823,1,0,0:0:0:0:
256,192,28999,1,0,0:0:0:0:
256,192,29176,1,0,0:0:0:0:
256,192,29264,1,0,0:0:0:0:
256,192,29352,1,8,0:0:0:0:
256,192,29528,1,0,0:0:0:0:
256,192,29617,1,0,0:0:0:0:
256,192,29705,1,0,0:0:0:0:
256,192,29882,1,0,0:0:0:0:
256,192,29970,1,0,0:0:0:0:
256,192,30058,1,8,0:0:0:0:
256,192,30235,1,8,0:0:0:0:
256,192,30411,1,0,0:0:0:0:
256,192,30587,1,0,0:0:0:0:
256,192,30675,1,0,0:0:0:0:
256,192,30764,1,8,0:0:0:0:
256,192,30940,1,0,0:0:0:0:
256,192,31028,1,0,0:0:0:0:
256,192,31205,1,0,0:0:0:0:
256,192,31293,1,0,0:0:0:0:
256,192,31470,1,8,0:0:0:0:
256,192,31646,1,0,0:0:0:0:
256,192,31823,1,0,0:0:0:0:
256,192,31999,1,0,0:0:0:0:
256,192,32087,1,0,0:0:0:0:
256,192,32175,1,8,0:0:0:0:
256,192,32352,1,0,0:0:0:0:
256,192,32440,1,0,0:0:0:0:
256,192,32617,1,0,0:0:0:0:
256,192,32705,1,0,0:0:0:0:
256,192,32881,1,8,0:0:0:0:
256,192,33058,1,8,0:0:0:0:
256,192,33234,1,0,0:0:0:0:
256,192,33411,1,0,0:0:0:0:
256,192,33499,1,0,0:0:0:0:
256,192,33588,1,8,0:0:0:0:
256,192,33764,1,0,0:0:0:0:
256,192,33852,1,0,0:0:0:0:
256,192,34028,1,0,0:0:0:0:
256,192,34117,1,0,0:0:0:0:
256,192,34294,1,8,0:0:0:0:
256,192,34470,1,0,0:0:0:0:
256,192,34647,1,0,0:0:0:0:
256,192,34823,1,0,0:0:0:0:
256,192,34911,1,0,0:0:0:0:
256,192,34999,1,8,0:0:0:0:
256,192,35175,1,0,0:0:0:0:
256,192,35264,1,8,0:0:0:0:
256,192,35352,1,0,0:0:0:0:
256,192,35470,1,0,0:0:0:0:
256,192,35587,1,0,0:0:0:0:
256,192,35705,1,8,0:0:0:0:
256,192,35881,1,8,0:0:0:0:
256,192,35940,1,8,0:0:0:0:
256,192,35999,1,8,0:0:0:0:
256,192,36058,1,0,0:0:0:0:
256,192,36234,1,0,0:0:0:0:
256,192,36411,1,12,0:0:0:0:
256,192,36587,1,0,0:0:0:0:
256,192,36675,1,0,0:0:0:0:
256,192,36763,1,0,0:0:0:0:
256,192,36940,1,0,0:0:0:0:
256,192,37116,1,12,0:0:0:0:
256,192,37293,1,0,0:0:0:0:
256,192,37381,1,0,0:0:0:0:
256,192,37469,1,0,0:0:0:0:
256,192,37646,1,0,0:0:0:0:
256,192,37822,1,12,0:0:0:0:
256,192,37999,1,0,0:0:0:0:
256,192,38087,1,0,0:0:0:0:
256,192,38175,1,0,0:0:0:0:
256,192,38352,1,0,0:0:0:0:
256,192,38528,1,8,0:0:0:0:
256,192,38616,1,8,0:0:0:0:
256,192,38705,1,0,0:0:0:0:
256,192,38793,1,8,0:0:0:0:
256,192,38881,1,0,0:0:0:0:
256,192,39058,1,0,0:0:0:0:
256,192,39234,1,12,0:0:0:0:
256,192,39411,1,0,0:0:0:0:
256,192,39499,1,0,0:0:0:0:
256,192,39587,1,0,0:0:0:0:
256,192,39764,1,0,0:0:0:0:
256,192,39940,1,12,0:0:0:0:
256,192,40117,1,0,0:0:0:0:
256,192,40205,1,0,0:0:0:0:
256,192,40293,1,0,0:0:0:0:
256,192,40470,1,0,0:0:0:0:
256,192,40646,1,12,0:0:0:0:
256,192,40823,1,0,0:0:0:0:
256,192,40911,1,0,0:0:0:0:
256,192,40999,5,0,0:0:0:0:
256,192,41176,1,0,0:0:0:0:
256,192,41352,1,12,0:0:0:0:
256,192,41528,1,0,0:0:0:0:
256,192,41705,1,8,0:0:0:0:
256,192,41793,1,0,0:0:0:0:
256,192,41881,1,0,0:0:0:0:
256,192,41969,1,0,0:0:0:0:
256,192,42058,1,8,0:0:0:0:
256,192,42146,1,0,0:0:0:0:
256,192,42234,1,0,0:0:0:0:
256,192,42322,1,0,0:0:0:0:
256,192,42411,1,8,0:0:0:0:
256,192,42499,1,0,0:0:0:0:
256,192,42587,1,0,0:0:0:0:
256,192,42675,1,0,0:0:0:0:
256,192,42763,1,8,0:0:0:0:
256,192,42852,1,8,0:0:0:0:
256,192,42940,1,8,0:0:0:0:
256,192,43028,1,0,0:0:0:0:
256,192,43116,1,8,0:0:0:0:
256,192,43205,1,0,0:0:0:0:
256,192,43293,1,0,0:0:0:0:
256,192,43381,1,0,0:0:0:0:
256,192,43469,1,8,0:0:0:0:
256,192,43558,1,8,0:0:0:0:
256,192,43646,1,8,0:0:0:0:
256,192,43734,1,0,0:0:0:0:
256,192,43822,1,8,0:0:0:0:
256,192,43911,1,0,0:0:0:0:
256,192,43999,1,0,0:0:0:0:
256,192,44087,1,0,0:0:0:0:
256,192,44175,1,8,0:0:0:0:
256,192,44263,1,8,0:0:0:0:
256,192,44352,1,8,0:0:0:0:
256,192,44440,1,0,0:0:0:0:
256,192,44528,1,8,0:0:0:0:
256,192,44617,1,0,0:0:0:0:
256,192,44705,1,0,0:0:0:0:
256,192,44793,1,0,0:0:0:0:
256,192,44881,1,8,0:0:0:0:
256,192,44969,1,0,0:0:0:0:
256,192,45058,1,0,0:0:0:0:
256,192,45146,1,0,0:0:0:0:
256,192,45234,1,8,0:0:0:0:
256,192,45293,1,8,0:0:0:0:
256,192,45352,1,8,0:0:0:0:
256,192,45411,1,0,0:0:0:0:
256,192,45469,1,0,0:0:0:0:
256,192,45528,1,0,0:0:0:0:
256,192,45587,1,8,0:0:0:0:
256,192,45675,1,0,0:0:0:0:
256,192,45763,1,8,0:0:0:0:
256,192,45852,1,8,0:0:0:0:
256,192,45940,1,0,0:0:0:0:
256,192,46205,1,8,0:0:0:0:
256,192,46469,1,0,0:0:0:0:
256,192,46734,1,8,0:0:0:0:
256,192,46999,1,8,0:0:0:0:
256,192,47175,1,8,0:0:0:0:
256,192,47352,1,4,0:0:0:0:
256,192,47528,1,0,0:0:0:0:
256,192,47705,1,8,0:0:0:0:
256,192,47793,1,0,0:0:0:0:
256,192,47881,1,8,0:0:0:0:
256,192,47970,1,8,0:0:0:0:
256,192,48058,1,0,0:0:0:0:
256,192,48234,1,0,0:0:0:0:
256,192,48411,1,8,0:0:0:0:
256,192,48587,1,0,0:0:0:0:
256,192,48675,1,8,0:0:0:0:
256,192,48764,1,0,0:0:0:0:
256,192,48940,1,8,0:0:0:0:
256,192,49028,1,0,0:0:0:0:
256,192,49117,1,8,0:0:0:0:
256,192,49293,1,0,0:0:0:0:
256,192,49381,1,8,0:0:0:0:
256,192,49470,1,0,0:0:0:0:
256,192,49646,1,8,0:0:0:0:
256,192,49734,1,0,0:0:0:0:
256,192,49823,1,8,0:0:0:0:
256,192,49999,1,0,0:0:0:0:
256,192,50175,1,0,0:0:0:0:
256,192,50352,1,0,0:0:0:0:
256,192,50440,1,0,0:0:0:0:
256,192,50528,1,8,0:0:0:0:
256,192,50705,1,8,0:0:0:0:
256,192,50793,1,8,0:0:0:0:
256,192,50881,1,0,0:0:0:0:
256,192,51058,1,0,0:0:0:0:
256,192,51235,1,8,0:0:0:0:
256,192,51411,1,0,0:0:0:0:
256,192,51499,1,8,0:0:0:0:
256,192,51588,1,0,0:0:0:0:
256,192,51764,1,8,0:0:0:0:
256,192,51852,1,0,0:0:0:0:
256,192,51941,1,8,0:0:0:0:
256,192,52117,1,0,0:0:0:0:
256,192,52205,1,8,0:0:0:0:
256,192,52294,1,0,0:0:0:0:
256,192,52470,1,8,0:0:0:0:
256,192,52558,1,0,0:0:0:0:
256,192,52647,1,8,0:0:0:0:
256,192,52823,1,8,0:0:0:0:
256,192,52999,1,0,0:0:0:0:
256,192,53352,1,12,0:0:0:0:
256,192,53705,1,0,0:0:0:0:
256,192,53881,1,0,0:0:0:0:
256,192,54058,1,12,0:0:0:0:
256,192,54411,1,0,0:0:0:0:
256,192,54764,1,12,0:0:0:0:
256,192,55117,1,0,0:0:0:0:
256,192,55293,1,0,0:0:0:0:
256,192,55470,1,12,0:0:0:0:
256,192,55823,1,0,0:0:0:0:
256,192,56175,1,12,0:0:0:0:
256,192,56528,1,0,0:0:0:0:
256,192,56705,1,0,0:0:0:0:
256,192,56881,1,8,0:0:0:0:
256,192,57058,1,0,0:0:0:0:
256,192,57234,1,0,0:0:0:0:
256,192,57587,1,8,0:0:0:0:
256,192,57705,1,8,0:0:0:0:
256,192,57823,1,8,0:0:0:0:
256,192,57940,1,4,0:0:0:0:
256,192,58293,1,12,0:0:0:0:
256,192,58646,1,0,0:0:0:0:
256,192,58823,1,0,0:0:0:0:
256,192,58911,1,0,0:0:0:0:
256,192,58999,1,8,0:0:0:0:
256,192,59175,1,0,0:0:0:0:
256,192,59263,1,8,0:0:0:0:
256,192,59351,1,0,0:0:0:0:
256,192,59439,1,0,0:0:0:0:
256,192,59528,1,0,0:0:0:0:
256,192,59705,1,8,0:0:0:0:
256,192,59881,1,8,0:0:0:0:
256,192,59970,1,8,0:0:0:0:
256,192,60058,1,0,0:0:0:0:
256,192,60234,1,0,0:0:0:0:
256,192,60323,1,0,0:0:0:0:
256,192,60411,1,8,0:0:0:0:
256,192,60587,1,0,0:0:0:0:
256,192,60675,1,8,0:0:0:0:
256,192,60764,1,0,0:0:0:0:
256,192,60852,1,0,0:0:0:0:
256,192,60940,1,0,0:0:0:0:
256,192,61117,1,8,0:0:0:0:
256,192,61205,1,0,0:0:0:0:
256,192,61293,1,0,0:0:0:0:
256,192,61470,1,0,0:0:0:0:
256,192,61647,1,0,0:0:0:0:
256,192,61735,1,0,0:0:0:0:
256,192,61823,1,8,0:0:0:0:
256,192,61999,1,0,0:0:0:0:
256,192,62088,1,0,0:0:0:0:
256,192,62175,1,8,0:0:0:0:
256,192,62264,1,8,0:0:0:0:
256,192,62352,1,0,0:0:0:0:
256,192,62529,1,8,0:0:0:0:
256,192,62705,1,8,0:0:0:0:
256,192,62794,1,8,0:0:0:0:
256,192,62882,1,0,0:0:0:0:
256,192,63058,1,0,0:0:0:0:
256,192,63147,1,0,0:0:0:0:
256,192,63235,1,8,0:0:0:0:
256,192,63411,1,0,0:0:0:0:
256,192,63499,1,0,0:0:0:0:
256,192,63587,1,8,0:0:0:0:
256,192,63676,1,0,0:0:0:0:
256,192,63764,1,0,0:0:0:0:
256,192,63940,1,8,0:0:0:0:
256,192,64028,1,0,0:0:0:0:
256,192,64117,1,8,0:0:0:0:
256,192,64293,1,0,0:0:0:0:
256,192,64646,1,12,0:0:0:0:
256,192,64999,1,0,0:0:0:0:
256,192,65175,1,0,0:0:0:0:
256,192,65352,1,12,0:0:0:0:
256,192,65705,1,0,0:0:0:0:
256,192,66058,1,12,0:0:0:0:
256,192,66411,1,0,0:0:0:0:
256,192,66587,1,0,0:0:0:0:
256,192,66764,1,12,0:0:0:0:
256,192,67117,1,0,0:0:0:0:
256,192,67470,1,12,0:0:0:0:
256,192,67823,1,0,0:0:0:0:
256,192,67999,1,0,0:0:0:0:
256,192,68175,1,8,0:0:0:0:
256,192,68352,1,0,0:0:0:0:
256,192,68528,5,0,0:0:0:0:
256,192,68705,1,8,0:0:0:0:
256,192,68881,1,0,0:0:0:0:
256,192,69058,1,8,0:0:0:0:
256,192,69234,1,8,0:0:0:0:
256,192,69470,1,0,0:0:0:0:
256,192,69587,1,8,0:0:0:0:
256,192,69705,1,8,0:0:0:0:
256,192,69823,1,8,0:0:0:0:
256,192,69940,1,4,0:0:0:0:
256,192,70293,1,0,0:0:0:0:
256,192,70470,1,0,0:0:0:0:
256,192,70646,1,8,0:0:0:0:
256,192,70764,1,8,0:0:0:0:
256,192,70881,1,8,0:0:0:0:
256,192,70999,1,8,0:0:0:0:
256,192,71175,1,8,0:0:0:0:
256,192,71352,1,0,0:0:0:0:
256,192,71528,1,8,0:0:0:0:
256,192,71617,1,0,0:0:0:0:
256,192,71705,1,8,0:0:0:0:
256,192,71881,1,0,0:0:0:0:
256,192,72058,1,8,0:0:0:0:
256,192,72146,1,8,0:0:0:0:
256,192,72234,1,8,0:0:0:0:
256,192,72323,1,8,0:0:0:0:
256,192,72411,1,8,0:0:0:0:
256,192,72587,1,8,0:0:0:0:
256,192,72675,1,8,0:0:0:0:
256,192,72764,1,0,0:0:0:0:
256,192,72823,1,0,0:0:0:0:
256,192,72881,1,0,0:0:0:0:
256,192,72940,1,8,0:0:0:0:
256,192,72999,1,0,0:0:0:0:
256,192,73058,1,0,0:0:0:0:
256,192,73117,1,8,0:0:0:0:
256,192,73205,1,0,0:0:0:0:
256,192,73293,1,0,0:0:0:0:
256,192,73381,1,0,0:0:0:0:
256,192,73470,1,8,0:0:0:0:
256,192,73646,1,8,0:0:0:0:
256,192,73823,1,8,0:0:0:0:
256,192,73999,1,8,0:0:0:0:
256,192,74087,1,8,0:0:0:0:
256,192,74175,1,4,0:0:0:0:
256,192,74352,1,8,0:0:0:0:
256,192,74440,1,8,0:0:0:0:
256,192,74528,1,0,0:0:0:0:
256,192,74705,1,0,0:0:0:0:
256,192,74881,1,8,0:0:0:0:
256,192,74970,1,8,0:0:0:0:
256,192,75058,1,8,0:0:0:0:
256,192,75146,1,0,0:0:0:0:
256,192,75234,1,0,0:0:0:0:
256,192,75323,1,0,0:0:0:0:
256,192,75411,1,8,0:0:0:0:
256,192,75499,1,8,0:0:0:0:
256,192,75587,1,0,0:0:0:0:
256,192,75764,1,8,0:0:0:0:
256,192,75852,1,8,0:0:0:0:
256,192,75940,1,0,0:0:0:0:
256,192,76117,1,0,0:0:0:0:
256,192,76293,1,8,0:0:0:0:
256,192,76470,1,0,0:0:0:0:
256,192,76558,1,8,0:0:0:0:
256,192,76646,1,0,0:0:0:0:
256,192,76823,1,8,0:0:0:0:
256,192,76911,1,8,0:0:0:0:
256,192,76999,1,0,0:0:0:0:
256,192,77058,1,0,0:0:0:0:
256,192,77117,1,0,0:0:0:0:
256,192,77175,1,8,0:0:0:0:
256,192,77234,1,0,0:0:0:0:
256,192,77293,1,0,0:0:0:0:
256,192,77352,1,8,0:0:0:0:
256,192,77440,1,0,0:0:0:0:
256,192,77528,1,0,0:0:0:0:
256,192,77617,1,0,0:0:0:0:
256,192,77705,1,8,0:0:0:0:
256,192,77823,1,8,0:0:0:0:
256,192,77940,1,8,0:0:0:0:
256,192,78058,1,8,0:0:0:0:
256,192,78234,1,8,0:0:0:0:
256,192,78323,1,8,0:0:0:0:
256,192,78411,1,0,0:0:0:0:
256,192,78587,1,8,0:0:0:0:
256,192,78675,1,8,0:0:0:0:
256,192,78764,1,0,0:0:0:0:
256,192,78940,1,0,0:0:0:0:
256,192,79117,1,8,0:0:0:0:
256,192,79175,1,8,0:0:0:0:
256,192,79234,1,8,0:0:0:0:
256,192,79293,1,0,0:0:0:0:
256,192,79381,1,0,0:0:0:0:
256,192,79470,1,8,0:0:0:0:
256,192,79558,1,0,0:0:0:0:
256,192,79646,1,8,0:0:0:0:
256,192,79734,1,8,0:0:0:0:
256,192,79823,1,0,0:0:0:0:
256,192,79999,1,0,0:0:0:0:
256,192,80058,1,8,0:0:0:0:
256,192,80117,1,8,0:0:0:0:
256,192,80175,1,0,0:0:0:0:
256,192,80293,1,0,0:0:0:0:
256,192,80411,1,0,0:0:0:0:
256,192,80528,1,8,0:0:0:0:
256,192,80617,1,8,0:0:0:0:
256,192,80705,1,8,0:0:0:0:
256,192,80793,1,8,0:0:0:0:
256,192,80881,1,0,0:0:0:0:
256,192,81234,1,4,0:0:0:0:
256,192,81587,1,12,0:0:0:0:
256,192,81940,1,0,0:0:0:0:
256,192,82117,1,0,0:0:0:0:
256,192,82205,1,0,0:0:0:0:
256,192,82293,1,8,0:0:0:0:
256,192,82470,1,0,0:0:0:0:
256,192,82558,1,0,0:0:0:0:
256,192,82734,1,0,0:0:0:0:
256,192,82823,1,0,0:0:0:0:
256,192,82999,1,8,0:0:0:0:
256,192,83175,1,0,0:0:0:0:
256,192,83264,1,8,0:0:0:0:
256,192,83352,1,0,0:0:0:0:
256,192,83440,1,8,0:0:0:0:
256,192,83528,1,0,0:0:0:0:
256,192,83705,1,8,0:0:0:0:
256,192,83881,1,8,0:0:0:0:
256,192,83970,1,8,0:0:0:0:
256,192,84058,1,0,0:0:0:0:
256,192,84234,1,0,0:0:0:0:
256,192,84411,1,8,0:0:0:0:
256,192,84587,1,8,0:0:0:0:
256,192,84675,1,8,0:0:0:0:
256,192,84764,1,0,0:0:0:0:
256,192,84940,1,0,0:0:0:0:
256,192,85117,1,8,0:0:0:0:
256,192,85293,1,8,0:0:0:0:
256,192,85381,1,8,0:0:0:0:
256,192,85470,1,0,0:0:0:0:
256,192,85646,1,0,0:0:0:0:
256,192,85823,1,8,0:0:0:0:
256,192,85999,1,8,0:0:0:0:
256,192,86087,1,8,0:0:0:0:
256,192,86175,1,0,0:0:0:0:
256,192,86352,1,0,0:0:0:0:
256,192,86528,1,8,0:0:0:0:
256,192,86705,1,8,0:0:0:0:
256,192,86881,1,4,0:0:0:0:
256,192,87231,1,12,0:0:0:0:
256,192,87582,1,0,0:0:0:0:
256,192,87758,1,0,0:0:0:0:
256,192,87845,1,0,0:0:0:0:
256,192,87933,1,8,0:0:0:0:
256,192,88109,1,0,0:0:0:0:
256,192,88196,1,0,0:0:0:0:
256,192,88372,1,0,0:0:0:0:
256,192,88459,1,0,0:0:0:0:
256,192,88635,1,8,0:0:0:0:
256,192,88810,1,0,0:0:0:0:
256,192,88898,1,8,0:0:0:0:
256,192,88986,1,0,0:0:0:0:
256,192,89161,1,0,0:0:0:0:
256,192,89337,1,8,0:0:0:0:
256,192,89512,1,8,0:0:0:0:
256,192,89600,1,8,0:0:0:0:
256,192,89688,1,0,0:0:0:0:
256,192,89863,1,0,0:0:0:0:
256,192,89951,1,0,0:0:0:0:
256,192,90038,1,8,0:0:0:0:
256,192,90214,1,8,0:0:0:0:
256,192,90302,1,8,0:0:0:0:
256,192,90389,1,0,0:0:0:0:
256,192,90565,1,0,0:0:0:0:
256,192,90652,1,0,0:0:0:0:
256,192,90740,1,8,0:0:0:0:
256,192,90916,1,8,0:0:0:0:
256,192,91003,1,8,0:0:0:0:
256,192,91091,1,0,0:0:0:0:
256,192,91265,1,0,0:0:0:0:
256,192,91352,1,0,0:0:0:0:
256,192,91439,1,8,0:0:0:0:
256,192,91614,1,8,0:0:0:0:
256,192,91701,1,8,0:0:0:0:
256,192,91788,1,0,0:0:0:0:
256,192,91963,1,0,0:0:0:0:
256,192,92137,1,8,0:0:0:0:
256,192,92311,1,8,0:0:0:0:
256,192,92486,1,0,0:0:0:0:
256,192,92660,1,0,0:0:0:0:
256,192,92835,1,8,0:0:0:0:
256,192,93009,1,0,0:0:0:0:
256,192,93184,1,8,0:0:0:0:
256,192,93242,1,8,0:0:0:0:
256,192,93300,1,8,0:0:0:0:
256,192,93358,1,0,0:0:0:0:
256,192,93416,1,0,0:0:0:0:
256,192,93474,1,0,0:0:0:0:
256,192,93532,1,8,0:0:0:0:
256,192,93620,1,0,0:0:0:0:
256,192,93707,1,8,0:0:0:0:
256,192,93794,1,8,0:0:0:0:
256,192,93881,1,0,0:0:0:0:
256,192,94143,1,8,0:0:0:0:
256,192,94404,1,0,0:0:0:0:
256,192,94666,1,8,0:0:0:0:
256,192,94928,1,0,0:0:0:0:
256,192,95102,1,0,0:0:0:0:
256,192,95277,5,8,0:0:0:0:
256,192,95363,1,0,0:0:0:0:
256,192,95450,1,8,0:0:0:0:
256,192,95537,1,8,0:0:0:0:
256,192,95623,1,8,0:0:0:0:
256,192,95710,1,0,0:0:0:0:
256,192,95797,1,8,0:0:0:0:
256,192,95883,1,8,0:0:0:0:
256,192,95970,1,0,0:0:0:0:
256,192,96057,1,8,0:0:0:0:
256,192,96144,1,8,0:0:0:0:
256,192,96230,1,0,0:0:0:0:
256,192,96317,1,8,0:0:0:0:
256,192,96404,1,0,0:0:0:0:
256,192,96490,1,8,0:0:0:0:
256,192,96577,1,8,0:0:0:0:
256,192,96664,1,0,0:0:0:0:
256,192,96750,1,0,0:0:0:0:
256,192,96837,1,0,0:0:0:0:
256,192,96924,1,0,0:0:0:0:
256,192,97011,1,8,0:0:0:0:
256,192,97097,1,0,0:0:0:0:
256,192,97184,1,8,0:0:0:0:
256,192,97271,1,8,0:0:0:0:
256,192,97357,1,0,0:0:0:0:
256,192,97444,1,8,0:0:0:0:
256,192,97531,1,0,0:0:0:0:
256,192,97618,1,0,0:0:0:0:
256,192,97704,1,8,0:0:0:0:
256,192,97791,1,8,0:0:0:0:
256,192,97878,1,0,0:0:0:0:
256,192,97964,1,0,0:0:0:0:
256,192,98051,1,8,0:0:0:0:
256,192,98138,1,0,0:0:0:0:
256,192,98225,1,8,0:0:0:0:
256,192,98312,1,8,0:0:0:0:
256,192,98398,1,8,0:0:0:0:
256,192,98485,1,0,0:0:0:0:
256,192,98572,1,8,0:0:0:0:
256,192,98658,1,8,0:0:0:0:
256,192,98745,1,0,0:0:0:0:
256,192,98832,1,8,0:0:0:0:
256,192,98919,1,8,0:0:0:0:
256,192,99005,1,0,0:0:0:0:
256,192,99092,1,8,0:0:0:0:
256,192,99179,1,0,0:0:0:0:
256,192,99265,1,8,0:0:0:0:
256,192,99352,1,8,0:0:0:0:
256,192,99439,1,0,0:0:0:0:
256,192,99525,1,0,0:0:0:0:
256,192,99612,1,8,0:0:0:0:
256,192,99699,1,8,0:0:0:0:
256,192,99785,1,0,0:0:0:0:
256,192,99872,1,0,0:0:0:0:
256,192,99959,1,8,0:0:0:0:
256,192,100045,1,0,0:0:0:0:
256,192,100132,1,8,0:0:0:0:
256,192,100219,1,8,0:0:0:0:
256,192,100305,1,0,0:0:0:0:
256,192,100392,1,8,0:0:0:0:
256,192,100479,1,0,0:0:0:0:
256,192,100566,1,0,0:0:0:0:
256,192,100652,1,8,0:0:0:0:
256,192,100739,1,0,0:0:0:0:
256,192,100826,1,8,0:0:0:0:
256,192,100912,1,0,0:0:0:0:
256,192,100999,1,8,0:0:0:0:
256,192,101086,1,8,0:0:0:0:
256,192,101172,1,8,0:0:0:0:
256,192,101259,1,0,0:0:0:0:
256,192,101346,1,8,0:0:0:0:
256,192,101432,1,8,0:0:0:0:
256,192,101519,1,0,0:0:0:0:
256,192,101606,1,8,0:0:0:0:
256,192,101693,1,8,0:0:0:0:
256,192,101779,1,0,0:0:0:0:
256,192,101866,1,8,0:0:0:0:
256,192,101953,1,0,0:0:0:0:
256,192,102039,1,8,0:0:0:0:
256,192,102126,1,8,0:0:0:0:
256,192,102213,1,0,0:0:0:0:
256,192,102299,1,0,0:0:0:0:
256,192,102386,1,0,0:0:0:0:
256,192,102473,1,0,0:0:0:0:
256,192,102560,1,8,0:0:0:0:
256,192,102646,1,0,0:0:0:0:
256,192,102733,1,8,0:0:0:0:
256,192,102820,1,8,0:0:0:0:
256,192,102906,1,0,0:0:0:0:
256,192,102993,1,8,0:0:0:0:
256,192,103080,1,0,0:0:0:0:
256,192,103167,1,0,0:0:0:0:
256,192,103253,1,8,0:0:0:0:
256,192,103340,1,8,0:0:0:0:
256,192,103427,1,0,0:0:0:0:
256,192,103513,1,0,0:0:0:0:
256,192,103600,1,8,0:0:0:0:
256,192,103687,1,0,0:0:0:0:
256,192,103774,1,8,0:0:0:0:
256,192,103861,1,8,0:0:0:0:
256,192,103947,1,8,0:0:0:0:
256,192,104034,1,0,0:0:0:0:
256,192,104121,1,8,0:0:0:0:
256,192,104207,1,8,0:0:0:0:
256,192,104294,1,0,0:0:0:0:
256,192,104381,1,8,0:0:0:0:
256,192,104468,1,8,0:0:0:0:
256,192,104554,1,0,0:0:0:0:
256,192,104641,1,8,0:0:0:0:
256,192,104728,1,0,0:0:0:0:
256,192,104814,1,8,0:0:0:0:
256,192,104901,1,8,0:0:0:0:
256,192,104988,1,0,0:0:0:0:
256,192,105074,1,0,0:0:0:0:
256,192,105161,1,0,0:0:0:0:
256,192,105248,1,0,0:0:0:0:
256,192,105334,1,8,0:0:0:0:
256,192,105421,1,0,0:0:0:0:
256,192,105508,1,8,0:0:0:0:
256,192,105594,1,0,0:0:0:0:
256,192,105681,1,8,0:0:0:0:
256,192,105768,1,0,0:0:0:0:
256,192,105854,1,8,0:0:0:0:
256,192,105941,1,0,0:0:0:0:
256,192,106028,1,8,0:0:0:0:
256,192,106115,1,8,0:0:0:0:
256,192,106201,1,0,0:0:0:0:
256,192,106288,1,0,0:0:0:0:
256,192,106375,5,8,0:0:0:0:
256,192,106461,1,0,0:0:0:0:
256,192,106548,1,8,0:0:0:0:
256,192,106635,1,8,0:0:0:0:
256,192,106721,1,8,0:0:0:0:
256,192,106808,1,0,0:0:0:0:
256,192,106895,1,8,0:0:0:0:
256,192,106981,1,8,0:0:0:0:
256,192,107068,1,0,0:0:0:0:
256,192,107155,1,8,0:0:0:0:
256,192,107242,1,8,0:0:0:0:
256,192,107328,1,0,0:0:0:0:
256,192,107415,1,8,0:0:0:0:
256,192,107502,1,0,0:0:0:0:
256,192,107588,1,8,0:0:0:0:
256,192,107675,1,8,0:0:0:0:
256,192,107762,1,0,0:0:0:0:
256,192,107848,1,0,0:0:0:0:
256,192,107935,1,0,0:0:0:0:
256,192,108022,1,0,0:0:0:0:
256,192,108109,1,8,0:0:0:0:
256,192,108195,1,0,0:0:0:0:
256,192,108282,1,8,0:0:0:0:
256,192,108369,1,8,0:0:0:0:
256,192,108455,1,0,0:0:0:0:
256,192,108542,1,8,0:0:0:0:
256,192,108629,1,0,0:0:0:0:
256,192,108716,1,0,0:0:0:0:
256,192,108802,1,8,0:0:0:0:
256,192,108889,1,8,0:0:0:0:
256,192,108976,1,0,0:0:0:0:
256,192,109062,1,0,0:0:0:0:
256,192,109149,1,8,0:0:0:0:
256,192,109236,1,0,0:0:0:0:
256,192,109323,1,8,0:0:0:0:
256,192,109410,1,8,0:0:0:0:
256,192,109496,1,8,0:0:0:0:
256,192,109583,1,0,0:0:0:0:
256,192,109670,1,8,0:0:0:0:
256,192,109756,1,8,0:0:0:0:
256,192,109843,1,0,0:0:0:0:
256,192,109930,1,8,0:0:0:0:
256,192,110017,1,8,0:0:0:0:
256,192,110103,1,0,0:0:0:0:
256,192,110190,1,8,0:0:0:0:
256,192,110277,1,0,0:0:0:0:
256,192,110363,1,8,0:0:0:0:
256,192,110450,1,8,0:0:0:0:
256,192,110537,1,0,0:0:0:0:
256,192,110623,1,0,0:0:0:0:
256,192,110710,1,8,0:0:0:0:
256,192,110797,1,8,0:0:0:0:
256,192,110883,1,0,0:0:0:0:
256,192,110970,1,0,0:0:0:0:
256,192,111057,1,8,0:0:0:0:
256,192,111143,1,0,0:0:0:0:
256,192,111230,1,8,0:0:0:0:
256,192,111317,1,8,0:0:0:0:
256,192,111403,1,0,0:0:0:0:
256,192,111490,1,8,0:0:0:0:
256,192,111577,1,0,0:0:0:0:
256,192,111664,1,0,0:0:0:0:
256,192,111750,1,8,0:0:0:0:
256,192,111837,1,0,0:0:0:0:
256,192,111924,1,8,0:0:0:0:
256,192,112010,1,0,0:0:0:0:
256,192,112097,1,8,0:0:0:0:
256,192,112184,1,8,0:0:0:0:
256,192,112270,1,8,0:0:0:0:
256,192,112357,1,0,0:0:0:0:
256,192,112444,1,8,0:0:0:0:
256,192,112530,1,8,0:0:0:0:
256,192,112617,1,0,0:0:0:0:
256,192,112704,1,8,0:0:0:0:
256,192,112791,1,8,0:0:0:0:
256,192,112877,1,0,0:0:0:0:
256,192,112964,1,8,0:0:0:0:
256,192,113051,1,0,0:0:0:0:
256,192,113137,1,8,0:0:0:0:
256,192,113224,1,8,0:0:0:0:
256,192,113311,1,0,0:0:0:0:
256,192,113397,1,0,0:0:0:0:
256,192,113484,1,0,0:0:0:0:
256,192,113571,1,0,0:0:0:0:
256,192,113658,1,8,0:0:0:0:
256,192,113744,1,0,0:0:0:0:
256,192,113831,1,8,0:0:0:0:
256,192,113918,1,8,0:0:0:0:
256,192,114004,1,0,0:0:0:0:
256,192,114091,1,8,0:0:0:0:
256,192,114178,1,0,0:0:0:0:
256,192,114265,1,0,0:0:0:0:
256,192,114351,1,8,0:0:0:0:
256,192,114438,1,8,0:0:0:0:
256,192,114525,1,0,0:0:0:0:
256,192,114611,1,0,0:0:0:0:
256,192,114698,1,8,0:0:0:0:
256,192,114785,1,0,0:0:0:0:
256,192,114872,1,8,0:0:0:0:
256,192,114959,1,8,0:0:0:0:
256,192,115045,1,8,0:0:0:0:
256,192,115132,1,0,0:0:0:0:
256,192,115219,1,8,0:0:0:0:
256,192,115305,1,8,0:0:0:0:
256,192,115392,1,0,0:0:0:0:
256,192,115479,1,8,0:0:0:0:
256,192,115566,1,8,0:0:0:0:
256,192,115652,1,0,0:0:0:0:
256,192,115739,1,8,0:0:0:0:
256,192,115826,1,0,0:0:0:0:
256,192,115912,1,8,0:0:0:0:
256,192,115999,1,8,0:0:0:0:
256,192,116086,1,0,0:0:0:0:
256,192,116172,1,0,0:0:0:0:
256,192,116259,1,0,0:0:0:0:
256,192,116346,1,0,0:0:0:0:
256,192,116432,1,8,0:0:0:0:
256,192,116519,1,0,0:0:0:0:
256,192,116606,1,8,0:0:0:0:
256,192,116692,1,0,0:0:0:0:
256,192,116779,1,8,0:0:0:0:
256,192,116866,1,0,0:0:0:0:
256,192,116952,1,8,0:0:0:0:
256,192,117039,1,0,0:0:0:0:
256,192,117126,1,8,0:0:0:0:
256,192,117213,1,8,0:0:0:0:
256,192,117299,1,0,0:0:0:0:
256,192,117386,1,0,0:0:0:0:
256,192,117473,5,8,0:0:0:0:
256,192,117559,1,0,0:0:0:0:
256,192,117646,1,8,0:0:0:0:
256,192,117733,1,8,0:0:0:0:
256,192,117819,1,8,0:0:0:0:
256,192,117906,1,0,0:0:0:0:
256,192,117993,1,8,0:0:0:0:
256,192,118079,1,8,0:0:0:0:
256,192,118166,1,0,0:0:0:0:
256,192,118253,1,8,0:0:0:0:
256,192,118340,1,8,0:0:0:0:
256,192,118426,1,0,0:0:0:0:
256,192,118513,1,8,0:0:0:0:
256,192,118600,1,0,0:0:0:0:
256,192,118686,1,8,0:0:0:0:
256,192,118773,1,8,0:0:0:0:
256,192,118860,1,0,0:0:0:0:
256,192,118946,1,0,0:0:0:0:
256,192,119033,1,0,0:0:0:0:
256,192,119120,1,0,0:0:0:0:
256,192,119207,1,8,0:0:0:0:
256,192,119293,1,0,0:0:0:0:
256,192,119380,1,8,0:0:0:0:
256,192,119467,1,8,0:0:0:0:
256,192,119553,1,0,0:0:0:0:
256,192,119640,1,8,0:0:0:0:
256,192,119727,1,0,0:0:0:0:
256,192,119814,1,0,0:0:0:0:
256,192,119900,1,8,0:0:0:0:
256,192,119987,1,8,0:0:0:0:
256,192,120074,1,0,0:0:0:0:
256,192,120160,1,0,0:0:0:0:
256,192,120247,1,8,0:0:0:0:
256,192,120334,1,0,0:0:0:0:
256,192,120421,1,8,0:0:0:0:
256,192,120508,1,8,0:0:0:0:
256,192,120594,1,8,0:0:0:0:
256,192,120681,1,0,0:0:0:0:
256,192,120768,1,8,0:0:0:0:
256,192,120854,1,8,0:0:0:0:
256,192,120941,1,0,0:0:0:0:
256,192,121028,1,8,0:0:0:0:
256,192,121115,1,8,0:0:0:0:
256,192,121201,1,0,0:0:0:0:
256,192,121288,1,8,0:0:0:0:
256,192,121375,1,0,0:0:0:0:
256,192,121461,1,8,0:0:0:0:
256,192,121548,1,8,0:0:0:0:
256,192,121635,1,0,0:0:0:0:
256,192,121721,1,0,0:0:0:0:
256,192,121808,1,8,0:0:0:0:
256,192,121895,1,8,0:0:0:0:
256,192,121981,1,0,0:0:0:0:
256,192,122068,1,0,0:0:0:0:
256,192,122155,1,8,0:0:0:0:
256,192,122241,1,0,0:0:0:0:
256,192,122328,1,8,0:0:0:0:
256,192,122415,1,8,0:0:0:0:
256,192,122501,1,0,0:0:0:0:
256,192,122588,1,8,0:0:0:0:
256,192,122675,1,0,0:0:0:0:
256,192,122762,1,0,0:0:0:0:
256,192,122848,1,8,0:0:0:0:
256,192,122935,1,0,0:0:0:0:
256,192,123022,1,8,0:0:0:0:
256,192,123108,1,0,0:0:0:0:
256,192,123195,1,8,0:0:0:0:
256,192,123282,1,8,0:0:0:0:
256,192,123368,1,8,0:0:0:0:
256,192,123455,1,0,0:0:0:0:
256,192,123542,1,8,0:0:0:0:
256,192,123628,1,8,0:0:0:0:
256,192,123715,1,0,0:0:0:0:
256,192,123802,1,8,0:0:0:0:
256,192,123889,1,8,0:0:0:0:
256,192,123975,1,0,0:0:0:0:
256,192,124062,1,8,0:0:0:0:
256,192,124149,1,0,0:0:0:0:
256,192,124235,1,8,0:0:0:0:
256,192,124322,1,8,0:0:0:0:
256,192,124409,1,0,0:0:0:0:
256,192,124495,1,0,0:0:0:0:
256,192,124582,1,0,0:0:0:0:
256,192,124669,1,0,0:0:0:0:
256,192,124756,1,8,0:0:0:0:
256,192,124842,1,0,0:0:0:0:
256,192,124929,1,8,0:0:0:0:
256,192,125016,1,8,0:0:0:0:
256,192,125102,1,0,0:0:0:0:
256,192,125189,1,8,0:0:0:0:
256,192,125276,1,0,0:0:0:0:
256,192,125363,1,0,0:0:0:0:
256,192,125449,1,8,0:0:0:0:
256,192,125536,1,8,0:0:0:0:
256,192,125623,1,0,0:0:0:0:
256,192,125709,1,0,0:0:0:0:
256,192,125797,1,8,0:0:0:0:
256,192,125883,1,0,0:0:0:0:
256,192,125970,1,0,0:0:0:0:
256,192,126057,1,0,0:0:0:0:
256,192,126144,1,8,0:0:0:0:
256,192,126230,1,0,0:0:0:0:
256,192,126317,1,0,0:0:0:0:
256,192,126404,1,0,0:0:0:0:
256,192,126490,1,8,0:0:0:0:
256,192,126577,1,8,0:0:0:0:
256,192,126664,1,8,0:0:0:0:
256,192,126750,1,0,0:0:0:0:
256,192,126837,1,8,0:0:0:0:
256,192,126924,1,8,0:0:0:0:
256,192,127011,1,0,0:0:0:0:
256,192,127097,1,0,0:0:0:0:
256,192,127184,1,8,0:0:0:0:
256,192,127271,1,0,0:0:0:0:
256,192,127357,1,0,0:0:0:0:
256,192,127444,1,0,0:0:0:0:
256,192,127531,1,8,0:0:0:0:
256,192,127618,1,0,0:0:0:0:
256,192,127704,1,8,0:0:0:0:
256,192,127791,1,0,0:0:0:0:
256,192,127878,1,8,0:0:0:0:
256,192,127935,1,8,0:0:0:0:
256,192,127993,1,8,0:0:0:0:
256,192,128051,1,0,0:0:0:0:
256,192,128109,1,0,0:0:0:0:
256,192,128167,1,0,0:0:0:0:
256,192,128224,1,8,0:0:0:0:
256,192,128311,1,0,0:0:0:0:
256,192,128398,1,8,0:0:0:0:
256,192,128485,1,8,0:0:0:0:
256,192,128571,1,0,0:0:0:0:
256,192,128923,1,12,0:0:0:0:
256,192,129188,1,0,0:0:0:0:
256,192,129276,1,0,0:0:0:0:
256,192,129453,1,0,0:0:0:0:
256,192,129629,1,12,0:0:0:0:
256,192,129894,1,0,0:0:0:0:
256,192,129982,1,0,0:0:0:0:
256,192,130159,1,0,0:0:0:0:
256,192,130335,1,12,0:0:0:0:
256,192,130600,1,0,0:0:0:0:
256,192,130688,1,0,0:0:0:0:
256,192,130865,1,0,0:0:0:0:
256,192,131041,1,12,0:0:0:0:
256,192,131218,1,0,0:0:0:0:
256,192,131394,1,0,0:0:0:0:
256,192,131747,1,12,0:0:0:0:
256,192,132012,1,0,0:0:0:0:
256,192,132100,1,0,0:0:0:0:
256,192,132277,1,0,0:0:0:0:
256,192,132453,1,12,0:0:0:0:
256,192,132718,1,0,0:0:0:0:
256,192,132806,1,0,0:0:0:0:
256,192,132983,1,0,0:0:0:0:
256,192,133159,5,12,0:0:0:0:
256,192,133424,1,0,0:0:0:0:
256,192,133512,1,0,0:0:0:0:
256,192,133689,1,0,0:0:0:0:
256,192,133865,5,12,0:0:0:0:
256,192,134041,1,0,0:0:0:0:
256,192,134218,5,8,0:0:0:0:
256,192,134306,1,0,0:0:0:0:
256,192,134394,1,0,0:0:0:0:
256,192,134482,1,0,0:0:0:0:
256,192,134571,1,0,0:0:0:0:
256,192,134659,1,0,0:0:0:0:
256,192,134747,1,0,0:0:0:0:
256,192,134835,1,0,0:0:0:0:
256,192,134924,1,0,0:0:0:0:
256,192,135012,1,0,0:0:0:0:
256,192,135100,1,0,0:0:0:0:
256,192,135188,1,0,0:0:0:0:
256,192,135276,1,0,0:0:0:0:
256,192,135365,1,0,0:0:0:0:
256,192,135453,1,0,0:0:0:0:
256,192,135541,1,0,0:0:0:0:
256,192,135629,1,8,0:0:0:0:
256,192,135718,1,0,0:0:0:0:
256,192,135806,1,0,0:0:0:0:
256,192,135894,1,0,0:0:0:0:
256,192,135982,1,0,0:0:0:0:
256,192,136071,1,0,0:0:0:0:
256,192,136159,1,0,0:0:0:0:
256,192,136247,1,0,0:0:0:0:
256,192,136335,1,8,0:0:0:0:
256,192,136424,1,0,0:0:0:0:
256,192,136512,1,0,0:0:0:0:
256,192,136600,1,0,0:0:0:0:
256,192,136688,1,0,0:0:0:0:
256,192,136776,1,0,0:0:0:0:
256,192,136865,1,0,0:0:0:0:
256,192,136953,1,0,0:0:0:0:
256,192,137041,1,8,0:0:0:0:
256,192,137129,1,0,0:0:0:0:
256,192,137218,1,0,0:0:0:0:
256,192,137306,1,0,0:0:0:0:
256,192,137394,1,8,0:0:0:0:
256,192,137482,1,0,0:0:0:0:
256,192,137571,1,0,0:0:0:0:
256,192,137659,1,0,0:0:0:0:
256,192,137747,1,8,0:0:0:0:
256,192,137806,1,8,0:0:0:0:
256,192,137865,1,8,0:0:0:0:
256,192,137924,1,0,0:0:0:0:
256,192,137982,1,0,0:0:0:0:
256,192,138041,1,0,0:0:0:0:
256,192,138100,1,8,0:0:0:0:
256,192,138188,1,0,0:0:0:0:
256,192,138276,1,8,0:0:0:0:
256,192,138365,1,8,0:0:0:0:
256,192,138453,1,0,0:0:0:0:
256,192,138718,1,8,0:0:0:0:
256,192,138982,1,0,0:0:0:0:
256,192,139247,1,8,0:0:0:0:
256,192,139512,1,8,0:0:0:0:
256,192,139688,1,8,0:0:0:0:
256,192,139865,1,4,0:0:0:0:
256,192,140041,1,0,0:0:0:0:
256,192,140218,1,8,0:0:0:0:
256,192,140306,1,0,0:0:0:0:
256,192,140394,1,8,0:0:0:0:
256,192,140483,1,8,0:0:0:0:
256,192,140571,1,0,0:0:0:0:
256,192,140747,1,0,0:0:0:0:
256,192,140924,1,8,0:0:0:0:
256,192,141100,1,0,0:0:0:0:
256,192,141188,1,8,0:0:0:0:
256,192,141277,1,0,0:0:0:0:
256,192,141453,1,8,0:0:0:0:
256,192,141541,1,0,0:0:0:0:
256,192,141630,1,8,0:0:0:0:
256,192,141806,1,0,0:0:0:0:
256,192,141894,1,8,0:0:0:0:
256,192,141983,1,0,0:0:0:0:
256,192,142159,1,8,0:0:0:0:
256,192,142247,1,0,0:0:0:0:
256,192,142336,1,8,0:0:0:0:
256,192,142512,1,0,0:0:0:0:
256,192,142688,1,0,0:0:0:0:
256,192,142865,1,0,0:0:0:0:
256,192,142953,1,0,0:0:0:0:
256,192,143041,1,8,0:0:0:0:
256,192,143218,1,8,0:0:0:0:
256,192,143306,1,8,0:0:0:0:
256,192,143394,1,0,0:0:0:0:
256,192,143571,1,0,0:0:0:0:
256,192,143748,1,8,0:0:0:0:
256,192,143924,1,0,0:0:0:0:
256,192,144012,1,8,0:0:0:0:
256,192,144101,1,0,0:0:0:0:
256,192,144277,1,8,0:0:0:0:
256,192,144365,1,0,0:0:0:0:
256,192,144454,1,8,0:0:0:0:
256,192,144630,1,0,0:0:0:0:
256,192,144718,1,8,0:0:0:0:
256,192,144807,1,0,0:0:0:0:
256,192,144983,1,8,0:0:0:0:
256,192,145071,1,0,0:0:0:0:
256,192,145160,1,8,0:0:0:0:
256,192,145336,1,8,0:0:0:0:
256,192,145512,1,0,0:0:0:0:
256,192,145688,1,0,0:0:0:0:
256,192,145865,1,12,0:0:0:0:
256,192,146041,1,0,0:0:0:0:
256,192,146129,1,0,0:0:0:0:
256,192,146218,1,0,0:0:0:0:
256,192,146394,1,0,0:0:0:0:
256,192,146571,1,12,0:0:0:0:
256,192,146747,1,0,0:0:0:0:
256,192,146835,1,0,0:0:0:0:
256,192,146924,1,0,0:0:0:0:
256,192,147100,1,0,0:0:0:0:
256,192,147277,1,12,0:0:0:0:
256,192,147453,1,0,0:0:0:0:
256,192,147541,1,0,0:0:0:0:
256,192,147630,1,0,0:0:0:0:
256,192,147806,1,0,0:0:0:0:
256,192,147983,1,8,0:0:0:0:
256,192,148071,1,8,0:0:0:0:
256,192,148159,1,0,0:0:0:0:
256,192,148247,1,8,0:0:0:0:
256,192,148336,1,0,0:0:0:0:
256,192,148512,1,0,0:0:0:0:
256,192,148688,1,12,0:0:0:0:
256,192,148865,1,0,0:0:0:0:
256,192,148953,1,0,0:0:0:0:
256,192,149041,1,0,0:0:0:0:
256,192,149218,1,0,0:0:0:0:
256,192,149394,1,12,0:0:0:0:
256,192,149571,1,0,0:0:0:0:
256,192,149659,1,0,0:0:0:0:
256,192,149747,1,0,0:0:0:0:
256,192,149923,1,0,0:0:0:0:
256,192,150100,1,8,0:0:0:0:
256,192,150218,1,8,0:0:0:0:
256,192,150336,1,8,0:0:0:0:
256,192,150453,1,4,0:0:0:0:
256,192,150806,1,12,0:0:0:0:
256,192,151159,1,0,0:0:0:0:
256,192,151336,1,0,0:0:0:0:
256,192,151424,1,0,0:0:0:0:
256,192,151512,1,8,0:0:0:0:
256,192,151688,1,0,0:0:0:0:
256,192,151777,1,0,0:0:0:0:
256,192,151865,1,8,0:0:0:0:
256,192,151953,1,0,0:0:0:0:
256,192,152041,1,0,0:0:0:0:
256,192,152129,1,0,0:0:0:0:
256,192,152218,1,8,0:0:0:0:
256,192,152394,1,8,0:0:0:0:
256,192,152483,1,8,0:0:0:0:
256,192,152571,1,0,0:0:0:0:
256,192,152747,1,0,0:0:0:0:
256,192,152836,1,0,0:0:0:0:
256,192,152924,1,8,0:0:0:0:
256,192,153100,1,0,0:0:0:0:
256,192,153188,1,0,0:0:0:0:
256,192,153276,1,0,0:0:0:0:
256,192,153365,1,8,0:0:0:0:
256,192,153453,1,0,0:0:0:0:
256,192,153630,1,8,0:0:0:0:
256,192,153806,1,8,0:0:0:0:
256,192,153894,1,8,0:0:0:0:
256,192,153983,1,0,0:0:0:0:
256,192,154160,1,0,0:0:0:0:
256,192,154248,1,0,0:0:0:0:
256,192,154336,1,8,0:0:0:0:
256,192,154512,1,0,0:0:0:0:
256,192,154601,1,0,0:0:0:0:
256,192,154688,1,8,0:0:0:0:
256,192,154776,1,0,0:0:0:0:
256,192,154865,1,0,0:0:0:0:
256,192,154953,1,0,0:0:0:0:
256,192,155042,1,8,0:0:0:0:
256,192,155218,1,8,0:0:0:0:
256,192,155307,1,8,0:0:0:0:
256,192,155395,1,0,0:0:0:0:
256,192,155571,1,0,0:0:0:0:
256,192,155660,1,0,0:0:0:0:
256,192,155748,1,8,0:0:0:0:
256,192,155924,1,0,0:0:0:0:
256,192,156012,1,0,0:0:0:0:
256,192,156100,1,8,0:0:0:0:
256,192,156189,1,8,0:0:0:0:
256,192,156277,1,0,0:0:0:0:
256,192,156453,1,8,0:0:0:0:
256,192,156541,1,0,0:0:0:0:
256,192,156630,1,8,0:0:0:0:
256,192,156806,1,0,0:0:0:0:
256,192,156982,1,0,0:0:0:0:
256,192,157159,1,12,0:0:0:0:
256,192,157335,1,0,0:0:0:0:
256,192,157423,1,0,0:0:0:0:
256,192,157512,1,0,0:0:0:0:
256,192,157688,1,0,0:0:0:0:
256,192,157865,1,12,0:0:0:0:
256,192,158041,1,0,0:0:0:0:
256,192,158129,1,0,0:0:0:0:
256,192,158218,1,0,0:0:0:0:
256,192,158394,1,0,0:0:0:0:
256,192,158571,1,12,0:0:0:0:
256,192,158747,1,0,0:0:0:0:
256,192,158835,1,0,0:0:0:0:
256,192,158924,1,0,0:0:0:0:
256,192,159100,1,0,0:0:0:0:
256,192,159277,1,8,0:0:0:0:
256,192,159365,1,8,0:0:0:0:
256,192,159453,1,0,0:0:0:0:
256,192,159541,1,8,0:0:0:0:
256,192,159629,1,0,0:0:0:0:
256,192,159806,1,0,0:0:0:0:
256,192,159982,1,12,0:0:0:0:
256,192,160159,1,0,0:0:0:0:
256,192,160247,1,0,0:0:0:0:
256,192,160335,5,0,0:0:0:0:
256,192,160512,1,0,0:0:0:0:
256,192,160688,1,8,0:0:0:0:
256,192,160865,1,0,0:0:0:0:
256,192,161041,5,0,0:0:0:0:
256,192,161218,1,8,0:0:0:0:
256,192,161394,1,0,0:0:0:0:
256,192,161570,1,8,0:0:0:0:
256,192,161747,1,8,0:0:0:0:
256,192,161982,1,0,0:0:0:0:
256,192,162100,1,8,0:0:0:0:
256,192,162218,1,8,0:0:0:0:
256,192,162335,1,8,0:0:0:0:
256,192,162453,1,4,0:0:0:0:
256,192,162806,1,0,0:0:0:0:
256,192,162982,1,0,0:0:0:0:
256,192,163159,1,8,0:0:0:0:
256,192,163335,1,0,0:0:0:0:
256,192,163423,1,0,0:0:0:0:
256,192,163512,1,8,0:0:0:0:
256,192,163688,1,8,0:0:0:0:
256,192,163776,1,8,0:0:0:0:
256,192,163865,1,0,0:0:0:0:
256,192,164041,1,8,0:0:0:0:
256,192,164129,1,0,0:0:0:0:
256,192,164218,1,0,0:0:0:0:
256,192,164306,1,8,0:0:0:0:
256,192,164394,1,0,0:0:0:0:
256,192,164482,1,0,0:0:0:0:
256,192,164570,1,8,0:0:0:0:
256,192,164747,1,0,0:0:0:0:
256,192,164835,1,0,0:0:0:0:
256,192,164923,1,8,0:0:0:0:
256,192,165012,1,0,0:0:0:0:
256,192,165100,1,8,0:0:0:0:
256,192,165188,1,8,0:0:0:0:
256,192,165276,1,0,0:0:0:0:
256,192,165453,1,8,0:0:0:0:
256,192,165541,1,0,0:0:0:0:
256,192,165629,1,0,0:0:0:0:
256,192,165806,1,0,0:0:0:0:
256,192,165894,1,0,0:0:0:0:
256,192,165982,1,8,0:0:0:0:
256,192,166335,1,0,0:0:0:0:
256,192,166512,1,8,0:0:0:0:
256,192,166600,1,8,0:0:0:0:
256,192,166688,1,0,0:0:0:0:
256,192,166865,1,8,0:0:0:0:
256,192,166953,1,0,0:0:0:0:
256,192,167041,1,0,0:0:0:0:
256,192,167218,1,0,0:0:0:0:
256,192,167306,1,0,0:0:0:0:
256,192,167394,1,8,0:0:0:0:
256,192,167747,1,8,0:0:0:0:
256,192,168100,1,4,0:0:0:0:
256,192,168453,1,0,0:0:0:0:
256,192,168629,1,0,0:0:0:0:
256,192,168806,1,8,0:0:0:0:
256,192,168982,1,0,0:0:0:0:
256,192,169070,1,0,0:0:0:0:
256,192,169159,1,8,0:0:0:0:
256,192,169335,1,8,0:0:0:0:
256,192,169423,1,8,0:0:0:0:
256,192,169512,1,0,0:0:0:0:
256,192,169688,1,8,0:0:0:0:
256,192,169776,1,0,0:0:0:0:
256,192,169865,1,8,0:0:0:0:
256,192,169953,1,8,0:0:0:0:
256,192,170041,1,0,0:0:0:0:
256,192,170129,1,0,0:0:0:0:
256,192,170217,1,8,0:0:0:0:
256,192,170394,1,0,0:0:0:0:
256,192,170482,1,0,0:0:0:0:
256,192,170570,1,8,0:0:0:0:
256,192,170659,1,0,0:0:0:0:
256,192,170747,1,8,0:0:0:0:
256,192,170835,1,8,0:0:0:0:
256,192,170923,1,0,0:0:0:0:
256,192,171100,1,8,0:0:0:0:
256,192,171188,1,0,0:0:0:0:
256,192,171276,1,0,0:0:0:0:
256,192,171453,1,0,0:0:0:0:
256,192,171541,1,0,0:0:0:0:
256,192,171629,1,8,0:0:0:0:
256,192,171982,1,0,0:0:0:0:
256,192,172159,1,8,0:0:0:0:
256,192,172247,1,8,0:0:0:0:
256,192,172335,1,0,0:0:0:0:
256,192,172512,1,8,0:0:0:0:
256,192,172600,1,0,0:0:0:0:
256,192,172688,1,0,0:0:0:0:
256,192,172865,1,0,0:0:0:0:
256,192,172953,1,0,0:0:0:0:
256,192,173041,1,8,0:0:0:0:
256,192,173394,1,8,0:0:0:0:
256,192,173747,1,4,0:0:0:0:
256,192,174100,1,12,0:0:0:0:
256,192,174453,1,0,0:0:0:0:
256,192,174630,1,0,0:0:0:0:
256,192,174718,1,0,0:0:0:0:
256,192,174806,1,8,0:0:0:0:
256,192,174983,1,0,0:0:0:0:
256,192,175071,1,0,0:0:0:0:
256,192,175247,1,0,0:0:0:0:
256,192,175336,1,0,0:0:0:0:
256,192,175512,1,8,0:0:0:0:
256,192,175688,1,0,0:0:0:0:
256,192,175777,1,8,0:0:0:0:
256,192,175865,1,0,0:0:0:0:
256,192,175953,1,8,0:0:0:0:
256,192,176041,1,0,0:0:0:0:
256,192,176218,1,8,0:0:0:0:
256,192,176394,1,8,0:0:0:0:
256,192,176483,1,8,0:0:0:0:
256,192,176571,1,0,0:0:0:0:
256,192,176747,1,0,0:0:0:0:
256,192,176924,1,8,0:0:0:0:
256,192,177100,1,8,0:0:0:0:
256,192,177188,1,8,0:0:0:0:
256,192,177277,1,0,0:0:0:0:
256,192,177453,1,0,0:0:0:0:
256,192,177630,1,8,0:0:0:0:
256,192,177806,1,8,0:0:0:0:
256,192,177894,1,8,0:0:0:0:
256,192,177983,1,0,0:0:0:0:
256,192,178159,1,0,0:0:0:0:
256,192,178336,1,8,0:0:0:0:
256,192,178512,1,8,0:0:0:0:
256,192,178600,1,8,0:0:0:0:
256,192,178688,1,0,0:0:0:0:
256,192,178865,1,0,0:0:0:0:
256,192,179041,1,8,0:0:0:0:
256,192,179218,1,8,0:0:0:0:
256,192,179394,1,4,0:0:0:0:
256,192,179744,1,12,0:0:0:0:
256,192,180095,1,0,0:0:0:0:
256,192,180271,1,0,0:0:0:0:
256,192,180358,1,0,0:0:0:0:
256,192,180446,1,8,0:0:0:0:
256,192,180622,1,0,0:0:0:0:
256,192,180709,1,0,0:0:0:0:
256,192,180885,1,0,0:0:0:0:
256,192,180972,1,0,0:0:0:0:
256,192,181148,1,8,0:0:0:0:
256,192,181323,1,0,0:0:0:0:
256,192,181411,1,8,0:0:0:0:
256,192,181499,1,0,0:0:0:0:
256,192,181674,1,0,0:0:0:0:
256,192,181850,1,8,0:0:0:0:
256,192,182025,1,8,0:0:0:0:
256,192,182113,1,8,0:0:0:0:
256,192,182201,1,0,0:0:0:0:
256,192,182375,1,0,0:0:0:0:
256,192,182462,1,0,0:0:0:0:
256,192,182549,1,8,0:0:0:0:
256,192,182724,1,8,0:0:0:0:
256,192,182811,1,8,0:0:0:0:
256,192,182898,1,0,0:0:0:0:
256,192,183073,1,0,0:0:0:0:
256,192,183160,1,0,0:0:0:0:
256,192,183247,1,8,0:0:0:0:
256,192,183421,1,8,0:0:0:0:
256,192,183509,1,8,0:0:0:0:
256,192,183596,1,0,0:0:0:0:
256,192,183770,1,0,0:0:0:0:
256,192,183857,1,0,0:0:0:0:
256,192,183945,1,8,0:0:0:0:
256,192,184119,1,8,0:0:0:0:
256,192,184206,1,8,0:0:0:0:
256,192,184294,1,0,0:0:0:0:
256,192,184468,1,0,0:0:0:0:
256,192,184642,1,8,0:0:0:0:
256,192,184817,1,8,0:0:0:0:
256,192,184991,1,0,0:0:0:0:
256,192,185164,1,0,0:0:0:0:
256,192,185337,1,8,0:0:0:0:
256,192,185511,1,0,0:0:0:0:
256,192,185684,1,8,0:0:0:0:
256,192,185742,1,8,0:0:0:0:
256,192,185800,1,8,0:0:0:0:
256,192,185858,1,0,0:0:0:0:
256,192,185915,1,0,0:0:0:0:
256,192,185973,1,0,0:0:0:0:
256,192,186031,1,8,0:0:0:0:
256,192,186118,1,0,0:0:0:0:
256,192,186204,1,8,0:0:0:0:
256,192,186291,1,8,0:0:0:0:
256,192,186378,1,0,0:0:0:0:
256,192,186638,1,8,0:0:0:0:
256,192,186898,1,0,0:0:0:0:
256,192,187158,1,8,0:0:0:0:
256,192,187418,1,0,0:0:0:0:
256,192,187592,1,0,0:0:0:0:
256,192,187765,1,8,0:0:0:0:
256,192,187851,1,8,0:0:0:0:
256,192,187938,1,0,0:0:0:0:
256,192,188025,1,0,0:0:0:0:
256,192,188111,1,8,0:0:0:0:
256,192,188198,1,0,0:0:0:0:
256,192,188285,1,8,0:0:0:0:
256,192,188371,1,0,0:0:0:0:
256,192,188458,1,0,0:0:0:0:
256,192,188545,1,8,0:0:0:0:
256,192,188632,1,0,0:0:0:0:
256,192,188718,1,0,0:0:0:0:
256,192,188805,1,8,0:0:0:0:
256,192,188892,1,0,0:0:0:0:
256,192,188978,1,8,0:0:0:0:
256,192,189065,1,8,0:0:0:0:
256,192,189152,1,0,0:0:0:0:
256,192,189238,1,0,0:0:0:0:
256,192,189325,1,0,0:0:0:0:
256,192,189412,1,0,0:0:0:0:
256,192,189499,1,8,0:0:0:0:
256,192,189585,1,0,0:0:0:0:
256,192,189672,1,8,0:0:0:0:
256,192,189759,1,8,0:0:0:0:
256,192,189845,1,0,0:0:0:0:
256,192,189932,1,8,0:0:0:0:
256,192,190019,1,0,0:0:0:0:
256,192,190106,1,0,0:0:0:0:
256,192,190192,1,8,0:0:0:0:
256,192,190279,1,8,0:0:0:0:
256,192,190366,1,0,0:0:0:0:
256,192,190452,1,0,0:0:0:0:
256,192,190539,1,8,0:0:0:0:
256,192,190626,1,0,0:0:0:0:
256,192,190712,1,0,0:0:0:0:
256,192,190799,1,0,0:0:0:0:
256,192,190886,1,8,0:0:0:0:
256,192,190973,1,0,0:0:0:0:
256,192,191059,1,8,0:0:0:0:
256,192,191146,1,8,0:0:0:0:
256,192,191233,1,0,0:0:0:0:
256,192,191319,1,8,0:0:0:0:
256,192,191406,1,0,0:0:0:0:
256,192,191493,1,0,0:0:0:0:
256,192,191580,1,8,0:0:0:0:
256,192,191666,1,0,0:0:0:0:
256,192,191753,1,8,0:0:0:0:
256,192,191840,1,8,0:0:0:0:
256,192,191926,1,0,0:0:0:0:
256,192,192012,1,0,0:0:0:0:
256,192,192099,1,8,0:0:0:0:
256,192,192186,1,8,0:0:0:0:
256,192,192272,1,0,0:0:0:0:
256,192,192359,1,0,0:0:0:0:
256,192,192446,1,8,0:0:0:0:
256,192,192532,1,0,0:0:0:0:
256,192,192619,1,8,0:0:0:0:
256,192,192706,1,8,0:0:0:0:
256,192,192792,1,0,0:0:0:0:
256,192,192879,1,8,0:0:0:0:
256,192,192966,1,0,0:0:0:0:
256,192,193053,1,0,0:0:0:0:
256,192,193139,1,8,0:0:0:0:
256,192,193226,1,0,0:0:0:0:
256,192,193314,1,8,0:0:0:0:
256,192,193400,1,8,0:0:0:0:
256,192,193487,1,0,0:0:0:0:
256,192,193574,1,0,0:0:0:0:
256,192,193660,1,8,0:0:0:0:
256,192,193747,1,0,0:0:0:0:
256,192,193834,1,8,0:0:0:0:
256,192,193921,1,0,0:0:0:0:
256,192,194007,1,0,0:0:0:0:
256,192,194094,1,8,0:0:0:0:
256,192,194181,1,0,0:0:0:0:
256,192,194267,1,0,0:0:0:0:
256,192,194354,1,8,0:0:0:0:
256,192,194441,1,0,0:0:0:0:
256,192,194528,1,8,0:0:0:0:
256,192,194614,1,8,0:0:0:0:
256,192,194701,1,0,0:0:0:0:
256,192,194787,1,0,0:0:0:0:
256,192,194874,1,0,0:0:0:0:
256,192,194961,1,0,0:0:0:0:
256,192,195048,1,8,0:0:0:0:
256,192,195134,1,0,0:0:0:0:
256,192,195221,1,8,0:0:0:0:
256,192,195308,1,8,0:0:0:0:
256,192,195394,1,0,0:0:0:0:
256,192,195481,1,8,0:0:0:0:
256,192,195568,1,0,0:0:0:0:
256,192,195655,1,0,0:0:0:0:
256,192,195741,1,8,0:0:0:0:
256,192,195828,1,8,0:0:0:0:
256,192,195915,1,0,0:0:0:0:
256,192,196001,1,0,0:0:0:0:
256,192,196088,1,8,0:0:0:0:
256,192,196175,1,0,0:0:0:0:
256,192,196262,1,0,0:0:0:0:
256,192,196348,1,0,0:0:0:0:
256,192,196435,1,8,0:0:0:0:
256,192,196522,1,8,0:0:0:0:
256,192,196608,1,8,0:0:0:0:
256,192,196695,1,0,0:0:0:0:
256,192,196782,1,8,0:0:0:0:
256,192,196869,1,8,0:0:0:0:
256,192,196955,1,0,0:0:0:0:
256,192,197042,1,8,0:0:0:0:
256,192,197129,1,8,0:0:0:0:
256,192,197215,1,0,0:0:0:0:
256,192,197302,1,8,0:0:0:0:
256,192,197389,1,8,0:0:0:0:
256,192,197475,1,0,0:0:0:0:
256,192,197561,1,0,0:0:0:0:
256,192,197648,1,0,0:0:0:0:
256,192,197735,1,0,0:0:0:0:
256,192,197821,1,8,0:0:0:0:
256,192,197908,1,0,0:0:0:0:
256,192,197995,1,8,0:0:0:0:
256,192,198081,1,0,0:0:0:0:
256,192,198168,1,8,0:0:0:0:
256,192,198255,1,0,0:0:0:0:
256,192,198343,1,8,0:0:0:0:
256,192,198428,1,0,0:0:0:0:
256,192,198515,1,8,0:0:0:0:
256,192,198602,1,8,0:0:0:0:
256,192,198688,1,0,0:0:0:0:
256,192,198775,1,0,0:0:0:0:
256,192,198863,1,8,0:0:0:0:
256,192,198949,1,8,0:0:0:0:
256,192,199036,1,0,0:0:0:0:
256,192,199123,1,0,0:0:0:0:
256,192,199209,1,8,0:0:0:0:
256,192,199296,1,0,0:0:0:0:
256,192,199383,1,8,0:0:0:0:
256,192,199469,1,0,0:0:0:0:
256,192,199556,1,0,0:0:0:0:
256,192,199643,1,8,0:0:0:0:
256,192,199730,1,0,0:0:0:0:
256,192,199816,1,0,0:0:0:0:
256,192,199903,1,8,0:0:0:0:
256,192,199990,1,0,0:0:0:0:
256,192,200076,1,8,0:0:0:0:
256,192,200163,1,8,0:0:0:0:
256,192,200250,1,0,0:0:0:0:
256,192,200336,1,0,0:0:0:0:
256,192,200423,1,0,0:0:0:0:
256,192,200510,1,0,0:0:0:0:
256,192,200597,1,8,0:0:0:0:
256,192,200683,1,0,0:0:0:0:
256,192,200770,1,8,0:0:0:0:
256,192,200857,1,8,0:0:0:0:
256,192,200943,1,0,0:0:0:0:
256,192,201030,1,8,0:0:0:0:
256,192,201117,1,0,0:0:0:0:
256,192,201204,1,0,0:0:0:0:
256,192,201290,1,8,0:0:0:0:
256,192,201377,1,8,0:0:0:0:
256,192,201464,1,0,0:0:0:0:
256,192,201550,1,0,0:0:0:0:
256,192,201637,1,8,0:0:0:0:
256,192,201724,1,0,0:0:0:0:
256,192,201810,1,0,0:0:0:0:
256,192,201897,1,0,0:0:0:0:
256,192,201984,1,8,0:0:0:0:
256,192,202071,1,0,0:0:0:0:
256,192,202157,1,8,0:0:0:0:
256,192,202244,1,8,0:0:0:0:
256,192,202331,1,0,0:0:0:0:
256,192,202417,1,8,0:0:0:0:
256,192,202504,1,0,0:0:0:0:
256,192,202591,1,0,0:0:0:0:
256,192,202678,1,8,0:0:0:0:
256,192,202764,1,0,0:0:0:0:
256,192,202851,1,8,0:0:0:0:
256,192,202938,1,8,0:0:0:0:
256,192,203024,1,0,0:0:0:0:
256,192,203110,1,0,0:0:0:0:
256,192,203197,1,8,0:0:0:0:
256,192,203284,1,8,0:0:0:0:
256,192,203370,1,0,0:0:0:0:
256,192,203457,1,0,0:0:0:0:
256,192,203544,1,8,0:0:0:0:
256,192,203632,1,0,0:0:0:0:
256,192,203717,1,8,0:0:0:0:
256,192,203804,1,8,0:0:0:0:
256,192,203892,1,0,0:0:0:0:
256,192,203977,1,8,0:0:0:0:
256,192,204064,1,0,0:0:0:0:
256,192,204151,1,0,0:0:0:0:
256,192,204237,1,8,0:0:0:0:
256,192,204324,1,0,0:0:0:0:
256,192,204412,1,8,0:0:0:0:
256,192,204498,1,8,0:0:0:0:
256,192,204585,1,0,0:0:0:0:
256,192,204672,1,0,0:0:0:0:
256,192,204758,1,8,0:0:0:0:
256,192,204845,1,0,0:0:0:0:
256,192,204932,1,8,0:0:0:0:
256,192,205019,1,0,0:0:0:0:
256,192,205105,1,0,0:0:0:0:
256,192,205192,1,8,0:0:0:0:
256,192,205279,1,0,0:0:0:0:
256,192,205365,1,0,0:0:0:0:
256,192,205452,1,8,0:0:0:0:
256,192,205539,1,0,0:0:0:0:
256,192,205626,1,8,0:0:0:0:
256,192,205712,1,8,0:0:0:0:
256,192,205799,1,0,0:0:0:0:
256,192,205885,1,0,0:0:0:0:
256,192,205972,1,0,0:0:0:0:
256,192,206059,1,0,0:0:0:0:
256,192,206146,1,8,0:0:0:0:
256,192,206232,1,0,0:0:0:0:
256,192,206319,1,8,0:0:0:0:
256,192,206406,1,8,0:0:0:0:
256,192,206492,1,0,0:0:0:0:
256,192,206579,1,8,0:0:0:0:
256,192,206666,1,0,0:0:0:0:
256,192,206753,1,0,0:0:0:0:
256,192,206839,1,8,0:0:0:0:
256,192,206926,1,8,0:0:0:0:
256,192,207013,1,0,0:0:0:0:
256,192,207099,1,0,0:0:0:0:
256,192,207186,1,8,0:0:0:0:
256,192,207273,1,0,0:0:0:0:
256,192,207360,1,0,0:0:0:0:
256,192,207446,1,0,0:0:0:0:
256,192,207533,1,8,0:0:0:0:
256,192,207620,1,8,0:0:0:0:
256,192,207706,1,8,0:0:0:0:
256,192,207793,1,0,0:0:0:0:
256,192,207880,1,8,0:0:0:0:
256,192,207967,1,8,0:0:0:0:
256,192,208053,1,0,0:0:0:0:
256,192,208140,1,8,0:0:0:0:
256,192,208227,1,8,0:0:0:0:
256,192,208313,1,0,0:0:0:0:
256,192,208400,1,8,0:0:0:0:
256,192,208487,1,8,0:0:0:0:
256,192,208573,1,0,0:0:0:0:
256,192,208659,1,0,0:0:0:0:
256,192,208746,1,0,0:0:0:0:
256,192,208833,1,0,0:0:0:0:
256,192,208921,1,8,0:0:0:0:
256,192,209006,1,0,0:0:0:0:
256,192,209093,1,8,0:0:0:0:
256,192,209181,1,0,0:0:0:0:
256,192,209266,1,8,0:0:0:0:
256,192,209353,1,0,0:0:0:0:
256,192,209441,1,8,0:0:0:0:
256,192,209528,1,0,0:0:0:0:
256,192,209613,1,8,0:0:0:0:
256,192,209700,1,8,0:0:0:0:
256,192,209788,1,0,0:0:0:0:
256,192,209873,1,0,0:0:0:0:
256,192,209961,1,8,0:0:0:0:
256,192,210047,1,8,0:0:0:0:
256,192,210134,1,0,0:0:0:0:
256,192,210221,1,0,0:0:0:0:
256,192,210307,1,8,0:0:0:0:
256,192,210394,1,0,0:0:0:0:
256,192,210481,1,8,0:0:0:0:
256,192,210567,1,0,0:0:0:0:
256,192,210654,1,0,0:0:0:0:
256,192,210741,1,8,0:0:0:0:
256,192,210828,1,0,0:0:0:0:
256,192,210914,1,0,0:0:0:0:
256,192,211001,1,8,0:0:0:0:
256,192,211088,1,0,0:0:0:0:
256,192,211174,1,8,0:0:0:0:
256,192,211261,1,8,0:0:0:0:
256,192,211348,1,0,0:0:0:0:
256,192,211434,1,0,0:0:0:0:
256,192,211521,1,0,0:0:0:0:
256,192,211608,1,0,0:0:0:0:
256,192,211695,1,8,0:0:0:0:
256,192,211781,1,0,0:0:0:0:
256,192,211868,1,8,0:0:0:0:
256,192,211955,1,8,0:0:0:0:
256,192,212041,1,0,0:0:0:0:
256,192,212128,1,8,0:0:0:0:
256,192,212215,1,0,0:0:0:0:
256,192,212302,1,0,0:0:0:0:
256,192,212388,1,8,0:0:0:0:
256,192,212475,1,8,0:0:0:0:
256,192,212562,1,0,0:0:0:0:
256,192,212648,1,0,0:0:0:0:
256,192,212735,1,8,0:0:0:0:
256,192,212822,1,0,0:0:0:0:
256,192,212908,1,0,0:0:0:0:
256,192,212995,1,0,0:0:0:0:
256,192,213082,1,8,0:0:0:0:
256,192,213169,1,0,0:0:0:0:
256,192,213255,1,8,0:0:0:0:
256,192,213342,1,8,0:0:0:0:
256,192,213429,1,0,0:0:0:0:
256,192,213515,1,8,0:0:0:0:
256,192,213602,1,0,0:0:0:0:
256,192,213689,1,0,0:0:0:0:
256,192,213776,1,8,0:0:0:0:
256,192,213862,1,0,0:0:0:0:
256,192,213949,1,8,0:0:0:0:
256,192,214036,1,8,0:0:0:0:
256,192,214122,1,0,0:0:0:0:
256,192,214210,1,0,0:0:0:0:
256,192,214295,1,8,0:0:0:0:
256,192,214382,1,8,0:0:0:0:
256,192,214470,1,0,0:0:0:0:
256,192,214555,1,0,0:0:0:0:
256,192,214642,1,8,0:0:0:0:
256,192,214730,1,0,0:0:0:0:
256,192,214817,1,8,0:0:0:0:
256,192,214902,1,8,0:0:0:0:
256,192,214990,1,0,0:0:0:0:
256,192,215077,1,8,0:0:0:0:
256,192,215162,1,0,0:0:0:0:
256,192,215249,1,0,0:0:0:0:
256,192,215337,1,8,0:0:0:0:
256,192,215422,1,0,0:0:0:0:
256,192,215510,1,8,0:0:0:0:
256,192,215596,1,8,0:0:0:0:
256,192,215683,1,0,0:0:0:0:
256,192,215770,1,0,0:0:0:0:
256,192,215856,1,8,0:0:0:0:
256,192,215943,1,0,0:0:0:0:
256,192,216030,1,8,0:0:0:0:
256,192,216117,1,0,0:0:0:0:
256,192,216203,1,0,0:0:0:0:
256,192,216290,1,8,0:0:0:0:
256,192,216377,1,0,0:0:0:0:
256,192,216463,1,0,0:0:0:0:
256,192,216550,1,8,0:0:0:0:
256,192,216637,1,0,0:0:0:0:
256,192,216724,1,8,0:0:0:0:
256,192,216810,1,8,0:0:0:0:
256,192,216897,1,0,0:0:0:0:
256,192,216983,1,0,0:0:0:0:
256,192,217070,1,0,0:0:0:0:
256,192,217157,1,0,0:0:0:0:
256,192,217244,1,8,0:0:0:0:
256,192,217330,1,0,0:0:0:0:
256,192,217417,1,8,0:0:0:0:
256,192,217504,1,8,0:0:0:0:
256,192,217590,1,0,0:0:0:0:
256,192,217677,1,8,0:0:0:0:
256,192,217764,1,0,0:0:0:0:
256,192,217851,1,0,0:0:0:0:
256,192,217937,1,8,0:0:0:0:
256,192,218024,1,8,0:0:0:0:
256,192,218111,1,0,0:0:0:0:
256,192,218197,1,0,0:0:0:0:
256,192,218285,1,8,0:0:0:0:
256,192,218371,1,0,0:0:0:0:
256,192,218458,1,0,0:0:0:0:
256,192,218545,1,0,0:0:0:0:
256,192,218632,1,8,0:0:0:0:
256,192,218718,1,0,0:0:0:0:
256,192,218805,1,0,0:0:0:0:
256,192,218892,1,0,0:0:0:0:
256,192,218978,1,8,0:0:0:0:
256,192,219065,1,8,0:0:0:0:
256,192,219152,1,8,0:0:0:0:
256,192,219238,1,0,0:0:0:0:
256,192,219325,1,8,0:0:0:0:
256,192,219412,1,8,0:0:0:0:
256,192,219499,1,0,0:0:0:0:
256,192,219585,1,0,0:0:0:0:
256,192,219672,1,8,0:0:0:0:
256,192,219759,1,0,0:0:0:0:
256,192,219845,1,0,0:0:0:0:
256,192,219932,1,0,0:0:0:0:
256,192,220019,1,8,0:0:0:0:
256,192,220106,1,0,0:0:0:0:
256,192,220192,1,8,0:0:0:0:
256,192,220279,1,0,0:0:0:0:
256,192,220366,1,8,0:0:0:0:
256,192,220423,1,8,0:0:0:0:
256,192,220481,1,8,0:0:0:0:
256,192,220539,1,0,0:0:0:0:
256,192,220597,1,0,0:0:0:0:
256,192,220655,1,0,0:0:0:0:
256,192,220712,1,8,0:0:0:0:
256,192,220799,1,0,0:0:0:0:
256,192,220886,1,8,0:0:0:0:
256,192,220973,1,8,0:0:0:0:
256,192,221059,1,0,0:0:0:0:
256,192,221406,1,0,0:0:0:0:
256,192,221580,1,0,0:0:0:0:
256,192,221753,1,8,0:0:0:0:
256,192,221869,1,8,0:0:0:0:
256,192,221984,1,8,0:0:0:0:
256,192,222100,1,8,0:0:0:0:
256,192,222215,1,8,0:0:0:0:
256,192,222331,1,8,0:0:0:0:
256,192,222447,1,0,0:0:0:0:
256,192,222562,1,8,0:0:0:0:
256,192,222678,1,8,0:0:0:0:
256,192,222793,1,8,0:0:0:0:
256,192,222909,1,0,0:0:0:0:
256,192,223025,1,0,0:0:0:0:
256,192,223140,1,8,0:0:0:0:
256,192,223256,1,8,0:0:0:0:
256,192,223371,1,8,0:0:0:0:
256,192,223487,1,8,0:0:0:0:
256,192,223603,1,8,0:0:0:0:
256,192,223718,1,8,0:0:0:0:
256,192,223834,1,0,0:0:0:0:
256,192,224007,1,8,0:0:0:0:
256,192,224094,1,8,0:0:0:0:
256,192,224181,1,0,0:0:0:0:
256,192,224267,1,8,0:0:0:0:
256,192,224354,1,0,0:0:0:0:
256,192,224441,1,0,0:0:0:0:
256,192,224528,1,8,0:0:0:0:
256,192,224643,1,8,0:0:0:0:
256,192,224759,1,8,0:0:0:0:
256,192,224874,1,8,0:0:0:0:
256,192,225048,1,8,0:0:0:0:
256,192,225221,1,0,0:0:0:0:
256,192,225308,1,8,0:0:0:0:
256,192,225395,1,0,0:0:0:0:
256,192,225481,1,8,0:0:0:0:
256,192,225568,1,0,0:0:0:0:
256,192,225655,1,8,0:0:0:0:
256,192,225741,1,8,0:0:0:0:
256,192,225828,1,8,0:0:0:0:
256,192,225915,1,8,0:0:0:0:
256,192,226001,1,8,0:0:0:0:
256,192,226175,1,8,0:0:0:0:
256,192,226262,1,0,0:0:0:0:
256,192,226608,1,0,0:0:0:0:
256,192,226782,1,8,0:0:0:0:
256,192,226869,1,8,0:0:0:0:
256,192,226955,1,0,0:0:0:0:
256,192,227071,1,0,0:0:0:0:
256,192,227186,1,0,0:0:0:0:
256,192,227302,1,8,0:0:0:0:
256,192,227418,1,8,0:0:0:0:
256,192,227533,1,8,0:0:0:0:
256,192,227649,1,0,0:0:0:0:
256,192,227822,1,8,0:0:0:0:
256,192,227909,1,8,0:0:0:0:
256,192,227996,1,0,0:0:0:0:
256,192,228111,1,0,0:0:0:0:
256,192,228227,1,0,0:0:0:0:
256,192,228343,1,8,0:0:0:0:
256,192,228429,1,0,0:0:0:0:
256,192,228516,1,8,0:0:0:0:
256,192,228603,1,0,0:0:0:0:
256,192,228689,1,8,0:0:0:0:
256,192,228863,1,8,0:0:0:0:
256,192,229036,1,0,0:0:0:0:
256,192,229123,1,0,0:0:0:0:
256,192,229210,1,8,0:0:0:0:
256,192,229296,1,8,0:0:0:0:
256,192,229383,1,0,0:0:0:0:
256,192,229556,1,0,0:0:0:0:
256,192,229730,1,0,0:0:0:0:
256,192,229903,1,0,0:0:0:0:
256,192,230077,1,8,0:0:0:0:
256,192,230134,1,8,0:0:0:0:
256,192,230192,1,8,0:0:0:0:
256,192,230250,1,0,0:0:0:0:
256,192,230337,1,0,0:0:0:0:
256,192,230423,1,8,0:0:0:0:
256,192,230481,1,0,0:0:0:0:
256,192,230539,1,0,0:0:0:0:
256,192,230597,1,8,0:0:0:0:
256,192,230684,1,8,0:0:0:0:
256,192,230770,1,4,0:0:0:0:
256,192,230944,1,8,0:0:0:0:
256,192,231030,1,8,0:0:0:0:
256,192,231117,1,0,0:0:0:0:
256,192,231291,1,0,0:0:0:0:
256,192,231464,1,12,0:0:0:0:
256,192,231637,1,0,0:0:0:0:
256,192,231724,1,0,0:0:0:0:
256,192,231811,1,8,0:0:0:0:
256,192,231984,1,8,0:0:0:0:
256,192,232158,1,4,0:0:0:0:
256,192,232331,1,0,0:0:0:0:
256,192,232418,1,0,0:0:0:0:
256,192,232504,1,8,0:0:0:0:
256,192,232678,1,8,0:0:0:0:
256,192,232851,1,8,0:0:0:0:
256,192,233025,1,8,0:0:0:0:
256,192,233198,1,0,0:0:0:0:
256,192,233371,1,0,0:0:0:0:
256,192,233458,1,0,0:0:0:0:
256,192,233545,1,8,0:0:0:0:
256,192,233718,1,8,0:0:0:0:
256,192,233892,1,0,0:0:0:0:
256,192,234065,1,8,0:0:0:0:
256,192,234152,1,0,0:0:0:0:
256,192,234325,1,8,0:0:0:0:
256,192,234412,1,0,0:0:0:0:
256,192,234585,1,8,0:0:0:0:
256,192,234672,1,8,0:0:0:0:
256,192,234759,1,8,0:0:0:0:
256,192,234845,1,8,0:0:0:0:
256,192,234932,1,0,0:0:0:0:
256,192,235019,1,0,0:0:0:0:
256,192,235106,1,0,0:0:0:0:
256,192,235192,1,0,0:0:0:0:
256,192,235279,1,8,0:0:0:0:
256,192,235395,1,8,0:0:0:0:
256,192,235510,1,8,0:0:0:0:
256,192,235626,1,8,0:0:0:0:
256,192,235741,1,8,0:0:0:0:
256,192,235857,1,8,0:0:0:0:
256,192,235973,1,0,0:0:0:0:
256,192,236030,1,0,0:0:0:0:
256,192,236088,1,0,0:0:0:0:
256,192,236146,1,8,0:0:0:0:
256,192,236204,1,8,0:0:0:0:
256,192,236262,1,8,0:0:0:0:
256,192,236319,1,0,0:0:0:0:
256,192,236435,1,0,0:0:0:0:
256,192,236551,1,0,0:0:0:0:
256,192,236666,1,8,0:0:0:0:
256,192,236782,1,0,0:0:0:0:
256,192,236897,1,0,0:0:0:0:
256,192,237013,1,8,0:0:0:0:
256,192,237100,1,8,0:0:0:0:
256,192,237186,1,0,0:0:0:0:
256,192,237273,1,0,0:0:0:0:
256,192,237360,1,8,0:0:0:0:
256,192,237707,1,0,0:0:0:0:
256,192,237822,1,0,0:0:0:0:
256,192,237938,1,0,0:0:0:0:
256,192,238054,1,8,0:0:0:0:
256,192,238169,1,8,0:0:0:0:
256,192,238285,1,8,0:0:0:0:
256,192,238400,1,0,0:0:0:0:
256,192,238747,1,8,0:0:0:0:
256,192,238834,1,8,0:0:0:0:
256,192,239007,1,8,0:0:0:0:
256,192,239094,1,0,0:0:0:0:
256,192,239267,1,0,0:0:0:0:
256,192,239354,1,0,0:0:0:0:
256,192,239441,1,8,0:0:0:0:
256,192,239528,1,8,0:0:0:0:
256,192,239701,1,8,0:0:0:0:
256,192,239788,1,0,0:0:0:0:
256,192,239961,1,8,0:0:0:0:
256,192,240134,1,8,0:0:0:0:
256,192,240308,1,8,0:0:0:0:
256,192,240481,1,0,0:0:0:0:
256,192,240655,1,8,0:0:0:0:
256,192,240741,1,0,0:0:0:0:
256,192,240828,1,8,0:0:0:0:
256,192,241001,1,8,0:0:0:0:
256,192,241175,1,8,0:0:0:0:
256,192,241232,1,8,0:0:0:0:
256,192,241290,1,8,0:0:0:0:
256,192,241348,1,0,0:0:0:0:
256,192,241435,1,0,0:0:0:0:
256,192,241521,1,8,0:0:0:0:
256,192,241579,1,0,0:0:0:0:
256,192,241637,1,0,0:0:0:0:
256,192,241695,1,8,0:0:0:0:
256,192,241782,1,8,0:0:0:0:
256,192,241868,1,4,0:0:0:0:
256,192,242042,1,8,0:0:0:0:
256,192,242128,1,8,0:0:0:0:
256,192,242215,1,0,0:0:0:0:
256,192,242389,1,0,0:0:0:0:
256,192,242562,1,12,0:0:0:0:
256,192,242735,1,0,0:0:0:0:
256,192,242822,1,0,0:0:0:0:
256,192,242909,1,8,0:0:0:0:
256,192,243082,1,8,0:0:0:0:
256,192,243256,1,4,0:0:0:0:
256,192,243429,1,8,0:0:0:0:
256,192,243516,1,8,0:0:0:0:
256,192,243603,1,0,0:0:0:0:
256,192,243776,1,0,0:0:0:0:
256,192,243949,1,8,0:0:0:0:
256,192,244065,1,8,0:0:0:0:
256,192,244181,1,8,0:0:0:0:
256,192,244296,1,8,0:0:0:0:
256,192,244412,1,8,0:0:0:0:
256,192,244528,1,8,0:0:0:0:
256,192,244643,1,0,0:0:0:0:
256,192,244759,1,8,0:0:0:0:
256,192,244874,1,8,0:0:0:0:
256,192,244990,1,8,0:0:0:0:
256,192,245106,1,0,0:0:0:0:
256,192,245221,1,0,0:0:0:0:
256,192,245337,1,8,0:0:0:0:
256,192,245452,1,8,0:0:0:0:
256,192,245568,1,8,0:0:0:0:
256,192,245684,1,0,0:0:0:0:
256,192,245727,1,8,0:0:0:0:
256,192,245857,1,0,0:0:0:0:
256,192,245900,1,8,0:0:0:0:
256,192,246030,1,0,0:0:0:0:
256,192,246146,1,0,0:0:0:0:
256,192,246262,1,0,0:0:0:0:
256,192,246377,1,8,0:0:0:0:
256,192,246464,1,8,0:0:0:0:
256,192,246551,1,0,0:0:0:0:
256,192,246637,1,0,0:0:0:0:
256,192,246724,1,8,0:0:0:0:
256,192,246811,1,8,0:0:0:0:
256,192,246897,1,8,0:0:0:0:
256,192,246984,1,8,0:0:0:0:
256,192,247071,1,8,0:0:0:0:
256,192,247158,1,8,0:0:0:0:
256,192,247244,1,8,0:0:0:0:
256,192,247331,1,8,0:0:0:0:
256,192,247418,1,0,0:0:0:0:
256,192,247533,1,8,0:0:0:0:
256,192,247649,1,8,0:0:0:0:
256,192,247765,1,0,0:0:0:0:
256,192,247822,1,0,0:0:0:0:
256,192,247880,1,0,0:0:0:0:
256,192,247938,1,0,0:0:0:0:
256,192,248025,1,0,0:0:0:0:
256,192,248111,1,8,0:0:0:0:
256,192,248198,1,8,0:0:0:0:
256,192,248285,1,0,0:0:0:0:
256,192,248371,1,0,0:0:0:0:
256,192,248458,1,8,0:0:0:0:
256,192,248805,1,0,0:0:0:0:
256,192,248978,1,0,0:0:0:0:
256,192,249065,1,0,0:0:0:0:
256,192,249152,1,8,0:0:0:0:
256,192,249325,1,8,0:0:0:0:
256,192,249499,1,8,0:0:0:0:
256,192,249672,1,8,0:0:0:0:
256,192,249845,1,0,0:0:0:0:
256,192,249961,1,0,0:0:0:0:
256,192,250077,1,0,0:0:0:0:
256,192,250192,1,8,0:0:0:0:
256,192,250308,1,0,0:0:0:0:
256,192,250423,1,0,0:0:0:0:
256,192,250539,1,8,0:0:0:0:
256,192,250712,1,0,0:0:0:0:
256,192,250799,1,0,0:0:0:0:
256,192,250886,1,8,0:0:0:0:
256,192,251001,1,8,0:0:0:0:
256,192,251117,1,8,0:0:0:0:
256,192,251233,1,0,0:0:0:0:
256,192,251319,1,0,0:0:0:0:
256,192,251406,1,8,0:0:0:0:
256,192,251493,1,8,0:0:0:0:
256,192,251580,1,0,0:0:0:0:
256,192,251753,1,0,0:0:0:0:
256,192,251926,1,0,0:0:0:0:
256,192,252100,1,0,0:0:0:0:
256,192,252273,1,8,0:0:0:0:
256,192,252330,1,8,0:0:0:0:
256,192,252388,1,8,0:0:0:0:
256,192,252446,1,0,0:0:0:0:
256,192,252533,1,0,0:0:0:0:
256,192,252619,1,8,0:0:0:0:
256,192,252677,1,0,0:0:0:0:
256,192,252735,1,0,0:0:0:0:
256,192,252793,1,8,0:0:0:0:
256,192,252880,1,8,0:0:0:0:
256,192,252966,1,4,0:0:0:0:
256,192,253140,1,8,0:0:0:0:
256,192,253226,1,8,0:0:0:0:
256,192,253313,1,0,0:0:0:0:
256,192,253487,1,0,0:0:0:0:
256,192,253660,1,12,0:0:0:0:
256,192,253833,1,0,0:0:0:0:
256,192,253920,1,0,0:0:0:0:
256,192,254007,1,8,0:0:0:0:
256,192,254180,1,8,0:0:0:0:
256,192,254354,1,4,0:0:0:0:
256,192,254528,1,0,0:0:0:0:
256,192,254615,1,0,0:0:0:0:
256,192,254701,1,8,0:0:0:0:
256,192,254817,1,8,0:0:0:0:
256,192,254932,1,8,0:0:0:0:
256,192,255048,1,8,0:0:0:0:
256,192,255163,1,8,0:0:0:0:
256,192,255279,1,8,0:0:0:0:
256,192,255395,1,0,0:0:0:0:
256,192,255568,1,0,0:0:0:0:
256,192,255655,1,0,0:0:0:0:
256,192,255742,1,8,0:0:0:0:
256,192,255857,1,8,0:0:0:0:
256,192,255973,1,8,0:0:0:0:
256,192,256089,1,0,0:0:0:0:
256,192,256262,1,8,0:0:0:0:
256,192,256349,1,0,0:0:0:0:
256,192,256522,1,8,0:0:0:0:
256,192,256609,1,0,0:0:0:0:
256,192,256782,1,8,0:0:0:0:
256,192,256869,1,8,0:0:0:0:
256,192,256956,1,8,0:0:0:0:
256,192,257042,1,8,0:0:0:0:
256,192,257129,1,0,0:0:0:0:
256,192,257216,1,0,0:0:0:0:
256,192,257303,1,0,0:0:0:0:
256,192,257389,1,0,0:0:0:0:
256,192,257476,1,8,0:0:0:0:
256,192,257649,1,8,0:0:0:0:
256,192,257823,1,8,0:0:0:0:
256,192,257996,1,8,0:0:0:0:
256,192,258170,1,0,0:0:0:0:
256,192,258227,1,0,0:0:0:0:
256,192,258285,1,0,0:0:0:0:
256,192,258343,1,8,0:0:0:0:
256,192,258401,1,8,0:0:0:0:
256,192,258459,1,8,0:0:0:0:
256,192,258516,1,0,0:0:0:0:
256,192,258632,1,0,0:0:0:0:
256,192,258748,1,0,0:0:0:0:
256,192,258863,1,8,0:0:0:0:
256,192,258978,1,0,0:0:0:0:
256,192,259094,1,0,0:0:0:0:
256,192,259210,1,8,0:0:0:0:
256,192,259296,1,8,0:0:0:0:
256,192,259383,1,0,0:0:0:0:
256,192,259470,1,0,0:0:0:0:
256,192,259556,1,8,0:0:0:0:
256,192,259903,1,0,0:0:0:0:
256,192,260018,1,0,0:0:0:0:
256,192,260134,1,0,0:0:0:0:
256,192,260250,1,8,0:0:0:0:
256,192,260365,1,8,0:0:0:0:
256,192,260481,1,8,0:0:0:0:
256,192,260596,1,0,0:0:0:0:
256,192,260943,1,8,0:0:0:0:
256,192,261030,1,8,0:0:0:0:
256,192,261203,1,8,0:0:0:0:
256,192,261290,1,0,0:0:0:0:
256,192,261463,1,0,0:0:0:0:
256,192,261550,1,0,0:0:0:0:
256,192,261637,1,8,0:0:0:0:
256,192,261724,1,8,0:0:0:0:
256,192,261897,1,8,0:0:0:0:
256,192,261984,1,0,0:0:0:0:
256,192,262157,1,8,0:0:0:0:
256,192,262330,1,8,0:0:0:0:
256,192,262504,1,8,0:0:0:0:
256,192,262677,1,0,0:0:0:0:
256,192,262793,1,0,0:0:0:0:
256,192,262909,1,0,0:0:0:0:
256,192,263025,1,8,0:0:0:0:
256,192,263140,1,8,0:0:0:0:
256,192,263256,1,8,0:0:0:0:
256,192,263371,1,8,0:0:0:0:
256,192,263428,1,8,0:0:0:0:
256,192,263486,1,8,0:0:0:0:
256,192,263544,1,0,0:0:0:0:
256,192,263631,1,0,0:0:0:0:
256,192,263717,1,8,0:0:0:0:
256,192,263775,1,0,0:0:0:0:
256,192,263833,1,0,0:0:0:0:
256,192,263891,1,8,0:0:0:0:
256,192,263978,1,8,0:0:0:0:
256,192,264064,1,4,0:0:0:0:
256,192,264238,1,8,0:0:0:0:
256,192,264324,1,8,0:0:0:0:
256,192,264411,1,0,0:0:0:0:
256,192,264585,1,0,0:0:0:0:
256,192,264758,1,12,0:0:0:0:
256,192,264931,1,0,0:0:0:0:
256,192,265018,1,0,0:0:0:0:
256,192,265105,1,8,0:0:0:0:
256,192,265278,1,8,0:0:0:0:
256,192,265452,1,4,0:0:0:0:
256,192,265799,1,8,0:0:0:0:
256,192,265973,1,0,0:0:0:0:
256,192,266059,1,0,0:0:0:0:
256,192,266146,1,0,0:0:0:0:
256,192,266319,1,0,0:0:0:0:
256,192,266493,1,8,0:0:0:0:
256,192,266608,1,8,0:0:0:0:
256,192,266724,1,8,0:0:0:0:
256,192,266840,1,0,0:0:0:0:
256,192,266955,1,0,0:0:0:0:
256,192,267071,1,0,0:0:0:0:
256,192,267186,1,8,0:0:0:0:
256,192,267302,1,8,0:0:0:0:
256,192,267418,1,8,0:0:0:0:
256,192,267533,1,8,0:0:0:0:
256,192,267707,1,0,0:0:0:0:
256,192,267880,1,8,0:0:0:0:
256,192,267996,1,8,0:0:0:0:
256,192,268111,1,8,0:0:0:0:
256,192,268227,1,0,0:0:0:0:
256,192,268400,1,0,0:0:0:0:
256,192,268487,1,0,0:0:0:0:
256,192,268574,1,8,0:0:0:0:
256,192,268660,1,8,0:0:0:0:
256,192,268747,1,8,0:0:0:0:
256,192,268834,1,8,0:0:0:0:
256,192,268921,1,8,0:0:0:0:
256,192,269094,1,0,0:0:0:0:
256,192,269267,1,8,0:0:0:0:
256,192,269441,1,0,0:0:0:0:
256,192,269528,1,0,0:0:0:0:
256,192,269614,1,0,0:0:0:0:
256,192,269788,1,0,0:0:0:0:
256,192,269874,1,0,0:0:0:0:
256,192,269961,1,8,0:0:0:0:
256,192,270019,1,8,0:0:0:0:
256,192,270077,1,8,0:0:0:0:
256,192,270134,1,0,0:0:0:0:
256,192,270221,1,0,0:0:0:0:
256,192,270308,1,8,0:0:0:0:
256,192,270481,1,0,0:0:0:0:
256,192,270655,1,12,0:0:0:0:
256,192,270828,1,8,0:0:0:0:
256,192,270915,1,8,0:0:0:0:
256,192,271001,1,0,0:0:0:0:
256,192,271175,1,0,0:0:0:0:
256,192,271262,1,0,0:0:0:0:
256,192,271348,1,8,0:0:0:0:
256,192,271464,1,8,0:0:0:0:
256,192,271580,1,8,0:0:0:0:
256,192,271695,1,8,0:0:0:0:
256,192,271869,1,0,0:0:0:0:
256,192,272042,1,8,0:0:0:0:
256,192,272129,1,8,0:0:0:0:
256,192,272302,1,8,0:0:0:0:
256,192,272389,1,0,0:0:0:0:
256,192,272475,1,0,0:0:0:0:
256,192,272562,1,8,0:0:0:0:
256,192,272649,1,0,0:0:0:0:
256,192,272736,1,8,0:0:0:0:
256,192,272822,1,8,0:0:0:0:
256,192,272909,1,0,0:0:0:0:
256,192,272996,1,0,0:0:0:0:
256,192,273082,1,8,0:0:0:0:
256,192,273256,1,0,0:0:0:0:
256,192,273429,1,8,0:0:0:0:
256,192,273516,1,0,0:0:0:0:
256,192,273603,1,8,0:0:0:0:
256,192,273689,1,8,0:0:0:0:
256,192,273776,1,0,0:0:0:0:
256,192,273949,1,0,0:0:0:0:
256,192,274123,1,8,0:0:0:0:
256,192,274296,1,0,0:0:0:0:
256,192,274470,1,0,0:0:0:0:
256,192,274556,1,8,0:0:0:0:
256,192,274643,1,0,0:0:0:0:
256,192,274817,1,8,0:0:0:0:
256,192,275163,1,4,0:0:0:0:
256,192,275337,1,0,0:0:0:0:
256,192,275423,1,0,0:0:0:0:
256,192,275510,1,8,0:0:0:0:
256,192,275684,1,0,0:0:0:0:
256,192,275857,1,12,0:0:0:0:
256,192,276030,1,8,0:0:0:0:
256,192,276117,1,8,0:0:0:0:
256,192,276204,1,0,0:0:0:0:
256,192,276377,1,8,0:0:0:0:
256,192,276551,1,4,0:0:0:0:
256,192,276897,1,8,0:0:0:0:
256,192,277071,1,8,0:0:0:0:
256,192,277244,1,8,0:0:0:0:
256,192,277418,1,0,0:0:0:0:
256,192,277591,1,8,0:0:0:0:
256,192,277678,1,8,0:0:0:0:
256,192,277765,1,0,0:0:0:0:
256,192,277851,1,0,0:0:0:0:
256,192,277938,1,0,0:0:0:0:
256,192,278111,1,0,0:0:0:0:
256,192,278285,1,8,0:0:0:0:
256,192,278458,1,0,0:0:0:0:
256,192,278545,1,8,0:0:0:0:
256,192,278718,1,8,0:0:0:0:
256,192,278805,1,0,0:0:0:0:
256,192,278978,1,8,0:0:0:0:
256,192,279065,1,8,0:0:0:0:
256,192,279152,1,8,0:0:0:0:
256,192,279238,1,8,0:0:0:0:
256,192,279325,1,0,0:0:0:0:
256,192,279412,1,0,0:0:0:0:
256,192,279499,1,0,0:0:0:0:
256,192,279585,1,0,0:0:0:0:
256,192,279672,1,8,0:0:0:0:
256,192,279788,1,8,0:0:0:0:
256,192,279903,1,8,0:0:0:0:
256,192,280019,1,8,0:0:0:0:
256,192,280192,1,0,0:0:0:0:
256,192,280366,1,8,0:0:0:0:
256,192,280539,1,0,0:0:0:0:
256,192,280626,1,0,0:0:0:0:
256,192,280712,1,0,0:0:0:0:
256,192,280886,1,0,0:0:0:0:
256,192,280973,1,0,0:0:0:0:
256,192,281059,1,8,0:0:0:0:
256,192,281117,1,8,0:0:0:0:
256,192,281175,1,8,0:0:0:0:
256,192,281233,1,0,0:0:0:0:
256,192,281319,1,0,0:0:0:0:
256,192,281406,1,8,0:0:0:0:
256,192,281580,1,0,0:0:0:0:
256,192,281753,1,12,0:0:0:0:
256,192,281926,1,8,0:0:0:0:
256,192,282013,1,8,0:0:0:0:
256,192,282100,1,0,0:0:0:0:
256,192,282215,1,0,0:0:0:0:
256,192,282331,1,0,0:0:0:0:
256,192,282447,1,8,0:0:0:0:
256,192,282562,1,8,0:0:0:0:
256,192,282678,1,8,0:0:0:0:
256,192,282793,1,8,0:0:0:0:
256,192,282967,1,0,0:0:0:0:
256,192,283140,1,8,0:0:0:0:
256,192,283314,1,8,0:0:0:0:
256,192,283400,1,8,0:0:0:0:
256,192,283487,1,0,0:0:0:0:
256,192,283574,1,0,0:0:0:0:
256,192,283660,1,8,0:0:0:0:
256,192,283834,1,8,0:0:0:0:
256,192,284007,1,0,0:0:0:0:
256,192,284094,1,0,0:0:0:0:
256,192,284181,1,8,0:0:0:0:
256,192,284354,1,0,0:0:0:0:
256,192,284528,1,8,0:0:0:0:
256,192,284701,1,8,0:0:0:0:
256,192,284874,1,0,0:0:0:0:
256,192,285048,1,0,0:0:0:0:
256,192,285221,1,8,0:0:0:0:
256,192,285395,1,0,0:0:0:0:
256,192,285568,1,0,0:0:0:0:
256,192,285655,1,8,0:0:0:0:
256,192,285741,1,0,0:0:0:0:
256,192,285915,1,8,0:0:0:0:
256,192,286262,1,4,0:0:0:0:
256,192,286435,1,0,0:0:0:0:
256,192,286522,1,0,0:0:0:0:
256,192,286608,1,8,0:0:0:0:
256,192,286782,1,0,0:0:0:0:
256,192,286955,1,12,0:0:0:0:
256,192,287129,1,8,0:0:0:0:
256,192,287215,1,8,0:0:0:0:
256,192,287302,1,0,0:0:0:0:
256,192,287475,1,8,0:0:0:0:
256,192,287649,1,4,0:0:0:0:
256,192,287996,1,8,0:0:0:0:
256,192,288169,1,0,0:0:0:0:
256,192,288256,1,0,0:0:0:0:
256,192,288343,1,0,0:0:0:0:
256,192,288516,1,0,0:0:0:0:
256,192,288689,1,8,0:0:0:0:
256,192,288805,1,8,0:0:0:0:
256,192,288921,1,8,0:0:0:0:
256,192,289036,1,0,0:0:0:0:
256,192,289152,1,0,0:0:0:0:
256,192,289267,1,0,0:0:0:0:
256,192,289383,1,8,0:0:0:0:
256,192,289499,1,8,0:0:0:0:
256,192,289614,1,8,0:0:0:0:
256,192,289730,1,8,0:0:0:0:
256,192,289903,1,0,0:0:0:0:
256,192,290077,1,0,0:0:0:0:
256,192,290120,1,8,0:0:0:0:
256,192,290250,1,0,0:0:0:0:
256,192,290293,1,8,0:0:0:0:
256,192,290423,1,0,0:0:0:0:
256,192,290510,1,0,0:0:0:0:
256,192,290597,1,0,0:0:0:0:
256,192,290684,1,0,0:0:0:0:
256,192,290770,1,8,0:0:0:0:
256,192,290944,1,0,0:0:0:0:
256,192,291117,1,8,0:0:0:0:
256,192,291204,1,8,0:0:0:0:
256,192,291291,1,0,0:0:0:0:
256,192,291377,1,0,0:0:0:0:
256,192,291464,1,8,0:0:0:0:
256,192,291551,1,0,0:0:0:0:
256,192,291637,1,8,0:0:0:0:
256,192,291724,1,8,0:0:0:0:
256,192,291811,1,0,0:0:0:0:
256,192,291984,1,0,0:0:0:0:
256,192,292158,1,8,0:0:0:0:
256,192,292244,1,8,0:0:0:0:
256,192,292331,1,0,0:0:0:0:
256,192,292389,1,0,0:0:0:0:
256,192,292447,1,0,0:0:0:0:
256,192,292504,1,8,0:0:0:0:
256,192,292678,1,0,0:0:0:0:
256,192,292851,1,12,0:0:0:0:
256,192,293025,1,8,0:0:0:0:
256,192,293111,1,8,0:0:0:0:
256,192,293198,1,0,0:0:0:0:
256,192,293371,1,0,0:0:0:0:
256,192,293458,1,0,0:0:0:0:
256,192,293545,1,8,0:0:0:0:
256,192,293718,1,8,0:0:0:0:
256,192,293892,1,8,0:0:0:0:
256,192,294065,1,0,0:0:0:0:
256,192,294238,1,8,0:0:0:0:
256,192,294354,1,8,0:0:0:0:
256,192,294470,1,8,0:0:0:0:
256,192,294585,1,0,0:0:0:0:
256,192,294701,1,0,0:0:0:0:
256,192,294817,1,0,0:0:0:0:
256,192,294932,1,8,0:0:0:0:
256,192,295019,1,8,0:0:0:0:
256,192,295106,1,0,0:0:0:0:
256,192,295192,1,0,0:0:0:0:
256,192,295279,1,0,0:0:0:0:
256,192,295452,1,0,0:0:0:0:
256,192,295626,1,8,0:0:0:0:
256,192,295712,1,0,0:0:0:0:
256,192,295799,1,8,0:0:0:0:
256,192,295886,1,8,0:0:0:0:
256,192,295973,1,0,0:0:0:0:
256,192,296146,1,0,0:0:0:0:
256,192,296319,1,8,0:0:0:0:
256,192,296493,1,0,0:0:0:0:
256,192,296666,1,0,0:0:0:0:
256,192,296753,1,8,0:0:0:0:
256,192,296840,1,0,0:0:0:0:
256,192,297013,1,8,0:0:0:0:
256,192,297360,1,4,0:0:0:0:
256,192,297533,1,0,0:0:0:0:
256,192,297620,1,0,0:0:0:0:
256,192,297707,1,8,0:0:0:0:
256,192,297880,1,0,0:0:0:0:
256,192,298054,1,12,0:0:0:0:
256,192,298227,1,8,0:0:0:0:
256,192,298314,1,8,0:0:0:0:
256,192,298400,1,0,0:0:0:0:
256,192,298574,1,8,0:0:0:0:
256,192,298747,1,4,0:0:0:0:
256,192,299094,1,8,0:0:0:0:
256,192,299210,1,8,0:0:0:0:
256,192,299325,1,8,0:0:0:0:
256,192,299441,1,8,0:0:0:0:
256,192,299614,1,0,0:0:0:0:
256,192,299788,1,8,0:0:0:0:
256,192,299874,1,8,0:0:0:0:
256,192,299961,1,0,0:0:0:0:
256,192,300048,1,0,0:0:0:0:
256,192,300134,1,0,0:0:0:0:
256,192,300250,1,0,0:0:0:0:
256,192,300366,1,0,0:0:0:0:
256,192,300481,1,8,0:0:0:0:
256,192,300655,1,0,0:0:0:0:
256,192,300741,1,8,0:0:0:0:
256,192,300915,1,8,0:0:0:0:
256,192,301001,1,0,0:0:0:0:
256,192,301175,1,8,0:0:0:0:
256,192,301262,1,8,0:0:0:0:
256,192,301348,1,8,0:0:0:0:
256,192,301435,1,8,0:0:0:0:
256,192,301522,1,0,0:0:0:0:
256,192,301608,1,0,0:0:0:0:
256,192,301695,1,0,0:0:0:0:
256,192,301782,1,0,0:0:0:0:
256,192,301869,1,8,0:0:0:0:
256,192,302042,1,8,0:0:0:0:
256,192,302215,1,8,0:0:0:0:
256,192,302389,1,0,0:0:0:0:
256,192,302562,1,8,0:0:0:0:
256,192,302620,1,8,0:0:0:0:
256,192,302678,1,8,0:0:0:0:
256,192,302736,1,0,0:0:0:0:
256,192,302822,1,0,0:0:0:0:
256,192,302909,1,8,0:0:0:0:
256,192,303082,1,0,0:0:0:0:
256,192,303256,1,8,0:0:0:0:
256,192,303343,1,8,0:0:0:0:
256,192,303429,1,0,0:0:0:0:
256,192,303487,1,0,0:0:0:0:
256,192,303545,1,0,0:0:0:0:
256,192,303603,1,8,0:0:0:0:
256,192,303776,1,0,0:0:0:0:
256,192,303949,1,12,0:0:0:0:
256,192,304123,1,8,0:0:0:0:
256,192,304210,1,8,0:0:0:0:
256,192,304296,1,0,0:0:0:0:
256,192,304412,1,0,0:0:0:0:
256,192,304528,1,0,0:0:0:0:
256,192,304643,1,8,0:0:0:0:
256,192,304759,1,8,0:0:0:0:
256,192,304874,1,8,0:0:0:0:
256,192,304990,1,0,0:0:0:0:
256,192,305163,1,0,0:0:0:0:
256,192,305337,1,8,0:0:0:0:
256,192,305423,1,8,0:0:0:0:
256,192,305597,1,8,0:0:0:0:
256,192,305684,1,0,0:0:0:0:
256,192,305857,1,8,0:0:0:0:
256,192,306030,1,8,0:0:0:0:
256,192,306204,1,0,0:0:0:0:
256,192,306291,1,0,0:0:0:0:
256,192,306377,1,8,0:0:0:0:
256,192,306551,1,0,0:0:0:0:
256,192,306724,1,8,0:0:0:0:
256,192,306897,1,8,0:0:0:0:
256,192,307071,1,0,0:0:0:0:
256,192,307186,1,0,0:0:0:0:
256,192,307302,1,0,0:0:0:0:
256,192,307418,1,8,0:0:0:0:
256,192,307533,1,8,0:0:0:0:
256,192,307649,1,8,0:0:0:0:
256,192,307765,1,0,0:0:0:0:
256,192,307938,1,0,0:0:0:0:
256,192,308111,1,8,0:0:0:0:
256,192,308458,1,0,0:0:0:0:
256,192,308805,1,0,0:0:0:0:
256,192,308978,1,0,0:0:0:0:
256,192,309065,1,0,0:0:0:0:
256,192,309152,1,0,0:0:0:0:
256,192,309210,1,0,0:0:0:0:
256,192,309267,1,0,0:0:0:0:
256,192,309325,1,0,0:0:0:0:
256,192,309369,1,0,0:0:0:0:
256,192,309412,1,0,0:0:0:0:
256,192,309455,1,0,0:0:0:0:
256,192,309499,1,0,0:0:0:0:
256,192,309845,1,0,0:0:0:0:
256,192,310106,1,8,0:0:0:0:
256,192,310366,1,0,0:0:0:0:
256,192,310626,1,8,0:0:0:0:
256,192,310886,1,0,0:0:0:0:
256,192,311059,1,0,0:0:0:0:
256,192,311233,5,8,0:0:0:0:
256,192,311319,1,0,0:0:0:0:
256,192,311406,1,8,0:0:0:0:
256,192,311493,1,8,0:0:0:0:
256,192,311579,1,8,0:0:0:0:
256,192,311666,1,0,0:0:0:0:
256,192,311753,1,8,0:0:0:0:
256,192,311839,1,8,0:0:0:0:
256,192,311926,1,0,0:0:0:0:
256,192,312013,1,8,0:0:0:0:
256,192,312100,1,8,0:0:0:0:
256,192,312186,1,0,0:0:0:0:
256,192,312273,1,8,0:0:0:0:
256,192,312360,1,0,0:0:0:0:
256,192,312446,1,8,0:0:0:0:
256,192,312533,1,8,0:0:0:0:
256,192,312620,1,0,0:0:0:0:
256,192,312706,1,0,0:0:0:0:
256,192,312793,1,0,0:0:0:0:
256,192,312880,1,0,0:0:0:0:
256,192,312967,1,8,0:0:0:0:
256,192,313053,1,0,0:0:0:0:
256,192,313140,1,8,0:0:0:0:
256,192,313227,1,8,0:0:0:0:
256,192,313313,1,0,0:0:0:0:
256,192,313400,1,8,0:0:0:0:
256,192,313487,1,0,0:0:0:0:
256,192,313574,1,0,0:0:0:0:
256,192,313660,1,8,0:0:0:0:
256,192,313747,1,8,0:0:0:0:
256,192,313834,1,0,0:0:0:0:
256,192,313920,1,0,0:0:0:0:
256,192,314007,1,8,0:0:0:0:
256,192,314094,1,0,0:0:0:0:
256,192,314181,1,8,0:0:0:0:
256,192,314268,1,8,0:0:0:0:
256,192,314354,1,8,0:0:0:0:
256,192,314441,1,0,0:0:0:0:
256,192,314528,1,8,0:0:0:0:
256,192,314614,1,8,0:0:0:0:
256,192,314701,1,0,0:0:0:0:
256,192,314788,1,8,0:0:0:0:
256,192,314875,1,8,0:0:0:0:
256,192,314961,1,0,0:0:0:0:
256,192,315048,1,8,0:0:0:0:
256,192,315135,1,0,0:0:0:0:
256,192,315221,1,8,0:0:0:0:
256,192,315308,1,8,0:0:0:0:
256,192,315395,1,0,0:0:0:0:
256,192,315481,1,0,0:0:0:0:
256,192,315568,1,8,0:0:0:0:
256,192,315655,1,8,0:0:0:0:
256,192,315741,1,0,0:0:0:0:
256,192,315828,1,0,0:0:0:0:
256,192,315915,1,8,0:0:0:0:
256,192,316001,1,0,0:0:0:0:
256,192,316088,1,8,0:0:0:0:
256,192,316175,1,8,0:0:0:0:
256,192,316261,1,0,0:0:0:0:
256,192,316348,1,8,0:0:0:0:
256,192,316435,1,0,0:0:0:0:
256,192,316522,1,0,0:0:0:0:
256,192,316608,1,8,0:0:0:0:
256,192,316695,1,0,0:0:0:0:
256,192,316782,1,8,0:0:0:0:
256,192,316868,1,0,0:0:0:0:
256,192,316955,1,8,0:0:0:0:
256,192,317042,1,8,0:0:0:0:
256,192,317128,1,8,0:0:0:0:
256,192,317215,1,0,0:0:0:0:
256,192,317302,1,8,0:0:0:0:
256,192,317388,1,8,0:0:0:0:
256,192,317475,1,0,0:0:0:0:
256,192,317562,1,8,0:0:0:0:
256,192,317649,1,8,0:0:0:0:
256,192,317735,1,0,0:0:0:0:
256,192,317822,1,8,0:0:0:0:
256,192,317909,1,0,0:0:0:0:
256,192,317995,1,8,0:0:0:0:
256,192,318082,1,8,0:0:0:0:
256,192,318169,1,0,0:0:0:0:
256,192,318255,1,0,0:0:0:0:
256,192,318342,1,0,0:0:0:0:
256,192,318429,1,0,0:0:0:0:
256,192,318516,1,8,0:0:0:0:
256,192,318602,1,0,0:0:0:0:
256,192,318689,1,8,0:0:0:0:
256,192,318776,1,8,0:0:0:0:
256,192,318862,1,0,0:0:0:0:
256,192,318949,1,8,0:0:0:0:
256,192,319036,1,0,0:0:0:0:
256,192,319123,1,0,0:0:0:0:
256,192,319209,1,8,0:0:0:0:
256,192,319296,1,8,0:0:0:0:
256,192,319383,1,0,0:0:0:0:
256,192,319469,1,0,0:0:0:0:
256,192,319556,1,8,0:0:0:0:
256,192,319643,1,0,0:0:0:0:
256,192,319730,1,8,0:0:0:0:
256,192,319817,1,8,0:0:0:0:
256,192,319903,1,8,0:0:0:0:
256,192,319990,1,0,0:0:0:0:
256,192,320077,1,8,0:0:0:0:
256,192,320163,1,8,0:0:0:0:
256,192,320250,1,0,0:0:0:0:
256,192,320337,1,8,0:0:0:0:
256,192,320424,1,8,0:0:0:0:
256,192,320510,1,0,0:0:0:0:
256,192,320597,1,8,0:0:0:0:
256,192,320684,1,0,0:0:0:0:
256,192,320770,1,8,0:0:0:0:
256,192,320857,1,8,0:0:0:0:
256,192,320944,1,0,0:0:0:0:
256,192,321030,1,0,0:0:0:0:
256,192,321117,1,0,0:0:0:0:
256,192,321204,1,0,0:0:0:0:
256,192,321290,1,8,0:0:0:0:
256,192,321377,1,0,0:0:0:0:
256,192,321464,1,8,0:0:0:0:
256,192,321550,1,0,0:0:0:0:
256,192,321637,1,8,0:0:0:0:
256,192,321724,1,0,0:0:0:0:
256,192,321810,1,8,0:0:0:0:
256,192,321897,1,0,0:0:0:0:
256,192,321984,1,8,0:0:0:0:
256,192,322071,1,8,0:0:0:0:
256,192,322157,1,0,0:0:0:0:
256,192,322244,1,0,0:0:0:0:
256,192,322331,5,8,0:0:0:0:
256,192,322417,1,0,0:0:0:0:
256,192,322504,1,8,0:0:0:0:
256,192,322591,1,8,0:0:0:0:
256,192,322677,1,8,0:0:0:0:
256,192,322764,1,0,0:0:0:0:
256,192,322851,1,8,0:0:0:0:
256,192,322937,1,8,0:0:0:0:
256,192,323024,1,0,0:0:0:0:
256,192,323111,1,8,0:0:0:0:
256,192,323198,1,8,0:0:0:0:
256,192,323284,1,0,0:0:0:0:
256,192,323371,1,8,0:0:0:0:
256,192,323458,1,0,0:0:0:0:
256,192,323544,1,8,0:0:0:0:
256,192,323631,1,8,0:0:0:0:
256,192,323718,1,0,0:0:0:0:
256,192,323804,1,0,0:0:0:0:
256,192,323891,1,0,0:0:0:0:
256,192,323978,1,0,0:0:0:0:
256,192,324065,1,8,0:0:0:0:
256,192,324151,1,0,0:0:0:0:
256,192,324238,1,8,0:0:0:0:
256,192,324325,1,8,0:0:0:0:
256,192,324411,1,0,0:0:0:0:
256,192,324498,1,8,0:0:0:0:
256,192,324585,1,0,0:0:0:0:
256,192,324672,1,0,0:0:0:0:
256,192,324758,1,8,0:0:0:0:
256,192,324845,1,8,0:0:0:0:
256,192,324932,1,0,0:0:0:0:
256,192,325018,1,0,0:0:0:0:
256,192,325105,1,8,0:0:0:0:
256,192,325192,1,0,0:0:0:0:
256,192,325279,1,8,0:0:0:0:
256,192,325366,1,8,0:0:0:0:
256,192,325452,1,8,0:0:0:0:
256,192,325539,1,0,0:0:0:0:
256,192,325626,1,8,0:0:0:0:
256,192,325712,1,8,0:0:0:0:
256,192,325799,1,0,0:0:0:0:
256,192,325886,1,8,0:0:0:0:
256,192,325973,1,8,0:0:0:0:
256,192,326059,1,0,0:0:0:0:
256,192,326146,1,8,0:0:0:0:
256,192,326233,1,0,0:0:0:0:
256,192,326319,1,8,0:0:0:0:
256,192,326406,1,8,0:0:0:0:
256,192,326493,1,0,0:0:0:0:
256,192,326579,1,0,0:0:0:0:
256,192,326666,1,8,0:0:0:0:
256,192,326753,1,8,0:0:0:0:
256,192,326839,1,0,0:0:0:0:
256,192,326926,1,0,0:0:0:0:
256,192,327013,1,8,0:0:0:0:
256,192,327099,1,0,0:0:0:0:
256,192,327186,1,8,0:0:0:0:
256,192,327273,1,8,0:0:0:0:
256,192,327359,1,0,0:0:0:0:
256,192,327446,1,8,0:0:0:0:
256,192,327533,1,0,0:0:0:0:
256,192,327620,1,0,0:0:0:0:
256,192,327706,1,8,0:0:0:0:
256,192,327793,1,0,0:0:0:0:
256,192,327880,1,8,0:0:0:0:
256,192,327966,1,0,0:0:0:0:
256,192,328053,1,8,0:0:0:0:
256,192,328140,1,8,0:0:0:0:
256,192,328226,1,8,0:0:0:0:
256,192,328313,1,0,0:0:0:0:
256,192,328400,1,8,0:0:0:0:
256,192,328486,1,8,0:0:0:0:
256,192,328573,1,0,0:0:0:0:
256,192,328660,1,8,0:0:0:0:
256,192,328747,1,8,0:0:0:0:
256,192,328833,1,0,0:0:0:0:
256,192,328920,1,8,0:0:0:0:
256,192,329007,1,0,0:0:0:0:
256,192,329093,1,8,0:0:0:0:
256,192,329180,1,8,0:0:0:0:
256,192,329267,1,0,0:0:0:0:
256,192,329353,1,0,0:0:0:0:
256,192,329440,1,0,0:0:0:0:
256,192,329527,1,0,0:0:0:0:
256,192,329614,1,8,0:0:0:0:
256,192,329700,1,0,0:0:0:0:
256,192,329787,1,8,0:0:0:0:
256,192,329874,1,8,0:0:0:0:
256,192,329960,1,0,0:0:0:0:
256,192,330047,1,8,0:0:0:0:
256,192,330134,1,0,0:0:0:0:
256,192,330221,1,0,0:0:0:0:
256,192,330307,1,8,0:0:0:0:
256,192,330394,1,8,0:0:0:0:
256,192,330481,1,0,0:0:0:0:
256,192,330567,1,0,0:0:0:0:
256,192,330654,1,8,0:0:0:0:
256,192,330741,1,0,0:0:0:0:
256,192,330828,1,8,0:0:0:0:
256,192,330915,1,8,0:0:0:0:
256,192,331001,1,8,0:0:0:0:
256,192,331088,1,0,0:0:0:0:
256,192,331175,1,8,0:0:0:0:
256,192,331261,1,8,0:0:0:0:
256,192,331348,1,0,0:0:0:0:
256,192,331435,1,8,0:0:0:0:
256,192,331522,1,8,0:0:0:0:
256,192,331608,1,0,0:0:0:0:
256,192,331695,1,8,0:0:0:0:
256,192,331782,1,0,0:0:0:0:
256,192,331868,1,8,0:0:0:0:
256,192,331955,1,8,0:0:0:0:
256,192,332042,1,0,0:0:0:0:
256,192,332128,1,0,0:0:0:0:
256,192,332215,1,0,0:0:0:0:
256,192,332302,1,0,0:0:0:0:
256,192,332388,1,8,0:0:0:0:
256,192,332475,1,0,0:0:0:0:
256,192,332562,1,8,0:0:0:0:
256,192,332648,1,0,0:0:0:0:
256,192,332735,1,8,0:0:0:0:
256,192,332822,1,0,0:0:0:0:
256,192,332908,1,8,0:0:0:0:
256,192,332995,1,0,0:0:0:0:
256,192,333082,1,8,0:0:0:0:
256,192,333169,1,8,0:0:0:0:
256,192,333255,1,0,0:0:0:0:
256,192,333342,1,0,0:0:0:0:
256,192,333430,1,8,0:0:0:0:
256,192,333516,1,8,0:0:0:0:
256,192,333603,1,0,0:0:0:0:
256,192,333690,1,0,0:0:0:0:
256,192,333776,1,8,0:0:0:0:
256,192,333863,1,0,0:0:0:0:
256,192,333950,1,8,0:0:0:0:
256,192,334036,1,0,0:0:0:0:
256,192,334123,1,0,0:0:0:0:
256,192,334210,1,8,0:0:0:0:
256,192,334297,1,0,0:0:0:0:
256,192,334383,1,0,0:0:0:0:
256,192,334470,1,8,0:0:0:0:
256,192,334557,1,0,0:0:0:0:
256,192,334643,1,8,0:0:0:0:
256,192,334730,1,8,0:0:0:0:
256,192,334817,1,0,0:0:0:0:
256,192,334903,1,0,0:0:0:0:
256,192,334990,1,0,0:0:0:0:
256,192,335077,1,0,0:0:0:0:
256,192,335164,1,8,0:0:0:0:
256,192,335250,1,0,0:0:0:0:
256,192,335337,1,8,0:0:0:0:
256,192,335424,1,8,0:0:0:0:
256,192,335510,1,0,0:0:0:0:
256,192,335597,1,8,0:0:0:0:
256,192,335684,1,0,0:0:0:0:
256,192,335771,1,0,0:0:0:0:
256,192,335857,1,8,0:0:0:0:
256,192,335944,1,8,0:0:0:0:
256,192,336031,1,0,0:0:0:0:
256,192,336117,1,0,0:0:0:0:
256,192,336204,1,8,0:0:0:0:
256,192,336291,1,0,0:0:0:0:
256,192,336377,1,0,0:0:0:0:
256,192,336464,1,0,0:0:0:0:
256,192,336551,1,8,0:0:0:0:
256,192,336638,1,0,0:0:0:0:
256,192,336724,1,8,0:0:0:0:
256,192,336811,1,8,0:0:0:0:
256,192,336898,1,0,0:0:0:0:
256,192,336984,1,8,0:0:0:0:
256,192,337071,1,0,0:0:0:0:
256,192,337158,1,0,0:0:0:0:
256,192,337245,1,8,0:0:0:0:
256,192,337331,1,0,0:0:0:0:
256,192,337418,1,8,0:0:0:0:
256,192,337505,1,8,0:0:0:0:
256,192,337591,1,0,0:0:0:0:
256,192,337677,1,0,0:0:0:0:
256,192,337764,1,8,0:0:0:0:
256,192,337851,1,8,0:0:0:0:
256,192,337937,1,0,0:0:0:0:
256,192,338024,1,0,0:0:0:0:
256,192,338111,1,8,0:0:0:0:
256,192,338199,1,0,0:0:0:0:
256,192,338284,5,8,0:0:0:0:
256,192,338371,1,8,0:0:0:0:
256,192,338459,1,0,0:0:0:0:
256,192,338544,1,8,0:0:0:0:
256,192,338631,1,0,0:0:0:0:
256,192,338718,1,0,0:0:0:0:
256,192,338804,1,8,0:0:0:0:
256,192,338891,1,0,0:0:0:0:
256,192,338978,5,8,0:0:0:0:
256,192,339064,1,0,0:0:0:0:
256,192,339151,1,8,0:0:0:0:
256,192,339238,1,8,0:0:0:0:
256,192,339324,1,8,0:0:0:0:
256,192,339411,1,0,0:0:0:0:
256,192,339498,1,8,0:0:0:0:
256,192,339584,1,8,0:0:0:0:
256,192,339671,1,0,0:0:0:0:
256,192,339758,1,8,0:0:0:0:
256,192,339845,1,8,0:0:0:0:
256,192,339931,1,0,0:0:0:0:
256,192,340018,1,8,0:0:0:0:
256,192,340105,1,0,0:0:0:0:
256,192,340191,1,8,0:0:0:0:
256,192,340278,1,8,0:0:0:0:
256,192,340365,1,0,0:0:0:0:
256,192,340451,1,0,0:0:0:0:
256,192,340538,1,0,0:0:0:0:
256,192,340625,1,0,0:0:0:0:
256,192,340712,1,8,0:0:0:0:
256,192,340798,1,0,0:0:0:0:
256,192,340885,1,8,0:0:0:0:
256,192,340972,1,8,0:0:0:0:
256,192,341058,1,0,0:0:0:0:
256,192,341145,1,8,0:0:0:0:
256,192,341232,1,0,0:0:0:0:
256,192,341319,1,0,0:0:0:0:
256,192,341405,1,8,0:0:0:0:
256,192,341492,1,8,0:0:0:0:
256,192,341579,1,0,0:0:0:0:
256,192,341665,1,0,0:0:0:0:
256,192,341752,1,8,0:0:0:0:
256,192,341839,1,0,0:0:0:0:
256,192,341926,1,8,0:0:0:0:
256,192,342013,1,8,0:0:0:0:
256,192,342099,1,8,0:0:0:0:
256,192,342186,1,0,0:0:0:0:
256,192,342273,1,8,0:0:0:0:
256,192,342359,1,8,0:0:0:0:
256,192,342446,1,0,0:0:0:0:
256,192,342533,1,8,0:0:0:0:
256,192,342620,1,8,0:0:0:0:
256,192,342706,1,0,0:0:0:0:
256,192,342793,1,8,0:0:0:0:
256,192,342880,1,0,0:0:0:0:
256,192,342966,1,8,0:0:0:0:
256,192,343053,1,8,0:0:0:0:
256,192,343140,1,0,0:0:0:0:
256,192,343226,1,0,0:0:0:0:
256,192,343313,1,0,0:0:0:0:
256,192,343400,1,0,0:0:0:0:
256,192,343486,1,8,0:0:0:0:
256,192,343573,1,0,0:0:0:0:
256,192,343660,1,8,0:0:0:0:
256,192,343746,1,0,0:0:0:0:
256,192,343833,1,8,0:0:0:0:
256,192,343920,1,0,0:0:0:0:
256,192,344006,1,8,0:0:0:0:
256,192,344093,1,0,0:0:0:0:
256,192,344181,1,8,0:0:0:0:
256,192,344268,1,8,0:0:0:0:
256,192,344354,1,0,0:0:0:0:
256,192,344441,1,0,0:0:0:0:
256,192,344529,1,8,0:0:0:0:
256,192,344615,1,8,0:0:0:0:
256,192,344702,1,0,0:0:0:0:
256,192,344789,1,0,0:0:0:0:
256,192,344875,1,8,0:0:0:0:
256,192,344962,1,0,0:0:0:0:
256,192,345049,1,8,0:0:0:0:
256,192,345135,1,0,0:0:0:0:
256,192,345222,1,0,0:0:0:0:
256,192,345309,1,8,0:0:0:0:
256,192,345396,1,0,0:0:0:0:
256,192,345482,1,0,0:0:0:0:
256,192,345569,1,8,0:0:0:0:
256,192,345656,1,0,0:0:0:0:
256,192,345742,1,8,0:0:0:0:
256,192,345829,1,8,0:0:0:0:
256,192,345916,1,0,0:0:0:0:
256,192,346002,1,0,0:0:0:0:
256,192,346089,1,0,0:0:0:0:
256,192,346176,1,0,0:0:0:0:
256,192,346263,1,8,0:0:0:0:
256,192,346349,1,0,0:0:0:0:
256,192,346436,1,8,0:0:0:0:
256,192,346523,1,8,0:0:0:0:
256,192,346609,1,0,0:0:0:0:
256,192,346696,1,8,0:0:0:0:
256,192,346783,1,0,0:0:0:0:
256,192,346870,1,0,0:0:0:0:
256,192,346956,1,8,0:0:0:0:
256,192,347043,1,8,0:0:0:0:
256,192,347130,1,0,0:0:0:0:
256,192,347216,1,0,0:0:0:0:
256,192,347303,1,8,0:0:0:0:
256,192,347390,1,0,0:0:0:0:
256,192,347476,1,0,0:0:0:0:
256,192,347563,1,0,0:0:0:0:
256,192,347650,1,8,0:0:0:0:
256,192,347737,1,0,0:0:0:0:
256,192,347823,1,8,0:0:0:0:
256,192,347910,1,8,0:0:0:0:
256,192,347997,1,0,0:0:0:0:
256,192,348083,1,8,0:0:0:0:
256,192,348170,1,0,0:0:0:0:
256,192,348257,1,0,0:0:0:0:
256,192,348344,1,8,0:0:0:0:
256,192,348430,1,0,0:0:0:0:
256,192,348517,1,8,0:0:0:0:
256,192,348604,1,8,0:0:0:0:
256,192,348690,1,0,0:0:0:0:
256,192,348776,1,0,0:0:0:0:
256,192,348863,1,8,0:0:0:0:
256,192,348950,1,8,0:0:0:0:
256,192,349036,1,0,0:0:0:0:
256,192,349123,1,0,0:0:0:0:
256,192,349210,1,8,0:0:0:0:
256,192,349296,1,0,0:0:0:0:
256,192,349383,5,8,0:0:0:0:
256,192,349470,1,8,0:0:0:0:
256,192,349556,1,0,0:0:0:0:
256,192,349643,1,8,0:0:0:0:
256,192,349730,1,0,0:0:0:0:
256,192,349817,1,0,0:0:0:0:
256,192,349903,1,8,0:0:0:0:
256,192,349990,1,0,0:0:0:0:
256,192,350077,5,8,0:0:0:0:
256,192,350163,1,0,0:0:0:0:
256,192,350250,1,8,0:0:0:0:
256,192,350337,1,8,0:0:0:0:
256,192,350423,1,8,0:0:0:0:
256,192,350510,1,0,0:0:0:0:
256,192,350597,1,8,0:0:0:0:
256,192,350683,1,8,0:0:0:0:
256,192,350770,1,0,0:0:0:0:
256,192,350857,1,8,0:0:0:0:
256,192,350944,1,8,0:0:0:0:
256,192,351030,1,0,0:0:0:0:
256,192,351117,1,8,0:0:0:0:
256,192,351204,1,0,0:0:0:0:
256,192,351290,1,8,0:0:0:0:
256,192,351377,1,8,0:0:0:0:
256,192,351464,1,0,0:0:0:0:
256,192,351550,1,0,0:0:0:0:
256,192,351637,1,0,0:0:0:0:
256,192,351724,1,0,0:0:0:0:
256,192,351811,1,8,0:0:0:0:
256,192,351897,1,0,0:0:0:0:
256,192,351984,1,8,0:0:0:0:
256,192,352071,1,8,0:0:0:0:
256,192,352157,1,0,0:0:0:0:
256,192,352244,1,8,0:0:0:0:
256,192,352331,1,0,0:0:0:0:
256,192,352418,1,0,0:0:0:0:
256,192,352504,1,8,0:0:0:0:
256,192,352591,1,8,0:0:0:0:
256,192,352678,1,0,0:0:0:0:
256,192,352764,1,0,0:0:0:0:
256,192,352852,1,8,0:0:0:0:
256,192,352938,1,0,0:0:0:0:
256,192,353025,1,0,0:0:0:0:
256,192,353112,1,0,0:0:0:0:
256,192,353199,1,8,0:0:0:0:
256,192,353285,1,0,0:0:0:0:
256,192,353372,1,0,0:0:0:0:
256,192,353459,1,0,0:0:0:0:
256,192,353545,1,8,0:0:0:0:
256,192,353632,1,8,0:0:0:0:
256,192,353719,1,8,0:0:0:0:
256,192,353805,1,0,0:0:0:0:
256,192,353892,1,8,0:0:0:0:
256,192,353979,1,8,0:0:0:0:
256,192,354066,1,0,0:0:0:0:
256,192,354152,1,0,0:0:0:0:
256,192,354239,1,8,0:0:0:0:
256,192,354326,1,0,0:0:0:0:
256,192,354412,1,0,0:0:0:0:
256,192,354499,1,0,0:0:0:0:
256,192,354586,1,8,0:0:0:0:
256,192,354673,1,0,0:0:0:0:
256,192,354759,1,8,0:0:0:0:
256,192,354846,1,0,0:0:0:0:
256,192,354932,1,8,0:0:0:0:
256,192,355019,1,0,0:0:0:0:
256,192,355105,1,0,0:0:0:0:
256,192,355192,1,0,0:0:0:0:
256,192,355279,1,8,0:0:0:0:
256,192,355366,1,0,0:0:0:0:
256,192,355452,1,8,0:0:0:0:
256,192,355539,1,0,0:0:0:0:
256,192,355626,1,8,0:0:0:0:
256,192,355713,1,0,0:0:0:0:
256,192,355799,1,0,0:0:0:0:
256,192,355886,1,0,0:0:0:0:
256,192,355973,1,8,0:0:0:0:
256,192,356060,1,0,0:0:0:0:
256,192,356146,1,8,0:0:0:0:
256,192,356233,1,0,0:0:0:0:
256,192,356319,1,8,0:0:0:0:
256,192,356376,1,8,0:0:0:0:
256,192,356434,1,8,0:0:0:0:
256,192,356492,1,0,0:0:0:0:
256,192,356550,1,0,0:0:0:0:
256,192,356608,1,0,0:0:0:0:
256,192,356665,1,8,0:0:0:0:
256,192,356752,1,0,0:0:0:0:
256,192,356839,1,8,0:0:0:0:
256,192,356926,1,8,0:0:0:0:
256,192,357013,1,0,0:0:0:0:
256,192,357100,12,0,361175,0:0:0:0:
