osu file format v14

[General]
AudioFilename: NOMA - Brain Power.mp3
AudioLeadIn: 0
PreviewTime: 186359
Countdown: 0
SampleSet: Soft
StackLeniency: 0.7
Mode: 3
LetterboxInBreaks: 0
SpecialStyle: 0
WidescreenStoryboard: 1

[Editor]
DistanceSpacing: 1.2
BeatDivisor: 4
GridSize: 8
TimelineZoom: 1.9

[Metadata]
Title:Brain Power Long Version
TitleUnicode:Brain Power Long Version
Artist:NOMA
ArtistUnicode:NOMA
Creator:Hydria
Version:AAAAE-A-A-I-A-U-JO-oooooooooooo
Source:
Tags:
BeatmapID:1026206
BeatmapSetID:480741

[Difficulty]
HPDrainRate:8.5
CircleSize:4
OverallDifficulty:8.5
ApproachRate:5
SliderMultiplier:1.4
SliderTickRate:1

[Events]
//Background and Video events
0,0,"sky-cloud-anime-99505.jpg",0,0
//Break Periods
//Storyboard Layer 0 (Background)
//Storyboard Layer 1 (Fail)
//Storyboard Layer 2 (Pass)
//Storyboard Layer 3 (Foreground)
//Storyboard Sound Samples

[TimingPoints]
2228,352.941176470588,4,2,0,100,1,0
86933,350.877192982456,4,2,0,100,1,0
91143,348.837209302326,4,2,0,100,1,0
95329,346.820809248555,4,2,0,100,1,0
95329,-100,4,2,0,100,0,1
128623,352.941176470588,4,2,0,100,1,0
128623,-100,4,2,0,100,0,0
179446,350.877192982456,4,2,0,100,1,0
182253,348.837209302326,4,2,0,100,1,0
185043,346.820809248555,4,2,0,100,1,0
187817,346.820809248555,4,2,0,100,1,0
187817,-100,4,2,0,100,0,1
221111,-100,4,2,0,100,0,0
311285,-100,4,2,0,100,0,1
357065,-100,4,2,0,100,0,0

[HitObjects]
64,192,1875,128,0,2051:0:0:0:0:
192,192,2051,128,0,2228:0:0:0:0:
320,192,2228,1,0,0:0:0:0:
448,192,2228,1,0,0:0:0:0:
320,192,2404,1,0,0:0:0:0:
64,192,2404,128,0,2757:0:0:0:0:
192,192,2492,1,0,0:0:0:0:
448,192,2580,1,0,0:0:0:0:
320,192,2580,1,0,0:0:0:0:
448,192,2757,1,0,0:0:0:0:
192,192,2845,1,0,0:0:0:0:
320,192,2933,1,0,0:0:0:0:
64,192,2933,1,0,0:0:0:0:
192,192,3110,1,0,0:0:0:0:
64,192,3198,1,0,0:0:0:0:
320,192,3286,1,0,0:0:0:0:
448,192,3286,1,0,0:0:0:0:
64,192,3463,1,0,0:0:0:0:
448,192,3551,1,0,0:0:0:0:
192,192,3639,1,0,0:0:0:0:
320,192,3639,1,0,0:0:0:0:
448,192,3816,1,0,0:0:0:0:
320,192,3904,1,0,0:0:0:0:
192,192,3992,1,0,0:0:0:0:
64,192,3992,1,0,0:0:0:0:
448,192,4169,1,0,0:0:0:0:
64,192,4257,1,0,0:0:0:0:
320,192,4345,1,0,0:0:0:0:
192,192,4345,1,0,0:0:0:0:
64,192,4522,1,0,0:0:0:0:
320,192,4610,1,0,0:0:0:0:
192,192,4698,1,0,0:0:0:0:
448,192,4698,1,0,0:0:0:0:
320,192,4875,1,0,0:0:0:0:
192,192,4963,1,0,0:0:0:0:
64,192,5051,1,0,0:0:0:0:
448,192,5051,1,0,0:0:0:0:
192,192,5227,1,0,0:0:0:0:
64,192,5316,1,0,0:0:0:0:
320,192,5404,1,0,0:0:0:0:
448,192,5404,1,0,0:0:0:0:
64,192,5580,1,0,0:0:0:0:
448,192,5669,1,0,0:0:0:0:
192,192,5757,1,0,0:0:0:0:
320,192,5757,1,0,0:0:0:0:
448,192,5933,1,0,0:0:0:0:
192,192,6022,1,0,0:0:0:0:
320,192,6110,1,0,0:0:0:0:
64,192,6110,1,0,0:0:0:0:
192,192,6286,1,0,0:0:0:0:
320,192,6375,1,0,0:0:0:0:
64,192,6463,1,0,0:0:0:0:
448,192,6463,1,0,0:0:0:0:
320,192,6639,1,0,0:0:0:0:
448,192,6727,1,0,0:0:0:0:
64,192,6816,1,0,0:0:0:0:
192,192,6816,1,0,0:0:0:0:
320,192,6992,1,0,0:0:0:0:
448,192,7080,1,0,0:0:0:0:
192,192,7169,1,0,0:0:0:0:
64,192,7169,1,0,0:0:0:0:
320,192,7345,1,0,0:0:0:0:
192,192,7433,1,0,0:0:0:0:
448,192,7522,1,0,0:0:0:0:
64,192,7522,1,0,0:0:0:0:
64,192,7698,1,0,0:0:0:0:
192,192,7698,1,0,0:0:0:0:
448,192,7786,1,0,0:0:0:0:
320,192,7875,1,0,0:0:0:0:
192,192,7875,1,0,0:0:0:0:
64,192,8051,1,0,0:0:0:0:
192,192,8139,1,0,0:0:0:0:
320,192,8227,1,0,0:0:0:0:
448,192,8227,1,0,0:0:0:0:
192,192,8404,1,0,0:0:0:0:
320,192,8492,1,0,0:0:0:0:
448,192,8580,1,0,0:0:0:0:
64,192,8580,1,0,0:0:0:0:
192,192,8757,1,0,0:0:0:0:
448,192,8845,1,0,0:0:0:0:
64,192,8933,1,0,0:0:0:0:
320,192,8933,1,0,0:0:0:0:
448,192,9110,1,0,0:0:0:0:
64,192,9198,1,0,0:0:0:0:
192,192,9286,1,0,0:0:0:0:
320,192,9286,1,0,0:0:0:0:
64,192,9463,1,0,0:0:0:0:
192,192,9551,1,0,0:0:0:0:
448,192,9639,1,0,0:0:0:0:
320,192,9639,1,0,0:0:0:0:
192,192,9816,1,0,0:0:0:0:
320,192,9904,1,0,0:0:0:0:
64,192,9992,1,0,0:0:0:0:
448,192,9992,1,0,0:0:0:0:
320,192,10169,1,0,0:0:0:0:
448,192,10257,1,0,0:0:0:0:
192,192,10345,1,0,0:0:0:0:
64,192,10345,1,0,0:0:0:0:
448,192,10522,1,0,0:0:0:0:
192,192,10610,1,0,0:0:0:0:
320,192,10698,1,0,0:0:0:0:
64,192,10698,1,0,0:0:0:0:
192,192,10875,1,0,0:0:0:0:
320,192,10963,1,0,0:0:0:0:
64,192,11051,1,0,0:0:0:0:
448,192,11051,1,0,0:0:0:0:
192,192,11227,1,0,0:0:0:0:
64,192,11316,1,0,0:0:0:0:
320,192,11404,1,0,0:0:0:0:
448,192,11404,1,0,0:0:0:0:
64,192,11580,1,0,0:0:0:0:
448,192,11669,1,0,0:0:0:0:
192,192,11757,1,0,0:0:0:0:
320,192,11757,1,0,0:0:0:0:
448,192,11933,1,0,0:0:0:0:
192,192,12022,1,0,0:0:0:0:
320,192,12110,1,0,0:0:0:0:
64,192,12110,1,0,0:0:0:0:
192,192,12286,1,0,0:0:0:0:
64,192,12375,1,0,0:0:0:0:
320,192,12463,1,0,0:0:0:0:
448,192,12463,1,0,0:0:0:0:
64,192,12639,128,0,12816:0:0:0:0:
192,192,12816,1,0,0:0:0:0:
320,192,12816,1,0,0:0:0:0:
320,192,12933,1,0,0:0:0:0:
192,192,12933,1,0,0:0:0:0:
320,192,13051,1,0,0:0:0:0:
192,192,13051,1,0,0:0:0:0:
64,192,13169,1,0,0:0:0:0:
448,192,13169,1,0,0:0:0:0:
192,192,13345,128,0,13522:0:0:0:0:
320,192,13522,1,0,0:0:0:0:
448,192,13522,1,0,0:0:0:0:
64,192,13698,1,0,0:0:0:0:
448,192,13786,1,0,0:0:0:0:
192,192,13875,1,0,0:0:0:0:
320,192,13875,1,0,0:0:0:0:
448,192,14051,1,0,0:0:0:0:
192,192,14139,1,0,0:0:0:0:
320,192,14227,1,0,0:0:0:0:
64,192,14227,1,0,0:0:0:0:
192,192,14404,1,0,0:0:0:0:
64,192,14492,1,0,0:0:0:0:
320,192,14580,1,0,0:0:0:0:
448,192,14580,1,0,0:0:0:0:
64,192,14757,1,0,0:0:0:0:
448,192,14845,1,0,0:0:0:0:
192,192,14933,1,0,0:0:0:0:
320,192,14933,1,0,0:0:0:0:
448,192,15110,1,0,0:0:0:0:
192,192,15198,1,0,0:0:0:0:
320,192,15286,1,0,0:0:0:0:
64,192,15286,1,0,0:0:0:0:
192,192,15463,1,0,0:0:0:0:
64,192,15551,1,0,0:0:0:0:
320,192,15639,1,0,0:0:0:0:
448,192,15639,1,0,0:0:0:0:
64,192,15816,1,0,0:0:0:0:
448,192,15904,1,0,0:0:0:0:
192,192,15992,1,0,0:0:0:0:
320,192,15992,1,0,0:0:0:0:
448,192,16169,1,0,0:0:0:0:
320,192,16257,1,0,0:0:0:0:
64,192,16345,1,0,0:0:0:0:
192,192,16345,1,0,0:0:0:0:
448,192,16522,1,0,0:0:0:0:
192,192,16610,1,0,0:0:0:0:
320,192,16698,1,0,0:0:0:0:
64,192,16698,1,0,0:0:0:0:
192,192,16875,1,0,0:0:0:0:
64,192,16963,1,0,0:0:0:0:
320,192,17051,1,0,0:0:0:0:
448,192,17051,1,0,0:0:0:0:
64,192,17227,1,0,0:0:0:0:
448,192,17316,1,0,0:0:0:0:
192,192,17404,1,0,0:0:0:0:
320,192,17404,1,0,0:0:0:0:
448,192,17580,1,0,0:0:0:0:
192,192,17669,1,0,0:0:0:0:
320,192,17757,1,0,0:0:0:0:
64,192,17757,1,0,0:0:0:0:
192,192,17933,1,0,0:0:0:0:
64,192,18022,1,0,0:0:0:0:
320,192,18110,1,0,0:0:0:0:
448,192,18110,1,0,0:0:0:0:
64,192,18286,1,0,0:0:0:0:
448,192,18375,1,0,0:0:0:0:
192,192,18463,1,0,0:0:0:0:
320,192,18463,1,0,0:0:0:0:
448,192,18639,1,0,0:0:0:0:
320,192,18727,1,0,0:0:0:0:
192,192,18816,1,0,0:0:0:0:
64,192,18816,1,0,0:0:0:0:
448,192,18992,1,0,0:0:0:0:
320,192,18992,1,0,0:0:0:0:
192,192,19080,1,0,0:0:0:0:
64,192,19169,1,0,0:0:0:0:
320,192,19169,1,0,0:0:0:0:
448,192,19169,1,0,0:0:0:0:
192,192,19257,1,0,0:0:0:0:
448,192,19345,1,0,0:0:0:0:
320,192,19433,1,0,0:0:0:0:
64,192,19522,1,0,0:0:0:0:
192,192,19522,1,0,0:0:0:0:
448,192,19610,1,0,0:0:0:0:
192,192,19698,1,0,0:0:0:0:
320,192,19786,1,0,0:0:0:0:
448,192,19875,1,0,0:0:0:0:
64,192,19875,1,0,0:0:0:0:
192,192,19963,1,0,0:0:0:0:
320,192,20051,1,0,0:0:0:0:
64,192,20139,1,0,0:0:0:0:
192,192,20227,1,0,0:0:0:0:
448,192,20227,1,0,0:0:0:0:
320,192,20316,1,0,0:0:0:0:
64,192,20404,1,0,0:0:0:0:
192,192,20492,1,0,0:0:0:0:
320,192,20580,1,0,0:0:0:0:
448,192,20580,1,0,0:0:0:0:
64,192,20580,1,0,0:0:0:0:
192,192,20669,1,0,0:0:0:0:
320,192,20757,1,0,0:0:0:0:
64,192,20845,1,0,0:0:0:0:
192,192,20933,1,0,0:0:0:0:
448,192,20933,1,0,0:0:0:0:
320,192,21022,1,0,0:0:0:0:
64,192,21110,1,0,0:0:0:0:
192,192,21198,1,0,0:0:0:0:
64,192,21286,1,0,0:0:0:0:
320,192,21286,1,0,0:0:0:0:
448,192,21286,1,0,0:0:0:0:
192,192,21375,1,0,0:0:0:0:
448,192,21463,1,0,0:0:0:0:
320,192,21551,1,0,0:0:0:0:
192,192,21639,1,0,0:0:0:0:
64,192,21639,1,0,0:0:0:0:
448,192,21727,1,0,0:0:0:0:
320,192,21816,1,0,0:0:0:0:
192,192,21904,1,0,0:0:0:0:
320,192,21992,1,0,0:0:0:0:
64,192,21992,1,0,0:0:0:0:
448,192,21992,1,0,0:0:0:0:
192,192,22080,1,0,0:0:0:0:
448,192,22169,1,0,0:0:0:0:
320,192,22257,1,0,0:0:0:0:
448,192,22345,1,0,0:0:0:0:
192,192,22345,1,0,0:0:0:0:
64,192,22345,1,0,0:0:0:0:
320,192,22433,1,0,0:0:0:0:
192,192,22522,1,0,0:0:0:0:
64,192,22610,1,0,0:0:0:0:
320,192,22698,1,0,0:0:0:0:
192,192,22742,1,0,0:0:0:0:
64,192,22786,1,0,0:0:0:0:
448,192,22830,1,0,0:0:0:0:
320,192,22875,1,0,0:0:0:0:
192,192,22919,1,0,0:0:0:0:
64,192,22963,1,0,0:0:0:0:
448,192,23007,1,0,0:0:0:0:
320,192,23051,1,0,0:0:0:0:
192,192,23051,1,0,0:0:0:0:
448,192,23139,1,0,0:0:0:0:
64,192,23139,1,0,0:0:0:0:
192,192,23227,1,0,0:0:0:0:
320,192,23227,1,0,0:0:0:0:
448,192,23316,1,0,0:0:0:0:
64,192,23316,1,0,0:0:0:0:
192,192,23404,1,0,0:0:0:0:
320,192,23404,1,0,0:0:0:0:
64,192,23669,5,0,0:0:0:0:
320,192,23669,1,0,0:0:0:0:
448,192,23669,1,0,0:0:0:0:
192,192,23933,1,0,0:0:0:0:
64,192,23933,1,0,0:0:0:0:
320,192,23933,1,0,0:0:0:0:
192,192,24198,1,0,0:0:0:0:
64,192,24198,1,0,0:0:0:0:
448,192,24198,1,0,0:0:0:0:
448,192,24463,1,0,0:0:0:0:
320,192,24463,1,0,0:0:0:0:
192,192,24463,128,0,24639:0:0:0:0:
320,192,24639,1,0,0:0:0:0:
448,192,24639,1,0,0:0:0:0:
64,192,24639,128,0,24816:0:0:0:0:
192,192,24816,5,0,0:0:0:0:
448,192,24816,1,0,0:0:0:0:
320,192,24816,1,0,0:0:0:0:
448,192,24992,128,0,25345:0:0:0:0:
64,192,25080,1,0,0:0:0:0:
320,192,25169,1,0,0:0:0:0:
192,192,25169,1,0,0:0:0:0:
64,192,25345,1,0,0:0:0:0:
448,192,25433,1,0,0:0:0:0:
192,192,25522,1,0,0:0:0:0:
320,192,25522,1,0,0:0:0:0:
448,192,25698,1,0,0:0:0:0:
192,192,25786,1,0,0:0:0:0:
320,192,25875,1,0,0:0:0:0:
64,192,25875,1,0,0:0:0:0:
192,192,26051,1,0,0:0:0:0:
320,192,26139,1,0,0:0:0:0:
64,192,26227,1,0,0:0:0:0:
448,192,26227,1,0,0:0:0:0:
320,192,26404,1,0,0:0:0:0:
448,192,26492,1,0,0:0:0:0:
192,192,26580,1,0,0:0:0:0:
64,192,26580,1,0,0:0:0:0:
448,192,26757,1,0,0:0:0:0:
64,192,26845,1,0,0:0:0:0:
320,192,26933,1,0,0:0:0:0:
192,192,26933,1,0,0:0:0:0:
64,192,27110,1,0,0:0:0:0:
192,192,27198,1,0,0:0:0:0:
320,192,27286,1,0,0:0:0:0:
448,192,27286,1,0,0:0:0:0:
64,192,27463,1,0,0:0:0:0:
448,192,27551,1,0,0:0:0:0:
192,192,27639,1,0,0:0:0:0:
320,192,27639,1,0,0:0:0:0:
448,192,27816,1,0,0:0:0:0:
192,192,27904,1,0,0:0:0:0:
64,192,27992,1,0,0:0:0:0:
320,192,27992,1,0,0:0:0:0:
192,192,28169,1,0,0:0:0:0:
320,192,28257,1,0,0:0:0:0:
64,192,28345,1,0,0:0:0:0:
448,192,28345,1,0,0:0:0:0:
320,192,28522,1,0,0:0:0:0:
64,192,28610,1,0,0:0:0:0:
192,192,28698,1,0,0:0:0:0:
448,192,28698,1,0,0:0:0:0:
64,192,28875,1,0,0:0:0:0:
192,192,28963,1,0,0:0:0:0:
320,192,29051,1,0,0:0:0:0:
448,192,29051,1,0,0:0:0:0:
64,192,29227,1,0,0:0:0:0:
448,192,29316,1,0,0:0:0:0:
192,192,29404,1,0,0:0:0:0:
320,192,29404,1,0,0:0:0:0:
448,192,29580,1,0,0:0:0:0:
192,192,29669,1,0,0:0:0:0:
64,192,29757,1,0,0:0:0:0:
320,192,29757,1,0,0:0:0:0:
192,192,29933,1,0,0:0:0:0:
64,192,30022,1,0,0:0:0:0:
320,192,30110,1,0,0:0:0:0:
448,192,30110,1,0,0:0:0:0:
448,192,30286,1,0,0:0:0:0:
64,192,30286,1,0,0:0:0:0:
320,192,30375,1,0,0:0:0:0:
192,192,30463,1,0,0:0:0:0:
64,192,30463,1,0,0:0:0:0:
320,192,30639,1,0,0:0:0:0:
192,192,30727,1,0,0:0:0:0:
448,192,30816,1,0,0:0:0:0:
64,192,30816,1,0,0:0:0:0:
448,192,30992,1,0,0:0:0:0:
192,192,31080,1,0,0:0:0:0:
320,192,31169,1,0,0:0:0:0:
64,192,31169,1,0,0:0:0:0:
192,192,31345,1,0,0:0:0:0:
64,192,31433,1,0,0:0:0:0:
320,192,31522,1,0,0:0:0:0:
448,192,31522,1,0,0:0:0:0:
64,192,31698,1,0,0:0:0:0:
448,192,31786,1,0,0:0:0:0:
192,192,31875,1,0,0:0:0:0:
320,192,31875,1,0,0:0:0:0:
448,192,32051,1,0,0:0:0:0:
192,192,32139,1,0,0:0:0:0:
320,192,32227,1,0,0:0:0:0:
64,192,32227,1,0,0:0:0:0:
192,192,32404,1,0,0:0:0:0:
64,192,32492,1,0,0:0:0:0:
320,192,32580,1,0,0:0:0:0:
448,192,32580,1,0,0:0:0:0:
64,192,32757,1,0,0:0:0:0:
448,192,32845,1,0,0:0:0:0:
192,192,32933,1,0,0:0:0:0:
320,192,32933,1,0,0:0:0:0:
448,192,33110,1,0,0:0:0:0:
320,192,33198,1,0,0:0:0:0:
192,192,33286,1,0,0:0:0:0:
64,192,33286,1,0,0:0:0:0:
320,192,33463,1,0,0:0:0:0:
192,192,33551,1,0,0:0:0:0:
64,192,33639,1,0,0:0:0:0:
448,192,33639,1,0,0:0:0:0:
192,192,33816,1,0,0:0:0:0:
64,192,33904,1,0,0:0:0:0:
320,192,33992,1,0,0:0:0:0:
448,192,33992,1,0,0:0:0:0:
64,192,34169,1,0,0:0:0:0:
448,192,34257,1,0,0:0:0:0:
192,192,34345,1,0,0:0:0:0:
320,192,34345,1,0,0:0:0:0:
448,192,34522,1,0,0:0:0:0:
192,192,34610,1,0,0:0:0:0:
320,192,34698,1,0,0:0:0:0:
64,192,34698,1,0,0:0:0:0:
192,192,34875,1,0,0:0:0:0:
320,192,34963,1,0,0:0:0:0:
64,192,35051,1,0,0:0:0:0:
448,192,35051,1,0,0:0:0:0:
64,192,35227,128,0,35404:0:0:0:0:
192,192,35404,1,0,0:0:0:0:
320,192,35404,1,0,0:0:0:0:
192,192,35522,1,0,0:0:0:0:
320,192,35522,1,0,0:0:0:0:
192,192,35639,1,0,0:0:0:0:
320,192,35639,1,0,0:0:0:0:
64,192,35757,1,0,0:0:0:0:
448,192,35757,1,0,0:0:0:0:
320,192,35933,128,0,36110:0:0:0:0:
448,192,36110,1,0,0:0:0:0:
192,192,36110,1,0,0:0:0:0:
64,192,36286,1,0,0:0:0:0:
448,192,36375,1,0,0:0:0:0:
192,192,36463,1,0,0:0:0:0:
320,192,36463,1,0,0:0:0:0:
448,192,36639,1,0,0:0:0:0:
320,192,36727,1,0,0:0:0:0:
64,192,36816,1,0,0:0:0:0:
192,192,36816,1,0,0:0:0:0:
320,192,36992,1,0,0:0:0:0:
192,192,37080,1,0,0:0:0:0:
448,192,37169,1,0,0:0:0:0:
64,192,37169,1,0,0:0:0:0:
192,192,37345,1,0,0:0:0:0:
64,192,37433,1,0,0:0:0:0:
320,192,37522,1,0,0:0:0:0:
448,192,37522,1,0,0:0:0:0:
64,192,37698,1,0,0:0:0:0:
448,192,37786,1,0,0:0:0:0:
192,192,37875,1,0,0:0:0:0:
320,192,37875,1,0,0:0:0:0:
448,192,38051,1,0,0:0:0:0:
192,192,38139,1,0,0:0:0:0:
320,192,38227,1,0,0:0:0:0:
64,192,38227,1,0,0:0:0:0:
192,192,38404,1,0,0:0:0:0:
320,192,38492,1,0,0:0:0:0:
64,192,38580,1,0,0:0:0:0:
448,192,38580,1,0,0:0:0:0:
320,192,38757,1,0,0:0:0:0:
448,192,38845,1,0,0:0:0:0:
192,192,38933,1,0,0:0:0:0:
64,192,38933,1,0,0:0:0:0:
320,192,39110,1,0,0:0:0:0:
192,192,39198,1,0,0:0:0:0:
448,192,39286,1,0,0:0:0:0:
64,192,39286,1,0,0:0:0:0:
192,192,39463,1,0,0:0:0:0:
448,192,39551,1,0,0:0:0:0:
320,192,39639,1,0,0:0:0:0:
64,192,39639,1,0,0:0:0:0:
448,192,39816,1,0,0:0:0:0:
320,192,39904,1,0,0:0:0:0:
192,192,39992,1,0,0:0:0:0:
64,192,39992,1,0,0:0:0:0:
320,192,40169,1,0,0:0:0:0:
192,192,40257,1,0,0:0:0:0:
448,192,40345,1,0,0:0:0:0:
64,192,40345,1,0,0:0:0:0:
192,192,40522,1,0,0:0:0:0:
64,192,40610,1,0,0:0:0:0:
320,192,40698,1,0,0:0:0:0:
448,192,40698,1,0,0:0:0:0:
64,192,40875,1,0,0:0:0:0:
448,192,40963,1,0,0:0:0:0:
192,192,41051,1,0,0:0:0:0:
320,192,41051,1,0,0:0:0:0:
448,192,41227,1,0,0:0:0:0:
192,192,41316,1,0,0:0:0:0:
320,192,41404,1,0,0:0:0:0:
64,192,41404,1,0,0:0:0:0:
448,192,41580,1,0,0:0:0:0:
64,192,41580,1,0,0:0:0:0:
192,192,41669,1,0,0:0:0:0:
320,192,41757,1,0,0:0:0:0:
448,192,41757,1,0,0:0:0:0:
64,192,41757,1,0,0:0:0:0:
192,192,41845,1,0,0:0:0:0:
448,192,41933,1,0,0:0:0:0:
320,192,42022,1,0,0:0:0:0:
64,192,42110,1,0,0:0:0:0:
192,192,42110,1,0,0:0:0:0:
448,192,42198,1,0,0:0:0:0:
320,192,42286,1,0,0:0:0:0:
192,192,42375,1,0,0:0:0:0:
448,192,42463,1,0,0:0:0:0:
64,192,42463,1,0,0:0:0:0:
320,192,42551,1,0,0:0:0:0:
64,192,42639,1,0,0:0:0:0:
192,192,42727,1,0,0:0:0:0:
320,192,42816,1,0,0:0:0:0:
448,192,42816,1,0,0:0:0:0:
192,192,42904,1,0,0:0:0:0:
320,192,42992,1,0,0:0:0:0:
64,192,43080,1,0,0:0:0:0:
192,192,43169,1,0,0:0:0:0:
320,192,43169,1,0,0:0:0:0:
448,192,43169,1,0,0:0:0:0:
64,192,43257,1,0,0:0:0:0:
192,192,43345,1,0,0:0:0:0:
320,192,43433,1,0,0:0:0:0:
448,192,43522,1,0,0:0:0:0:
64,192,43522,1,0,0:0:0:0:
320,192,43610,1,0,0:0:0:0:
192,192,43698,1,0,0:0:0:0:
448,192,43786,1,0,0:0:0:0:
320,192,43875,1,0,0:0:0:0:
192,192,43875,1,0,0:0:0:0:
64,192,43875,1,0,0:0:0:0:
448,192,43963,1,0,0:0:0:0:
320,192,44051,1,0,0:0:0:0:
192,192,44139,1,0,0:0:0:0:
448,192,44227,1,0,0:0:0:0:
64,192,44227,1,0,0:0:0:0:
320,192,44316,1,0,0:0:0:0:
192,192,44404,1,0,0:0:0:0:
320,192,44492,1,0,0:0:0:0:
192,192,44580,1,0,0:0:0:0:
64,192,44580,1,0,0:0:0:0:
448,192,44580,1,0,0:0:0:0:
320,192,44669,1,0,0:0:0:0:
64,192,44757,1,0,0:0:0:0:
192,192,44845,1,0,0:0:0:0:
64,192,44933,1,0,0:0:0:0:
448,192,44933,1,0,0:0:0:0:
320,192,44933,1,0,0:0:0:0:
192,192,45022,1,0,0:0:0:0:
448,192,45110,1,0,0:0:0:0:
320,192,45198,1,0,0:0:0:0:
64,192,45286,1,0,0:0:0:0:
192,192,45330,1,0,0:0:0:0:
320,192,45375,1,0,0:0:0:0:
448,192,45419,1,0,0:0:0:0:
64,192,45463,1,0,0:0:0:0:
192,192,45507,1,0,0:0:0:0:
320,192,45551,1,0,0:0:0:0:
448,192,45595,1,0,0:0:0:0:
64,192,45639,1,0,0:0:0:0:
192,192,45639,1,0,0:0:0:0:
320,192,45727,1,0,0:0:0:0:
448,192,45727,1,0,0:0:0:0:
192,192,45816,1,0,0:0:0:0:
64,192,45816,1,0,0:0:0:0:
320,192,45904,1,0,0:0:0:0:
448,192,45904,1,0,0:0:0:0:
192,192,45992,1,0,0:0:0:0:
64,192,45992,1,0,0:0:0:0:
192,192,46257,1,0,0:0:0:0:
320,192,46257,1,0,0:0:0:0:
448,192,46257,1,0,0:0:0:0:
448,192,46522,1,0,0:0:0:0:
320,192,46522,1,0,0:0:0:0:
64,192,46522,1,0,0:0:0:0:
192,192,46786,1,0,0:0:0:0:
320,192,46786,1,0,0:0:0:0:
64,192,46786,1,0,0:0:0:0:
64,192,47051,1,0,0:0:0:0:
448,192,47051,1,0,0:0:0:0:
320,192,47051,1,0,0:0:0:0:
448,192,47227,1,0,0:0:0:0:
64,192,47227,1,0,0:0:0:0:
192,192,47227,1,0,0:0:0:0:
192,192,47404,1,0,0:0:0:0:
320,192,47404,1,0,0:0:0:0:
448,192,47404,1,0,0:0:0:0:
64,192,47580,1,0,0:0:0:0:
192,192,47580,1,0,0:0:0:0:
320,192,47669,1,0,0:0:0:0:
64,192,47757,1,0,0:0:0:0:
448,192,47757,1,0,0:0:0:0:
192,192,47933,1,0,0:0:0:0:
320,192,47933,1,0,0:0:0:0:
64,192,48022,1,0,0:0:0:0:
448,192,48110,128,0,48463:0:0:0:0:
320,192,48110,1,0,0:0:0:0:
64,192,48286,1,0,0:0:0:0:
192,192,48375,1,0,0:0:0:0:
64,192,48463,128,0,48992:0:0:0:0:
320,192,48463,1,0,0:0:0:0:
192,192,48639,1,0,0:0:0:0:
320,192,48727,1,0,0:0:0:0:
192,192,48816,1,0,0:0:0:0:
448,192,48816,1,0,0:0:0:0:
192,192,48992,1,0,0:0:0:0:
448,192,49080,1,0,0:0:0:0:
320,192,49169,1,0,0:0:0:0:
64,192,49169,1,0,0:0:0:0:
448,192,49345,1,0,0:0:0:0:
320,192,49433,1,0,0:0:0:0:
64,192,49522,1,0,0:0:0:0:
192,192,49522,1,0,0:0:0:0:
64,192,49698,1,0,0:0:0:0:
192,192,49786,1,0,0:0:0:0:
320,192,49875,1,0,0:0:0:0:
448,192,49875,1,0,0:0:0:0:
320,192,50051,1,0,0:0:0:0:
64,192,50051,1,0,0:0:0:0:
192,192,50139,1,0,0:0:0:0:
64,192,50227,1,0,0:0:0:0:
448,192,50227,1,0,0:0:0:0:
320,192,50404,1,0,0:0:0:0:
448,192,50404,1,0,0:0:0:0:
64,192,50492,1,0,0:0:0:0:
448,192,50580,1,0,0:0:0:0:
192,192,50580,1,0,0:0:0:0:
320,192,50757,1,0,0:0:0:0:
64,192,50757,1,0,0:0:0:0:
448,192,50845,1,0,0:0:0:0:
320,192,50933,1,0,0:0:0:0:
192,192,50933,128,0,51286:0:0:0:0:
448,192,51110,1,0,0:0:0:0:
320,192,51198,1,0,0:0:0:0:
448,192,51286,128,0,51639:0:0:0:0:
64,192,51286,1,0,0:0:0:0:
320,192,51463,1,0,0:0:0:0:
192,192,51551,1,0,0:0:0:0:
320,192,51639,1,0,0:0:0:0:
64,192,51639,1,0,0:0:0:0:
320,192,51816,1,0,0:0:0:0:
192,192,51904,1,0,0:0:0:0:
64,192,51992,1,0,0:0:0:0:
448,192,51992,1,0,0:0:0:0:
192,192,52169,1,0,0:0:0:0:
448,192,52257,1,0,0:0:0:0:
320,192,52345,1,0,0:0:0:0:
64,192,52345,1,0,0:0:0:0:
448,192,52522,1,0,0:0:0:0:
64,192,52610,1,0,0:0:0:0:
320,192,52698,1,0,0:0:0:0:
192,192,52698,1,0,0:0:0:0:
192,192,52875,1,0,0:0:0:0:
320,192,52875,1,0,0:0:0:0:
448,192,52963,1,0,0:0:0:0:
192,192,53051,1,0,0:0:0:0:
64,192,53051,128,0,53404:0:0:0:0:
320,192,53227,1,0,0:0:0:0:
192,192,53316,1,0,0:0:0:0:
448,192,53404,1,0,0:0:0:0:
320,192,53404,128,0,53757:0:0:0:0:
192,192,53580,1,0,0:0:0:0:
64,192,53669,1,0,0:0:0:0:
192,192,53757,1,0,0:0:0:0:
448,192,53757,1,0,0:0:0:0:
192,192,53933,1,0,0:0:0:0:
64,192,54022,1,0,0:0:0:0:
320,192,54110,1,0,0:0:0:0:
448,192,54110,1,0,0:0:0:0:
64,192,54286,1,0,0:0:0:0:
448,192,54375,1,0,0:0:0:0:
192,192,54463,1,0,0:0:0:0:
320,192,54463,1,0,0:0:0:0:
448,192,54639,1,0,0:0:0:0:
192,192,54727,1,0,0:0:0:0:
320,192,54816,1,0,0:0:0:0:
64,192,54816,1,0,0:0:0:0:
192,192,54992,1,0,0:0:0:0:
320,192,55080,1,0,0:0:0:0:
64,192,55169,1,0,0:0:0:0:
448,192,55169,1,0,0:0:0:0:
448,192,55345,1,0,0:0:0:0:
64,192,55345,1,0,0:0:0:0:
192,192,55433,1,0,0:0:0:0:
448,192,55522,1,0,0:0:0:0:
320,192,55522,1,0,0:0:0:0:
320,192,55698,1,0,0:0:0:0:
192,192,55698,1,0,0:0:0:0:
64,192,55786,1,0,0:0:0:0:
448,192,55875,128,0,56227:0:0:0:0:
192,192,55875,1,0,0:0:0:0:
64,192,56051,1,0,0:0:0:0:
320,192,56139,1,0,0:0:0:0:
64,192,56227,128,0,56580:0:0:0:0:
192,192,56227,1,0,0:0:0:0:
448,192,56404,1,0,0:0:0:0:
320,192,56492,1,0,0:0:0:0:
192,192,56580,1,0,0:0:0:0:
448,192,56580,1,0,0:0:0:0:
320,192,56757,1,0,0:0:0:0:
448,192,56845,1,0,0:0:0:0:
192,192,56933,1,0,0:0:0:0:
64,192,56933,1,0,0:0:0:0:
448,192,57110,1,0,0:0:0:0:
320,192,57198,1,0,0:0:0:0:
64,192,57286,1,0,0:0:0:0:
192,192,57286,128,0,57639:0:0:0:0:
320,192,57639,1,0,0:0:0:0:
448,192,57639,1,0,0:0:0:0:
320,192,57757,1,0,0:0:0:0:
448,192,57757,1,0,0:0:0:0:
320,192,57875,1,0,0:0:0:0:
448,192,57875,1,0,0:0:0:0:
64,192,57992,1,0,0:0:0:0:
192,192,57992,128,0,58345:0:0:0:0:
320,192,57992,1,0,0:0:0:0:
64,192,58345,1,0,0:0:0:0:
448,192,58345,128,0,58698:0:0:0:0:
320,192,58345,1,0,0:0:0:0:
192,192,58698,1,0,0:0:0:0:
64,192,58698,128,0,59051:0:0:0:0:
320,192,58875,1,0,0:0:0:0:
448,192,58963,1,0,0:0:0:0:
320,192,59051,128,0,59404:0:0:0:0:
192,192,59051,1,0,0:0:0:0:
448,192,59227,1,0,0:0:0:0:
192,192,59316,1,0,0:0:0:0:
448,192,59404,1,0,0:0:0:0:
64,192,59404,1,0,0:0:0:0:
320,192,59580,1,0,0:0:0:0:
192,192,59669,1,0,0:0:0:0:
64,192,59757,1,0,0:0:0:0:
448,192,59757,1,0,0:0:0:0:
192,192,59933,1,0,0:0:0:0:
320,192,59933,1,0,0:0:0:0:
64,192,60022,1,0,0:0:0:0:
320,192,60110,1,0,0:0:0:0:
448,192,60110,128,0,60463:0:0:0:0:
192,192,60286,1,0,0:0:0:0:
320,192,60375,1,0,0:0:0:0:
192,192,60463,128,0,61169:0:0:0:0:
64,192,60463,1,0,0:0:0:0:
320,192,60639,1,0,0:0:0:0:
448,192,60727,1,0,0:0:0:0:
320,192,60816,1,0,0:0:0:0:
64,192,60816,1,0,0:0:0:0:
448,192,60992,1,0,0:0:0:0:
320,192,61080,1,0,0:0:0:0:
448,192,61169,1,0,0:0:0:0:
64,192,61169,1,0,0:0:0:0:
320,192,61345,1,0,0:0:0:0:
192,192,61433,1,0,0:0:0:0:
320,192,61522,128,0,62051:0:0:0:0:
448,192,61522,1,0,0:0:0:0:
192,192,61698,1,0,0:0:0:0:
64,192,61786,1,0,0:0:0:0:
192,192,61875,1,0,0:0:0:0:
448,192,61875,1,0,0:0:0:0:
192,192,62051,128,0,62227:0:0:0:0:
320,192,62139,1,0,0:0:0:0:
448,192,62227,128,0,62933:0:0:0:0:
64,192,62227,1,0,0:0:0:0:
320,192,62404,1,0,0:0:0:0:
192,192,62492,1,0,0:0:0:0:
320,192,62580,1,0,0:0:0:0:
64,192,62580,1,0,0:0:0:0:
192,192,62757,1,0,0:0:0:0:
320,192,62845,1,0,0:0:0:0:
192,192,62933,1,0,0:0:0:0:
64,192,62933,1,0,0:0:0:0:
320,192,63110,1,0,0:0:0:0:
192,192,63198,1,0,0:0:0:0:
448,192,63286,1,0,0:0:0:0:
64,192,63286,1,0,0:0:0:0:
192,192,63463,1,0,0:0:0:0:
64,192,63551,1,0,0:0:0:0:
320,192,63639,1,0,0:0:0:0:
448,192,63639,128,0,63816:0:0:0:0:
64,192,63816,1,0,0:0:0:0:
448,192,63904,1,0,0:0:0:0:
192,192,63992,1,0,0:0:0:0:
320,192,63992,128,0,64345:0:0:0:0:
64,192,64169,1,0,0:0:0:0:
448,192,64169,1,0,0:0:0:0:
192,192,64257,1,0,0:0:0:0:
64,192,64345,128,0,65051:0:0:0:0:
448,192,64345,1,0,0:0:0:0:
192,192,64522,1,0,0:0:0:0:
320,192,64610,1,0,0:0:0:0:
192,192,64698,1,0,0:0:0:0:
448,192,64698,1,0,0:0:0:0:
320,192,64875,1,0,0:0:0:0:
192,192,64963,1,0,0:0:0:0:
320,192,65051,1,0,0:0:0:0:
448,192,65051,1,0,0:0:0:0:
192,192,65227,1,0,0:0:0:0:
320,192,65316,1,0,0:0:0:0:
64,192,65404,1,0,0:0:0:0:
448,192,65404,1,0,0:0:0:0:
320,192,65580,1,0,0:0:0:0:
448,192,65669,1,0,0:0:0:0:
192,192,65757,1,0,0:0:0:0:
64,192,65757,1,0,0:0:0:0:
448,192,65933,1,0,0:0:0:0:
64,192,66022,1,0,0:0:0:0:
320,192,66110,1,0,0:0:0:0:
192,192,66110,1,0,0:0:0:0:
64,192,66286,1,0,0:0:0:0:
192,192,66375,1,0,0:0:0:0:
320,192,66463,1,0,0:0:0:0:
448,192,66463,1,0,0:0:0:0:
192,192,66639,1,0,0:0:0:0:
320,192,66727,1,0,0:0:0:0:
64,192,66816,1,0,0:0:0:0:
448,192,66816,128,0,67169:0:0:0:0:
192,192,66992,1,0,0:0:0:0:
320,192,67080,1,0,0:0:0:0:
64,192,67169,1,0,0:0:0:0:
192,192,67169,128,0,67522:0:0:0:0:
320,192,67345,1,0,0:0:0:0:
448,192,67433,1,0,0:0:0:0:
64,192,67522,128,0,68227:0:0:0:0:
320,192,67522,1,0,0:0:0:0:
448,192,67698,1,0,0:0:0:0:
320,192,67786,1,0,0:0:0:0:
192,192,67875,1,0,0:0:0:0:
448,192,67875,1,0,0:0:0:0:
320,192,68051,1,0,0:0:0:0:
192,192,68139,1,0,0:0:0:0:
320,192,68227,1,0,0:0:0:0:
448,192,68227,1,0,0:0:0:0:
320,192,68404,1,0,0:0:0:0:
448,192,68492,1,0,0:0:0:0:
192,192,68580,1,0,0:0:0:0:
64,192,68580,1,0,0:0:0:0:
448,192,68757,1,0,0:0:0:0:
64,192,68845,1,0,0:0:0:0:
320,192,68933,1,0,0:0:0:0:
192,192,68933,1,0,0:0:0:0:
64,192,69110,1,0,0:0:0:0:
192,192,69198,1,0,0:0:0:0:
448,192,69286,128,0,69580:0:0:0:0:
320,192,69286,1,0,0:0:0:0:
64,192,69286,1,0,0:0:0:0:
320,192,69522,1,0,0:0:0:0:
192,192,69522,1,0,0:0:0:0:
64,192,69639,1,0,0:0:0:0:
448,192,69639,1,0,0:0:0:0:
448,192,69757,1,0,0:0:0:0:
64,192,69757,1,0,0:0:0:0:
448,192,69875,1,0,0:0:0:0:
64,192,69875,1,0,0:0:0:0:
320,192,69992,1,0,0:0:0:0:
192,192,69992,128,0,70698:0:0:0:0:
448,192,70345,128,0,70698:0:0:0:0:
320,192,70698,128,0,70875:0:0:0:0:
64,192,70698,128,0,70816:0:0:0:0:
192,192,70816,128,0,70933:0:0:0:0:
448,192,70875,128,0,71051:0:0:0:0:
64,192,70933,128,0,71051:0:0:0:0:
320,192,71051,128,0,71404:0:0:0:0:
192,192,71051,128,0,71139:0:0:0:0:
192,192,71227,128,0,71316:0:0:0:0:
64,192,71404,128,0,71536:0:0:0:0:
448,192,71404,128,0,71933:0:0:0:0:
64,192,71669,128,0,71801:0:0:0:0:
64,192,71933,128,0,72066:0:0:0:0:
192,192,72110,128,0,72463:0:0:0:0:
448,192,72110,128,0,72816:0:0:0:0:
320,192,72639,128,0,72816:0:0:0:0:
64,192,72816,128,0,73522:0:0:0:0:
192,192,72816,128,0,73169:0:0:0:0:
192,192,73522,128,0,73610:0:0:0:0:
192,192,73698,128,0,73786:0:0:0:0:
192,192,73875,128,0,74227:0:0:0:0:
64,192,74227,1,0,0:0:0:0:
448,192,74227,128,0,74580:0:0:0:0:
320,192,74580,128,0,74639:0:0:0:0:
320,192,74757,128,0,74816:0:0:0:0:
64,192,74933,1,0,0:0:0:0:
192,192,74933,1,0,0:0:0:0:
448,192,75022,1,0,0:0:0:0:
320,192,75110,1,0,0:0:0:0:
192,192,75198,1,0,0:0:0:0:
64,192,75286,1,0,0:0:0:0:
448,192,75286,1,0,0:0:0:0:
320,192,75375,1,0,0:0:0:0:
192,192,75463,1,0,0:0:0:0:
64,192,75551,1,0,0:0:0:0:
192,192,75639,128,0,75992:0:0:0:0:
448,192,75639,128,0,76345:0:0:0:0:
320,192,75992,128,0,76345:0:0:0:0:
64,192,76345,128,0,76698:0:0:0:0:
192,192,76345,128,0,76477:0:0:0:0:
192,192,76610,128,0,76742:0:0:0:0:
448,192,76698,128,0,77051:0:0:0:0:
192,192,76875,128,0,77007:0:0:0:0:
320,192,77051,128,0,77757:0:0:0:0:
64,192,77404,128,0,77757:0:0:0:0:
192,192,77757,128,0,78110:0:0:0:0:
448,192,77757,1,0,0:0:0:0:
64,192,77875,1,0,0:0:0:0:
320,192,77992,1,0,0:0:0:0:
448,192,78110,128,0,78639:0:0:0:0:
64,192,78110,128,0,78463:0:0:0:0:
320,192,78286,1,0,0:0:0:0:
192,192,78463,128,0,78639:0:0:0:0:
320,192,78639,128,0,79169:0:0:0:0:
192,192,78816,128,0,78904:0:0:0:0:
192,192,78992,128,0,79080:0:0:0:0:
64,192,79169,1,0,0:0:0:0:
448,192,79169,128,0,79522:0:0:0:0:
192,192,79522,128,0,79610:0:0:0:0:
192,192,79698,1,0,0:0:0:0:
192,192,79786,1,0,0:0:0:0:
64,192,79875,1,0,0:0:0:0:
320,192,79875,128,0,80227:0:0:0:0:
192,192,80227,1,0,0:0:0:0:
192,192,80345,1,0,0:0:0:0:
192,192,80463,1,0,0:0:0:0:
448,192,80580,1,0,0:0:0:0:
192,192,80669,1,0,0:0:0:0:
320,192,80757,1,0,0:0:0:0:
64,192,80845,1,0,0:0:0:0:
320,192,80933,1,0,0:0:0:0:
192,192,80933,1,0,0:0:0:0:
192,192,81110,1,0,0:0:0:0:
320,192,81110,1,0,0:0:0:0:
320,192,81286,1,0,0:0:0:0:
64,192,81286,1,0,0:0:0:0:
448,192,81286,128,0,81639:0:0:0:0:
192,192,81463,1,0,0:0:0:0:
64,192,81551,1,0,0:0:0:0:
192,192,81639,1,0,0:0:0:0:
320,192,81639,128,0,81992:0:0:0:0:
448,192,81816,1,0,0:0:0:0:
192,192,81904,1,0,0:0:0:0:
448,192,81992,1,0,0:0:0:0:
64,192,81992,1,0,0:0:0:0:
192,192,82169,1,0,0:0:0:0:
64,192,82257,1,0,0:0:0:0:
448,192,82345,1,0,0:0:0:0:
320,192,82345,1,0,0:0:0:0:
64,192,82522,1,0,0:0:0:0:
320,192,82610,1,0,0:0:0:0:
192,192,82698,1,0,0:0:0:0:
448,192,82698,1,0,0:0:0:0:
320,192,82875,1,0,0:0:0:0:
448,192,82963,1,0,0:0:0:0:
64,192,83051,1,0,0:0:0:0:
192,192,83051,1,0,0:0:0:0:
448,192,83227,1,0,0:0:0:0:
64,192,83316,1,0,0:0:0:0:
320,192,83404,1,0,0:0:0:0:
192,192,83404,1,0,0:0:0:0:
192,192,83580,1,0,0:0:0:0:
320,192,83580,1,0,0:0:0:0:
448,192,83669,1,0,0:0:0:0:
64,192,83757,1,0,0:0:0:0:
320,192,83757,128,0,84110:0:0:0:0:
192,192,83933,1,0,0:0:0:0:
448,192,84022,1,0,0:0:0:0:
64,192,84110,1,0,0:0:0:0:
192,192,84110,128,0,84463:0:0:0:0:
448,192,84286,1,0,0:0:0:0:
64,192,84375,1,0,0:0:0:0:
320,192,84463,1,0,0:0:0:0:
64,192,84639,1,0,0:0:0:0:
320,192,84727,1,0,0:0:0:0:
192,192,84816,1,0,0:0:0:0:
448,192,84816,1,0,0:0:0:0:
320,192,84992,1,0,0:0:0:0:
448,192,85080,1,0,0:0:0:0:
192,192,85169,1,0,0:0:0:0:
64,192,85169,1,0,0:0:0:0:
448,192,85345,1,0,0:0:0:0:
64,192,85433,1,0,0:0:0:0:
320,192,85522,1,0,0:0:0:0:
192,192,85522,1,0,0:0:0:0:
64,192,85698,1,0,0:0:0:0:
320,192,85786,1,0,0:0:0:0:
192,192,85875,1,0,0:0:0:0:
448,192,85875,1,0,0:0:0:0:
320,192,86051,1,0,0:0:0:0:
448,192,86139,1,0,0:0:0:0:
192,192,86227,1,0,0:0:0:0:
64,192,86227,1,0,0:0:0:0:
320,192,86404,1,0,0:0:0:0:
64,192,86492,1,0,0:0:0:0:
192,192,86580,1,0,0:0:0:0:
448,192,86580,1,0,0:0:0:0:
448,192,86757,1,0,0:0:0:0:
192,192,86757,1,0,0:0:0:0:
64,192,86845,1,0,0:0:0:0:
320,192,86933,1,0,0:0:0:0:
448,192,86933,128,0,87283:0:0:0:0:
192,192,87108,1,0,0:0:0:0:
320,192,87196,1,0,0:0:0:0:
192,192,87283,128,0,87634:0:0:0:0:
64,192,87283,1,0,0:0:0:0:
64,192,87459,1,0,0:0:0:0:
320,192,87547,1,0,0:0:0:0:
64,192,87634,1,0,0:0:0:0:
448,192,87634,1,0,0:0:0:0:
320,192,87810,1,0,0:0:0:0:
192,192,87897,1,0,0:0:0:0:
64,192,87985,1,0,0:0:0:0:
448,192,87985,1,0,0:0:0:0:
320,192,88161,1,0,0:0:0:0:
448,192,88248,1,0,0:0:0:0:
192,192,88336,1,0,0:0:0:0:
64,192,88336,1,0,0:0:0:0:
448,192,88511,1,0,0:0:0:0:
64,192,88599,1,0,0:0:0:0:
320,192,88687,1,0,0:0:0:0:
192,192,88687,1,0,0:0:0:0:
64,192,88862,1,0,0:0:0:0:
320,192,88950,1,0,0:0:0:0:
192,192,89038,1,0,0:0:0:0:
448,192,89038,128,0,89389:0:0:0:0:
64,192,89213,1,0,0:0:0:0:
320,192,89301,1,0,0:0:0:0:
192,192,89389,1,0,0:0:0:0:
64,192,89389,128,0,89740:0:0:0:0:
320,192,89564,1,0,0:0:0:0:
448,192,89652,1,0,0:0:0:0:
320,192,89740,1,0,0:0:0:0:
192,192,89740,128,0,90090:0:0:0:0:
320,192,89915,1,0,0:0:0:0:
64,192,90003,1,0,0:0:0:0:
320,192,90090,1,0,0:0:0:0:
448,192,90090,128,0,90441:0:0:0:0:
192,192,90266,1,0,0:0:0:0:
320,192,90354,1,0,0:0:0:0:
192,192,90441,1,0,0:0:0:0:
64,192,90441,1,0,0:0:0:0:
320,192,90529,1,0,0:0:0:0:
448,192,90617,1,0,0:0:0:0:
192,192,90704,1,0,0:0:0:0:
448,192,90792,1,0,0:0:0:0:
64,192,90792,1,0,0:0:0:0:
192,192,90968,1,0,0:0:0:0:
64,192,91055,1,0,0:0:0:0:
320,192,91143,1,0,0:0:0:0:
448,192,91143,1,0,0:0:0:0:
64,192,91317,1,0,0:0:0:0:
448,192,91404,1,0,0:0:0:0:
192,192,91491,1,0,0:0:0:0:
320,192,91491,1,0,0:0:0:0:
448,192,91666,1,0,0:0:0:0:
192,192,91753,1,0,0:0:0:0:
320,192,91840,128,0,92189:0:0:0:0:
64,192,91840,1,0,0:0:0:0:
448,192,92015,1,0,0:0:0:0:
192,192,92102,1,0,0:0:0:0:
448,192,92189,1,0,0:0:0:0:
64,192,92189,128,0,92538:0:0:0:0:
192,192,92363,1,0,0:0:0:0:
320,192,92363,1,0,0:0:0:0:
320,192,92538,1,0,0:0:0:0:
192,192,92538,1,0,0:0:0:0:
320,192,92712,1,0,0:0:0:0:
448,192,92712,1,0,0:0:0:0:
192,192,92887,1,0,0:0:0:0:
64,192,92887,1,0,0:0:0:0:
320,192,93061,1,0,0:0:0:0:
448,192,93061,1,0,0:0:0:0:
64,192,93236,1,0,0:0:0:0:
192,192,93279,1,0,0:0:0:0:
320,192,93323,1,0,0:0:0:0:
448,192,93366,1,0,0:0:0:0:
192,192,93410,1,0,0:0:0:0:
64,192,93410,1,0,0:0:0:0:
320,192,93497,1,0,0:0:0:0:
448,192,93497,1,0,0:0:0:0:
192,192,93584,1,0,0:0:0:0:
64,192,93584,1,0,0:0:0:0:
320,192,93672,1,0,0:0:0:0:
448,192,93672,1,0,0:0:0:0:
192,192,93759,1,0,0:0:0:0:
64,192,93759,1,0,0:0:0:0:
320,192,93846,1,0,0:0:0:0:
448,192,93846,1,0,0:0:0:0:
64,192,93933,1,0,0:0:0:0:
192,192,93933,1,0,0:0:0:0:
64,192,94195,1,0,0:0:0:0:
192,192,94195,1,0,0:0:0:0:
448,192,94195,1,0,0:0:0:0:
192,192,94456,1,0,0:0:0:0:
320,192,94456,1,0,0:0:0:0:
448,192,94456,1,0,0:0:0:0:
64,192,94718,1,0,0:0:0:0:
192,192,94718,1,0,0:0:0:0:
320,192,94718,1,0,0:0:0:0:
448,192,94980,1,0,0:0:0:0:
320,192,94980,1,0,0:0:0:0:
192,192,94980,1,0,0:0:0:0:
192,192,95154,1,0,0:0:0:0:
320,192,95154,1,0,0:0:0:0:
448,192,95154,1,0,0:0:0:0:
64,192,95329,128,0,95849:0:0:0:0:
448,192,95329,1,0,0:0:0:0:
192,192,95329,1,0,0:0:0:0:
320,192,95502,1,0,0:0:0:0:
448,192,95502,1,0,0:0:0:0:
320,192,95675,1,0,0:0:0:0:
192,192,95675,1,0,0:0:0:0:
448,192,95849,1,0,0:0:0:0:
320,192,95849,1,0,0:0:0:0:
448,192,95935,1,0,0:0:0:0:
64,192,96022,1,0,0:0:0:0:
192,192,96022,1,0,0:0:0:0:
64,192,96109,1,0,0:0:0:0:
448,192,96196,1,0,0:0:0:0:
320,192,96196,1,0,0:0:0:0:
448,192,96282,1,0,0:0:0:0:
64,192,96369,1,0,0:0:0:0:
192,192,96369,1,0,0:0:0:0:
192,192,96456,1,0,0:0:0:0:
448,192,96542,1,0,0:0:0:0:
320,192,96542,1,0,0:0:0:0:
320,192,96629,1,0,0:0:0:0:
192,192,96716,1,0,0:0:0:0:
64,192,96716,1,0,0:0:0:0:
192,192,96802,1,0,0:0:0:0:
320,192,96889,1,0,0:0:0:0:
64,192,96889,1,0,0:0:0:0:
320,192,96976,1,0,0:0:0:0:
64,192,97063,1,0,0:0:0:0:
448,192,97063,1,0,0:0:0:0:
320,192,97236,1,0,0:0:0:0:
64,192,97236,1,0,0:0:0:0:
192,192,97409,1,0,0:0:0:0:
320,192,97409,1,0,0:0:0:0:
448,192,97583,1,0,0:0:0:0:
192,192,97583,1,0,0:0:0:0:
64,192,97756,1,0,0:0:0:0:
448,192,97756,1,0,0:0:0:0:
192,192,97930,1,0,0:0:0:0:
320,192,97930,1,0,0:0:0:0:
64,192,98103,1,0,0:0:0:0:
192,192,98103,128,0,98450:0:0:0:0:
320,192,98276,1,0,0:0:0:0:
448,192,98276,1,0,0:0:0:0:
64,192,98450,1,0,0:0:0:0:
448,192,98450,1,0,0:0:0:0:
448,192,98537,1,0,0:0:0:0:
64,192,98623,1,0,0:0:0:0:
192,192,98623,1,0,0:0:0:0:
192,192,98710,1,0,0:0:0:0:
320,192,98797,1,0,0:0:0:0:
448,192,98797,1,0,0:0:0:0:
320,192,98883,1,0,0:0:0:0:
64,192,98970,1,0,0:0:0:0:
192,192,98970,1,0,0:0:0:0:
64,192,99057,1,0,0:0:0:0:
320,192,99144,1,0,0:0:0:0:
448,192,99144,1,0,0:0:0:0:
448,192,99230,1,0,0:0:0:0:
192,192,99317,1,0,0:0:0:0:
64,192,99317,1,0,0:0:0:0:
192,192,99404,1,0,0:0:0:0:
320,192,99490,1,0,0:0:0:0:
448,192,99490,1,0,0:0:0:0:
192,192,99577,1,0,0:0:0:0:
448,192,99664,1,0,0:0:0:0:
320,192,99664,1,0,0:0:0:0:
64,192,99837,1,0,0:0:0:0:
192,192,99837,1,0,0:0:0:0:
192,192,100011,1,0,0:0:0:0:
320,192,100011,1,0,0:0:0:0:
320,192,100184,1,0,0:0:0:0:
448,192,100184,1,0,0:0:0:0:
320,192,100357,1,0,0:0:0:0:
192,192,100357,1,0,0:0:0:0:
64,192,100531,1,0,0:0:0:0:
320,192,100531,1,0,0:0:0:0:
192,192,100704,1,0,0:0:0:0:
64,192,100704,1,0,0:0:0:0:
64,192,100878,1,0,0:0:0:0:
320,192,100878,128,0,101398:0:0:0:0:
192,192,101051,1,0,0:0:0:0:
448,192,101051,1,0,0:0:0:0:
64,192,101224,1,0,0:0:0:0:
448,192,101224,1,0,0:0:0:0:
64,192,101398,1,0,0:0:0:0:
192,192,101398,1,0,0:0:0:0:
192,192,101485,1,0,0:0:0:0:
448,192,101571,1,0,0:0:0:0:
320,192,101571,1,0,0:0:0:0:
192,192,101745,1,0,0:0:0:0:
64,192,101745,1,0,0:0:0:0:
320,192,101831,1,0,0:0:0:0:
448,192,101831,1,0,0:0:0:0:
320,192,102005,1,0,0:0:0:0:
448,192,102005,1,0,0:0:0:0:
64,192,102092,1,0,0:0:0:0:
192,192,102092,1,0,0:0:0:0:
448,192,102178,1,0,0:0:0:0:
320,192,102178,1,0,0:0:0:0:
192,192,102265,1,0,0:0:0:0:
64,192,102265,1,0,0:0:0:0:
192,192,102352,1,0,0:0:0:0:
320,192,102438,1,0,0:0:0:0:
448,192,102438,1,0,0:0:0:0:
320,192,102525,1,0,0:0:0:0:
64,192,102612,1,0,0:0:0:0:
448,192,102612,1,0,0:0:0:0:
192,192,102785,1,0,0:0:0:0:
320,192,102785,1,0,0:0:0:0:
320,192,102959,1,0,0:0:0:0:
448,192,102959,1,0,0:0:0:0:
320,192,103132,1,0,0:0:0:0:
64,192,103132,1,0,0:0:0:0:
64,192,103305,1,0,0:0:0:0:
448,192,103305,1,0,0:0:0:0:
320,192,103479,1,0,0:0:0:0:
192,192,103479,1,0,0:0:0:0:
64,192,103652,128,0,103999:0:0:0:0:
448,192,103652,1,0,0:0:0:0:
320,192,103826,1,0,0:0:0:0:
192,192,103826,1,0,0:0:0:0:
320,192,103999,1,0,0:0:0:0:
448,192,103999,1,0,0:0:0:0:
448,192,104086,1,0,0:0:0:0:
320,192,104172,1,0,0:0:0:0:
192,192,104172,1,0,0:0:0:0:
64,192,104346,1,0,0:0:0:0:
192,192,104346,1,0,0:0:0:0:
448,192,104433,1,0,0:0:0:0:
320,192,104433,1,0,0:0:0:0:
64,192,104606,1,0,0:0:0:0:
192,192,104606,1,0,0:0:0:0:
448,192,104693,1,0,0:0:0:0:
320,192,104693,1,0,0:0:0:0:
64,192,104866,1,0,0:0:0:0:
192,192,104866,1,0,0:0:0:0:
192,192,104953,1,0,0:0:0:0:
320,192,105039,1,0,0:0:0:0:
448,192,105039,1,0,0:0:0:0:
320,192,105126,1,0,0:0:0:0:
192,192,105213,1,0,0:0:0:0:
64,192,105213,1,0,0:0:0:0:
64,192,105300,1,0,0:0:0:0:
320,192,105386,1,0,0:0:0:0:
448,192,105386,1,0,0:0:0:0:
320,192,105560,1,0,0:0:0:0:
192,192,105560,1,0,0:0:0:0:
64,192,105733,1,0,0:0:0:0:
448,192,105733,1,0,0:0:0:0:
448,192,105820,1,0,0:0:0:0:
192,192,105907,1,0,0:0:0:0:
64,192,105907,1,0,0:0:0:0:
320,192,106080,1,0,0:0:0:0:
448,192,106080,1,0,0:0:0:0:
192,192,106167,1,0,0:0:0:0:
64,192,106167,1,0,0:0:0:0:
320,192,106253,1,0,0:0:0:0:
448,192,106253,1,0,0:0:0:0:
192,192,106340,1,0,0:0:0:0:
64,192,106340,1,0,0:0:0:0:
448,192,106427,1,0,0:0:0:0:
320,192,106427,128,0,106947:0:0:0:0:
192,192,106600,1,0,0:0:0:0:
64,192,106600,1,0,0:0:0:0:
64,192,106774,1,0,0:0:0:0:
448,192,106774,1,0,0:0:0:0:
192,192,106947,1,0,0:0:0:0:
448,192,106947,1,0,0:0:0:0:
192,192,107034,1,0,0:0:0:0:
320,192,107120,1,0,0:0:0:0:
448,192,107120,1,0,0:0:0:0:
320,192,107207,1,0,0:0:0:0:
64,192,107294,1,0,0:0:0:0:
192,192,107294,1,0,0:0:0:0:
64,192,107381,1,0,0:0:0:0:
320,192,107467,1,0,0:0:0:0:
448,192,107467,1,0,0:0:0:0:
448,192,107554,1,0,0:0:0:0:
64,192,107641,1,0,0:0:0:0:
192,192,107641,1,0,0:0:0:0:
192,192,107727,1,0,0:0:0:0:
320,192,107814,1,0,0:0:0:0:
448,192,107814,1,0,0:0:0:0:
320,192,107901,1,0,0:0:0:0:
64,192,107987,1,0,0:0:0:0:
64,192,108074,1,0,0:0:0:0:
192,192,108161,1,0,0:0:0:0:
320,192,108161,1,0,0:0:0:0:
320,192,108334,1,0,0:0:0:0:
448,192,108334,1,0,0:0:0:0:
64,192,108508,1,0,0:0:0:0:
192,192,108508,1,0,0:0:0:0:
192,192,108681,1,0,0:0:0:0:
448,192,108681,1,0,0:0:0:0:
192,192,108855,1,0,0:0:0:0:
320,192,108855,1,0,0:0:0:0:
64,192,109028,1,0,0:0:0:0:
320,192,109028,1,0,0:0:0:0:
320,192,109201,1,0,0:0:0:0:
448,192,109201,128,0,109548:0:0:0:0:
64,192,109375,1,0,0:0:0:0:
192,192,109375,1,0,0:0:0:0:
64,192,109548,1,0,0:0:0:0:
192,192,109548,1,0,0:0:0:0:
192,192,109635,1,0,0:0:0:0:
320,192,109722,1,0,0:0:0:0:
448,192,109722,1,0,0:0:0:0:
320,192,109808,1,0,0:0:0:0:
64,192,109895,1,0,0:0:0:0:
192,192,109895,1,0,0:0:0:0:
64,192,109982,1,0,0:0:0:0:
320,192,110068,1,0,0:0:0:0:
448,192,110068,1,0,0:0:0:0:
448,192,110155,1,0,0:0:0:0:
64,192,110242,1,0,0:0:0:0:
192,192,110242,1,0,0:0:0:0:
192,192,110329,1,0,0:0:0:0:
448,192,110415,1,0,0:0:0:0:
320,192,110415,1,0,0:0:0:0:
320,192,110502,1,0,0:0:0:0:
64,192,110589,1,0,0:0:0:0:
192,192,110589,1,0,0:0:0:0:
192,192,110675,1,0,0:0:0:0:
320,192,110762,1,0,0:0:0:0:
448,192,110762,1,0,0:0:0:0:
192,192,110935,1,0,0:0:0:0:
64,192,110935,1,0,0:0:0:0:
192,192,111109,1,0,0:0:0:0:
320,192,111109,1,0,0:0:0:0:
320,192,111282,1,0,0:0:0:0:
448,192,111282,1,0,0:0:0:0:
192,192,111456,1,0,0:0:0:0:
320,192,111456,1,0,0:0:0:0:
64,192,111629,1,0,0:0:0:0:
320,192,111629,1,0,0:0:0:0:
192,192,111802,1,0,0:0:0:0:
448,192,111802,1,0,0:0:0:0:
64,192,111976,128,0,112496:0:0:0:0:
320,192,111976,1,0,0:0:0:0:
192,192,112149,1,0,0:0:0:0:
448,192,112149,1,0,0:0:0:0:
320,192,112323,1,0,0:0:0:0:
448,192,112323,1,0,0:0:0:0:
320,192,112496,1,0,0:0:0:0:
448,192,112496,1,0,0:0:0:0:
320,192,112583,1,0,0:0:0:0:
64,192,112670,1,0,0:0:0:0:
192,192,112670,1,0,0:0:0:0:
448,192,112843,1,0,0:0:0:0:
320,192,112843,1,0,0:0:0:0:
192,192,112930,1,0,0:0:0:0:
64,192,112930,1,0,0:0:0:0:
448,192,113103,1,0,0:0:0:0:
320,192,113103,1,0,0:0:0:0:
192,192,113190,1,0,0:0:0:0:
64,192,113190,1,0,0:0:0:0:
192,192,113276,1,0,0:0:0:0:
320,192,113363,1,0,0:0:0:0:
448,192,113363,1,0,0:0:0:0:
448,192,113450,1,0,0:0:0:0:
64,192,113537,1,0,0:0:0:0:
192,192,113537,1,0,0:0:0:0:
64,192,113623,1,0,0:0:0:0:
192,192,113710,1,0,0:0:0:0:
320,192,113710,1,0,0:0:0:0:
320,192,113883,1,0,0:0:0:0:
448,192,113883,1,0,0:0:0:0:
192,192,114057,1,0,0:0:0:0:
320,192,114057,1,0,0:0:0:0:
448,192,114230,1,0,0:0:0:0:
64,192,114230,1,0,0:0:0:0:
192,192,114404,1,0,0:0:0:0:
448,192,114404,1,0,0:0:0:0:
192,192,114577,1,0,0:0:0:0:
64,192,114577,1,0,0:0:0:0:
64,192,114750,1,0,0:0:0:0:
320,192,114750,128,0,115097:0:0:0:0:
448,192,114924,1,0,0:0:0:0:
192,192,114924,1,0,0:0:0:0:
64,192,115097,1,0,0:0:0:0:
192,192,115097,1,0,0:0:0:0:
64,192,115184,1,0,0:0:0:0:
320,192,115271,1,0,0:0:0:0:
448,192,115271,1,0,0:0:0:0:
448,192,115357,1,0,0:0:0:0:
192,192,115444,1,0,0:0:0:0:
320,192,115444,1,0,0:0:0:0:
64,192,115531,1,0,0:0:0:0:
448,192,115531,1,0,0:0:0:0:
192,192,115704,1,0,0:0:0:0:
320,192,115704,1,0,0:0:0:0:
64,192,115791,1,0,0:0:0:0:
448,192,115791,1,0,0:0:0:0:
192,192,115964,1,0,0:0:0:0:
64,192,115964,1,0,0:0:0:0:
320,192,116051,1,0,0:0:0:0:
448,192,116051,1,0,0:0:0:0:
192,192,116138,1,0,0:0:0:0:
64,192,116138,1,0,0:0:0:0:
64,192,116224,1,0,0:0:0:0:
448,192,116311,1,0,0:0:0:0:
320,192,116311,1,0,0:0:0:0:
320,192,116398,1,0,0:0:0:0:
192,192,116485,1,0,0:0:0:0:
64,192,116485,1,0,0:0:0:0:
320,192,116658,1,0,0:0:0:0:
448,192,116658,1,0,0:0:0:0:
320,192,116831,1,0,0:0:0:0:
192,192,116831,1,0,0:0:0:0:
192,192,116918,1,0,0:0:0:0:
320,192,117005,1,0,0:0:0:0:
448,192,117005,1,0,0:0:0:0:
64,192,117178,1,0,0:0:0:0:
192,192,117178,1,0,0:0:0:0:
192,192,117265,1,0,0:0:0:0:
320,192,117352,1,0,0:0:0:0:
448,192,117352,1,0,0:0:0:0:
320,192,117438,1,0,0:0:0:0:
448,192,117525,1,0,0:0:0:0:
64,192,117525,128,0,117872:0:0:0:0:
192,192,117698,1,0,0:0:0:0:
320,192,117698,1,0,0:0:0:0:
320,192,117872,1,0,0:0:0:0:
448,192,117872,1,0,0:0:0:0:
64,192,118045,1,0,0:0:0:0:
192,192,118045,1,0,0:0:0:0:
192,192,118132,1,0,0:0:0:0:
320,192,118219,1,0,0:0:0:0:
448,192,118219,1,0,0:0:0:0:
320,192,118305,1,0,0:0:0:0:
64,192,118392,1,0,0:0:0:0:
192,192,118392,1,0,0:0:0:0:
192,192,118479,1,0,0:0:0:0:
448,192,118565,1,0,0:0:0:0:
320,192,118565,1,0,0:0:0:0:
320,192,118652,1,0,0:0:0:0:
64,192,118739,1,0,0:0:0:0:
192,192,118739,1,0,0:0:0:0:
192,192,118826,1,0,0:0:0:0:
448,192,118912,1,0,0:0:0:0:
320,192,118912,1,0,0:0:0:0:
448,192,118999,1,0,0:0:0:0:
192,192,119086,1,0,0:0:0:0:
192,192,119172,1,0,0:0:0:0:
320,192,119259,1,0,0:0:0:0:
448,192,119259,1,0,0:0:0:0:
192,192,119433,1,0,0:0:0:0:
64,192,119433,1,0,0:0:0:0:
320,192,119606,1,0,0:0:0:0:
192,192,119606,1,0,0:0:0:0:
64,192,119779,1,0,0:0:0:0:
448,192,119779,1,0,0:0:0:0:
320,192,119953,1,0,0:0:0:0:
64,192,119953,1,0,0:0:0:0:
192,192,120126,1,0,0:0:0:0:
320,192,120126,1,0,0:0:0:0:
64,192,120300,1,0,0:0:0:0:
448,192,120300,128,0,120646:0:0:0:0:
192,192,120473,1,0,0:0:0:0:
320,192,120473,1,0,0:0:0:0:
192,192,120646,1,0,0:0:0:0:
64,192,120646,1,0,0:0:0:0:
64,192,120733,1,0,0:0:0:0:
320,192,120820,1,0,0:0:0:0:
448,192,120820,1,0,0:0:0:0:
448,192,120907,1,0,0:0:0:0:
192,192,120993,1,0,0:0:0:0:
64,192,120993,1,0,0:0:0:0:
64,192,121080,1,0,0:0:0:0:
320,192,121167,1,0,0:0:0:0:
448,192,121167,1,0,0:0:0:0:
448,192,121253,1,0,0:0:0:0:
192,192,121340,1,0,0:0:0:0:
64,192,121340,1,0,0:0:0:0:
64,192,121427,1,0,0:0:0:0:
320,192,121513,1,0,0:0:0:0:
448,192,121513,1,0,0:0:0:0:
448,192,121600,1,0,0:0:0:0:
192,192,121687,1,0,0:0:0:0:
64,192,121687,1,0,0:0:0:0:
192,192,121774,1,0,0:0:0:0:
320,192,121860,1,0,0:0:0:0:
448,192,121860,1,0,0:0:0:0:
192,192,122034,1,0,0:0:0:0:
64,192,122034,1,0,0:0:0:0:
448,192,122207,1,0,0:0:0:0:
64,192,122207,1,0,0:0:0:0:
320,192,122381,1,0,0:0:0:0:
448,192,122381,1,0,0:0:0:0:
320,192,122554,1,0,0:0:0:0:
192,192,122554,1,0,0:0:0:0:
320,192,122727,1,0,0:0:0:0:
64,192,122727,1,0,0:0:0:0:
64,192,122901,1,0,0:0:0:0:
192,192,122901,1,0,0:0:0:0:
320,192,123074,1,0,0:0:0:0:
448,192,123074,1,0,0:0:0:0:
192,192,123161,1,0,0:0:0:0:
64,192,123248,1,0,0:0:0:0:
448,192,123248,1,0,0:0:0:0:
320,192,123334,1,0,0:0:0:0:
192,192,123421,1,0,0:0:0:0:
64,192,123421,1,0,0:0:0:0:
448,192,123508,1,0,0:0:0:0:
320,192,123594,1,0,0:0:0:0:
192,192,123594,1,0,0:0:0:0:
64,192,123681,1,0,0:0:0:0:
192,192,123768,1,0,0:0:0:0:
448,192,123768,1,0,0:0:0:0:
320,192,123855,1,0,0:0:0:0:
192,192,123941,1,0,0:0:0:0:
64,192,123941,1,0,0:0:0:0:
448,192,124028,1,0,0:0:0:0:
320,192,124115,1,0,0:0:0:0:
192,192,124115,1,0,0:0:0:0:
64,192,124201,1,0,0:0:0:0:
192,192,124288,1,0,0:0:0:0:
320,192,124288,1,0,0:0:0:0:
448,192,124375,1,0,0:0:0:0:
64,192,124461,1,0,0:0:0:0:
192,192,124461,1,0,0:0:0:0:
320,192,124548,1,0,0:0:0:0:
448,192,124635,1,0,0:0:0:0:
64,192,124635,1,0,0:0:0:0:
192,192,124722,1,0,0:0:0:0:
320,192,124808,1,0,0:0:0:0:
64,192,124808,1,0,0:0:0:0:
448,192,124895,1,0,0:0:0:0:
192,192,124982,1,0,0:0:0:0:
64,192,124982,1,0,0:0:0:0:
320,192,125068,1,0,0:0:0:0:
448,192,125155,1,0,0:0:0:0:
192,192,125155,1,0,0:0:0:0:
64,192,125242,1,0,0:0:0:0:
320,192,125329,1,0,0:0:0:0:
448,192,125329,1,0,0:0:0:0:
192,192,125415,1,0,0:0:0:0:
64,192,125502,1,0,0:0:0:0:
448,192,125502,1,0,0:0:0:0:
320,192,125589,1,0,0:0:0:0:
192,192,125675,1,0,0:0:0:0:
64,192,125675,1,0,0:0:0:0:
448,192,125762,1,0,0:0:0:0:
320,192,125849,1,0,0:0:0:0:
192,192,125849,1,0,0:0:0:0:
64,192,125935,1,0,0:0:0:0:
448,192,126022,1,0,0:0:0:0:
320,192,126022,1,0,0:0:0:0:
64,192,126109,1,0,0:0:0:0:
192,192,126196,1,0,0:0:0:0:
448,192,126196,1,0,0:0:0:0:
320,192,126282,1,0,0:0:0:0:
192,192,126369,1,0,0:0:0:0:
64,192,126369,1,0,0:0:0:0:
448,192,126456,1,0,0:0:0:0:
320,192,126542,1,0,0:0:0:0:
192,192,126542,1,0,0:0:0:0:
64,192,126629,1,0,0:0:0:0:
192,192,126716,1,0,0:0:0:0:
448,192,126716,1,0,0:0:0:0:
320,192,126802,1,0,0:0:0:0:
64,192,126889,1,0,0:0:0:0:
192,192,126889,1,0,0:0:0:0:
320,192,126976,1,0,0:0:0:0:
448,192,127063,1,0,0:0:0:0:
64,192,127063,1,0,0:0:0:0:
192,192,127149,1,0,0:0:0:0:
448,192,127236,1,0,0:0:0:0:
320,192,127236,1,0,0:0:0:0:
192,192,127323,1,0,0:0:0:0:
64,192,127323,1,0,0:0:0:0:
320,192,127409,1,0,0:0:0:0:
448,192,127409,1,0,0:0:0:0:
192,192,127496,5,0,0:0:0:0:
64,192,127496,1,0,0:0:0:0:
448,192,127583,1,0,0:0:0:0:
320,192,127583,1,0,0:0:0:0:
192,192,127670,1,0,0:0:0:0:
64,192,127670,1,0,0:0:0:0:
320,192,127756,1,0,0:0:0:0:
448,192,127756,1,0,0:0:0:0:
192,192,127843,1,0,0:0:0:0:
64,192,127843,1,0,0:0:0:0:
448,192,127930,1,0,0:0:0:0:
320,192,127973,1,0,0:0:0:0:
192,192,128016,1,0,0:0:0:0:
64,192,128060,1,0,0:0:0:0:
448,192,128103,1,0,0:0:0:0:
320,192,128103,1,0,0:0:0:0:
192,192,128190,1,0,0:0:0:0:
64,192,128190,1,0,0:0:0:0:
320,192,128276,1,0,0:0:0:0:
448,192,128276,1,0,0:0:0:0:
192,192,128363,1,0,0:0:0:0:
64,192,128363,1,0,0:0:0:0:
320,192,128450,1,0,0:0:0:0:
448,192,128450,1,0,0:0:0:0:
192,192,128537,1,0,0:0:0:0:
64,192,128537,1,0,0:0:0:0:
448,192,128623,1,0,0:0:0:0:
320,192,128623,128,0,131446:0:0:0:0:
64,192,128799,1,0,0:0:0:0:
192,192,128887,1,0,0:0:0:0:
448,192,128975,1,0,0:0:0:0:
64,192,128975,1,0,0:0:0:0:
192,192,129152,1,0,0:0:0:0:
448,192,129240,1,0,0:0:0:0:
64,192,129328,1,0,0:0:0:0:
192,192,129328,1,0,0:0:0:0:
448,192,129505,1,0,0:0:0:0:
64,192,129593,1,0,0:0:0:0:
448,192,129681,1,0,0:0:0:0:
192,192,129681,1,0,0:0:0:0:
192,192,129858,1,0,0:0:0:0:
448,192,129946,1,0,0:0:0:0:
192,192,130034,1,0,0:0:0:0:
64,192,130034,1,0,0:0:0:0:
64,192,130211,1,0,0:0:0:0:
192,192,130299,1,0,0:0:0:0:
64,192,130387,1,0,0:0:0:0:
448,192,130387,1,0,0:0:0:0:
448,192,130564,1,0,0:0:0:0:
192,192,130652,1,0,0:0:0:0:
64,192,130740,1,0,0:0:0:0:
448,192,130740,1,0,0:0:0:0:
192,192,130917,1,0,0:0:0:0:
448,192,131005,1,0,0:0:0:0:
64,192,131093,1,0,0:0:0:0:
192,192,131093,1,0,0:0:0:0:
192,192,131270,1,0,0:0:0:0:
64,192,131358,1,0,0:0:0:0:
448,192,131446,1,0,0:0:0:0:
192,192,131446,1,0,0:0:0:0:
192,192,131623,1,0,0:0:0:0:
64,192,131711,1,0,0:0:0:0:
448,192,131799,1,0,0:0:0:0:
320,192,131799,1,0,0:0:0:0:
64,192,131975,1,0,0:0:0:0:
448,192,132064,1,0,0:0:0:0:
320,192,132152,1,0,0:0:0:0:
192,192,132152,1,0,0:0:0:0:
448,192,132328,1,0,0:0:0:0:
192,192,132417,1,0,0:0:0:0:
64,192,132505,1,0,0:0:0:0:
320,192,132505,1,0,0:0:0:0:
192,192,132681,1,0,0:0:0:0:
320,192,132770,1,0,0:0:0:0:
448,192,132858,1,0,0:0:0:0:
64,192,132858,1,0,0:0:0:0:
320,192,133034,1,0,0:0:0:0:
448,192,133123,1,0,0:0:0:0:
64,192,133211,1,0,0:0:0:0:
192,192,133211,1,0,0:0:0:0:
448,192,133387,1,0,0:0:0:0:
64,192,133475,1,0,0:0:0:0:
192,192,133564,1,0,0:0:0:0:
320,192,133564,1,0,0:0:0:0:
64,192,133740,1,0,0:0:0:0:
320,192,133828,1,0,0:0:0:0:
448,192,133917,1,0,0:0:0:0:
192,192,133917,1,0,0:0:0:0:
64,192,134093,1,0,0:0:0:0:
448,192,134093,1,0,0:0:0:0:
192,192,134181,1,0,0:0:0:0:
64,192,134270,1,0,0:0:0:0:
320,192,134270,1,0,0:0:0:0:
448,192,134358,1,0,0:0:0:0:
64,192,134446,1,0,0:0:0:0:
192,192,134446,1,0,0:0:0:0:
320,192,134534,1,0,0:0:0:0:
192,192,134623,1,0,0:0:0:0:
448,192,134623,1,0,0:0:0:0:
64,192,134711,1,0,0:0:0:0:
448,192,134799,1,0,0:0:0:0:
320,192,134799,1,0,0:0:0:0:
64,192,134887,1,0,0:0:0:0:
320,192,134975,1,0,0:0:0:0:
192,192,134975,1,0,0:0:0:0:
448,192,135064,1,0,0:0:0:0:
192,192,135152,1,0,0:0:0:0:
64,192,135152,1,0,0:0:0:0:
320,192,135240,1,0,0:0:0:0:
64,192,135328,1,0,0:0:0:0:
448,192,135328,1,0,0:0:0:0:
192,192,135417,1,0,0:0:0:0:
64,192,135505,1,0,0:0:0:0:
320,192,135505,1,0,0:0:0:0:
448,192,135593,1,0,0:0:0:0:
192,192,135681,1,0,0:0:0:0:
320,192,135681,1,0,0:0:0:0:
64,192,135770,1,0,0:0:0:0:
192,192,135858,1,0,0:0:0:0:
448,192,135858,1,0,0:0:0:0:
320,192,135946,1,0,0:0:0:0:
64,192,136034,1,0,0:0:0:0:
192,192,136034,1,0,0:0:0:0:
448,192,136123,1,0,0:0:0:0:
192,192,136211,1,0,0:0:0:0:
320,192,136211,1,0,0:0:0:0:
64,192,136299,1,0,0:0:0:0:
448,192,136387,1,0,0:0:0:0:
320,192,136387,1,0,0:0:0:0:
192,192,136475,1,0,0:0:0:0:
64,192,136564,1,0,0:0:0:0:
448,192,136564,1,0,0:0:0:0:
320,192,136652,1,0,0:0:0:0:
64,192,136740,1,0,0:0:0:0:
192,192,136740,1,0,0:0:0:0:
448,192,136828,1,0,0:0:0:0:
192,192,136917,1,0,0:0:0:0:
320,192,136917,1,0,0:0:0:0:
64,192,137005,1,0,0:0:0:0:
448,192,137093,1,0,0:0:0:0:
320,192,137093,1,0,0:0:0:0:
192,192,137181,1,0,0:0:0:0:
448,192,137270,1,0,0:0:0:0:
64,192,137270,1,0,0:0:0:0:
192,192,137358,1,0,0:0:0:0:
448,192,137446,1,0,0:0:0:0:
320,192,137446,1,0,0:0:0:0:
64,192,137534,1,0,0:0:0:0:
320,192,137623,1,0,0:0:0:0:
192,192,137623,1,0,0:0:0:0:
448,192,137711,1,0,0:0:0:0:
64,192,137799,1,0,0:0:0:0:
192,192,137843,1,0,0:0:0:0:
320,192,137887,1,0,0:0:0:0:
448,192,137931,1,0,0:0:0:0:
64,192,137975,1,0,0:0:0:0:
192,192,138020,1,0,0:0:0:0:
320,192,138064,1,0,0:0:0:0:
448,192,138108,1,0,0:0:0:0:
64,192,138152,1,0,0:0:0:0:
192,192,138152,1,0,0:0:0:0:
448,192,138240,1,0,0:0:0:0:
320,192,138240,1,0,0:0:0:0:
64,192,138328,1,0,0:0:0:0:
192,192,138328,1,0,0:0:0:0:
448,192,138417,1,0,0:0:0:0:
320,192,138417,1,0,0:0:0:0:
64,192,138505,1,0,0:0:0:0:
192,192,138505,1,0,0:0:0:0:
64,192,138770,1,0,0:0:0:0:
320,192,138770,1,0,0:0:0:0:
448,192,138770,1,0,0:0:0:0:
64,192,139034,1,0,0:0:0:0:
192,192,139034,1,0,0:0:0:0:
320,192,139034,1,0,0:0:0:0:
320,192,139299,1,0,0:0:0:0:
448,192,139299,1,0,0:0:0:0:
192,192,139299,1,0,0:0:0:0:
192,192,139564,1,0,0:0:0:0:
64,192,139564,1,0,0:0:0:0:
448,192,139564,1,0,0:0:0:0:
64,192,139740,1,0,0:0:0:0:
192,192,139740,1,0,0:0:0:0:
448,192,139740,1,0,0:0:0:0:
64,192,139917,1,0,0:0:0:0:
320,192,139917,1,0,0:0:0:0:
448,192,139917,1,0,0:0:0:0:
448,192,140093,1,0,0:0:0:0:
320,192,140093,1,0,0:0:0:0:
192,192,140181,1,0,0:0:0:0:
320,192,140270,1,0,0:0:0:0:
448,192,140270,1,0,0:0:0:0:
192,192,140446,1,0,0:0:0:0:
64,192,140446,1,0,0:0:0:0:
320,192,140534,1,0,0:0:0:0:
64,192,140623,128,0,140975:0:0:0:0:
448,192,140623,1,0,0:0:0:0:
320,192,140799,1,0,0:0:0:0:
192,192,140887,1,0,0:0:0:0:
448,192,140975,1,0,0:0:0:0:
320,192,140975,128,0,141328:0:0:0:0:
64,192,141152,1,0,0:0:0:0:
192,192,141240,1,0,0:0:0:0:
64,192,141328,1,0,0:0:0:0:
448,192,141328,1,0,0:0:0:0:
192,192,141505,1,0,0:0:0:0:
64,192,141593,1,0,0:0:0:0:
320,192,141681,1,0,0:0:0:0:
448,192,141681,1,0,0:0:0:0:
64,192,141858,1,0,0:0:0:0:
448,192,141946,1,0,0:0:0:0:
192,192,142034,1,0,0:0:0:0:
320,192,142034,1,0,0:0:0:0:
448,192,142211,1,0,0:0:0:0:
192,192,142299,1,0,0:0:0:0:
320,192,142387,1,0,0:0:0:0:
64,192,142387,1,0,0:0:0:0:
192,192,142564,1,0,0:0:0:0:
320,192,142652,1,0,0:0:0:0:
64,192,142740,1,0,0:0:0:0:
448,192,142740,1,0,0:0:0:0:
448,192,142917,1,0,0:0:0:0:
64,192,142917,1,0,0:0:0:0:
320,192,143005,1,0,0:0:0:0:
448,192,143093,1,0,0:0:0:0:
64,192,143093,1,0,0:0:0:0:
192,192,143270,1,0,0:0:0:0:
320,192,143270,1,0,0:0:0:0:
64,192,143358,1,0,0:0:0:0:
448,192,143446,1,0,0:0:0:0:
320,192,143446,128,0,143799:0:0:0:0:
192,192,143623,1,0,0:0:0:0:
64,192,143711,1,0,0:0:0:0:
192,192,143799,128,0,144152:0:0:0:0:
448,192,143799,1,0,0:0:0:0:
64,192,143975,1,0,0:0:0:0:
320,192,144064,1,0,0:0:0:0:
64,192,144152,1,0,0:0:0:0:
448,192,144152,1,0,0:0:0:0:
64,192,144328,1,0,0:0:0:0:
448,192,144417,1,0,0:0:0:0:
320,192,144505,1,0,0:0:0:0:
192,192,144505,1,0,0:0:0:0:
448,192,144681,1,0,0:0:0:0:
192,192,144770,1,0,0:0:0:0:
320,192,144858,1,0,0:0:0:0:
64,192,144858,1,0,0:0:0:0:
192,192,145034,1,0,0:0:0:0:
320,192,145123,1,0,0:0:0:0:
64,192,145211,1,0,0:0:0:0:
448,192,145211,1,0,0:0:0:0:
448,192,145387,1,0,0:0:0:0:
64,192,145387,1,0,0:0:0:0:
320,192,145475,1,0,0:0:0:0:
64,192,145564,1,0,0:0:0:0:
192,192,145564,128,0,145917:0:0:0:0:
448,192,145740,1,0,0:0:0:0:
320,192,145828,1,0,0:0:0:0:
448,192,145917,128,0,146270:0:0:0:0:
64,192,145917,1,0,0:0:0:0:
320,192,146093,1,0,0:0:0:0:
192,192,146181,1,0,0:0:0:0:
320,192,146270,1,0,0:0:0:0:
64,192,146270,1,0,0:0:0:0:
192,192,146446,1,0,0:0:0:0:
320,192,146534,1,0,0:0:0:0:
448,192,146623,1,0,0:0:0:0:
64,192,146623,1,0,0:0:0:0:
192,192,146799,1,0,0:0:0:0:
64,192,146887,1,0,0:0:0:0:
320,192,146975,1,0,0:0:0:0:
448,192,146975,1,0,0:0:0:0:
64,192,147152,1,0,0:0:0:0:
448,192,147240,1,0,0:0:0:0:
192,192,147328,1,0,0:0:0:0:
320,192,147328,1,0,0:0:0:0:
448,192,147505,1,0,0:0:0:0:
192,192,147593,1,0,0:0:0:0:
320,192,147681,1,0,0:0:0:0:
64,192,147681,1,0,0:0:0:0:
64,192,147858,1,0,0:0:0:0:
448,192,147858,1,0,0:0:0:0:
320,192,147946,1,0,0:0:0:0:
192,192,148034,1,0,0:0:0:0:
448,192,148034,1,0,0:0:0:0:
320,192,148211,1,0,0:0:0:0:
64,192,148211,1,0,0:0:0:0:
448,192,148299,1,0,0:0:0:0:
192,192,148387,1,0,0:0:0:0:
320,192,148387,128,0,148740:0:0:0:0:
64,192,148564,1,0,0:0:0:0:
192,192,148652,1,0,0:0:0:0:
64,192,148740,128,0,149093:0:0:0:0:
448,192,148740,1,0,0:0:0:0:
192,192,148917,1,0,0:0:0:0:
320,192,149005,1,0,0:0:0:0:
192,192,149093,1,0,0:0:0:0:
448,192,149093,1,0,0:0:0:0:
192,192,149270,1,0,0:0:0:0:
320,192,149358,1,0,0:0:0:0:
64,192,149446,1,0,0:0:0:0:
448,192,149446,1,0,0:0:0:0:
320,192,149623,1,0,0:0:0:0:
448,192,149711,1,0,0:0:0:0:
64,192,149799,1,0,0:0:0:0:
192,192,149799,128,0,150152:0:0:0:0:
320,192,150152,1,0,0:0:0:0:
448,192,150152,1,0,0:0:0:0:
320,192,150270,1,0,0:0:0:0:
448,192,150270,1,0,0:0:0:0:
448,192,150387,1,0,0:0:0:0:
320,192,150387,1,0,0:0:0:0:
64,192,150505,1,0,0:0:0:0:
192,192,150505,128,0,150858:0:0:0:0:
64,192,150858,1,0,0:0:0:0:
448,192,150858,128,0,151211:0:0:0:0:
320,192,151211,1,0,0:0:0:0:
192,192,151211,128,0,151564:0:0:0:0:
320,192,151387,1,0,0:0:0:0:
64,192,151475,1,0,0:0:0:0:
320,192,151564,128,0,151917:0:0:0:0:
448,192,151564,1,0,0:0:0:0:
64,192,151740,1,0,0:0:0:0:
192,192,151828,1,0,0:0:0:0:
64,192,151917,1,0,0:0:0:0:
448,192,151917,1,0,0:0:0:0:
64,192,152093,1,0,0:0:0:0:
448,192,152181,1,0,0:0:0:0:
192,192,152270,1,0,0:0:0:0:
320,192,152270,1,0,0:0:0:0:
448,192,152446,1,0,0:0:0:0:
64,192,152446,1,0,0:0:0:0:
192,192,152534,1,0,0:0:0:0:
448,192,152623,1,0,0:0:0:0:
320,192,152623,128,0,152975:0:0:0:0:
192,192,152799,1,0,0:0:0:0:
64,192,152887,1,0,0:0:0:0:
192,192,152975,128,0,153681:0:0:0:0:
448,192,152975,1,0,0:0:0:0:
64,192,153152,1,0,0:0:0:0:
320,192,153240,1,0,0:0:0:0:
64,192,153328,1,0,0:0:0:0:
448,192,153328,1,0,0:0:0:0:
320,192,153505,1,0,0:0:0:0:
448,192,153593,1,0,0:0:0:0:
64,192,153681,1,0,0:0:0:0:
320,192,153681,1,0,0:0:0:0:
64,192,153858,1,0,0:0:0:0:
448,192,153946,1,0,0:0:0:0:
192,192,154034,1,0,0:0:0:0:
320,192,154034,128,0,154564:0:0:0:0:
448,192,154211,1,0,0:0:0:0:
192,192,154299,1,0,0:0:0:0:
64,192,154387,1,0,0:0:0:0:
448,192,154387,1,0,0:0:0:0:
192,192,154564,128,0,154740:0:0:0:0:
64,192,154652,1,0,0:0:0:0:
448,192,154740,128,0,155446:0:0:0:0:
320,192,154740,1,0,0:0:0:0:
192,192,154917,1,0,0:0:0:0:
320,192,155005,1,0,0:0:0:0:
192,192,155093,1,0,0:0:0:0:
64,192,155093,1,0,0:0:0:0:
320,192,155270,1,0,0:0:0:0:
192,192,155358,1,0,0:0:0:0:
64,192,155446,1,0,0:0:0:0:
320,192,155446,1,0,0:0:0:0:
192,192,155622,1,0,0:0:0:0:
64,192,155711,1,0,0:0:0:0:
320,192,155799,1,0,0:0:0:0:
448,192,155799,1,0,0:0:0:0:
192,192,155975,1,0,0:0:0:0:
448,192,156064,1,0,0:0:0:0:
64,192,156152,1,0,0:0:0:0:
320,192,156152,128,0,156505:0:0:0:0:
448,192,156328,1,0,0:0:0:0:
192,192,156417,1,0,0:0:0:0:
448,192,156505,1,0,0:0:0:0:
64,192,156505,128,0,156858:0:0:0:0:
320,192,156681,1,0,0:0:0:0:
448,192,156681,1,0,0:0:0:0:
192,192,156770,1,0,0:0:0:0:
448,192,156858,1,0,0:0:0:0:
320,192,156858,128,0,157387:0:0:0:0:
64,192,157034,1,0,0:0:0:0:
192,192,157122,1,0,0:0:0:0:
448,192,157211,1,0,0:0:0:0:
64,192,157211,1,0,0:0:0:0:
192,192,157387,1,0,0:0:0:0:
320,192,157475,1,0,0:0:0:0:
64,192,157564,1,0,0:0:0:0:
448,192,157564,1,0,0:0:0:0:
192,192,157740,1,0,0:0:0:0:
64,192,157828,1,0,0:0:0:0:
320,192,157917,1,0,0:0:0:0:
448,192,157917,1,0,0:0:0:0:
64,192,158093,1,0,0:0:0:0:
448,192,158181,1,0,0:0:0:0:
192,192,158270,1,0,0:0:0:0:
320,192,158270,1,0,0:0:0:0:
448,192,158446,1,0,0:0:0:0:
192,192,158534,1,0,0:0:0:0:
320,192,158622,1,0,0:0:0:0:
64,192,158622,1,0,0:0:0:0:
192,192,158799,1,0,0:0:0:0:
320,192,158887,1,0,0:0:0:0:
64,192,158975,1,0,0:0:0:0:
448,192,158975,1,0,0:0:0:0:
192,192,159152,1,0,0:0:0:0:
448,192,159240,1,0,0:0:0:0:
64,192,159328,1,0,0:0:0:0:
320,192,159328,128,0,159681:0:0:0:0:
192,192,159505,1,0,0:0:0:0:
448,192,159593,1,0,0:0:0:0:
192,192,159681,128,0,160034:0:0:0:0:
64,192,159681,1,0,0:0:0:0:
64,192,159858,1,0,0:0:0:0:
320,192,159946,1,0,0:0:0:0:
64,192,160034,128,0,160740:0:0:0:0:
448,192,160034,1,0,0:0:0:0:
192,192,160211,1,0,0:0:0:0:
320,192,160299,1,0,0:0:0:0:
192,192,160387,1,0,0:0:0:0:
448,192,160387,1,0,0:0:0:0:
320,192,160564,1,0,0:0:0:0:
448,192,160652,1,0,0:0:0:0:
192,192,160740,1,0,0:0:0:0:
320,192,160740,1,0,0:0:0:0:
320,192,160917,1,0,0:0:0:0:
448,192,161005,1,0,0:0:0:0:
192,192,161093,1,0,0:0:0:0:
64,192,161093,1,0,0:0:0:0:
448,192,161270,1,0,0:0:0:0:
64,192,161358,1,0,0:0:0:0:
320,192,161446,1,0,0:0:0:0:
192,192,161446,1,0,0:0:0:0:
64,192,161622,1,0,0:0:0:0:
192,192,161711,1,0,0:0:0:0:
448,192,161799,128,0,162152:0:0:0:0:
320,192,161799,1,0,0:0:0:0:
64,192,162034,1,0,0:0:0:0:
192,192,162034,1,0,0:0:0:0:
192,192,162152,128,0,162505:0:0:0:0:
320,192,162270,1,0,0:0:0:0:
448,192,162270,1,0,0:0:0:0:
448,192,162387,1,0,0:0:0:0:
320,192,162387,1,0,0:0:0:0:
64,192,162505,5,0,0:0:0:0:
320,192,162505,128,0,163211:0:0:0:0:
64,192,162858,1,0,0:0:0:0:
192,192,162858,128,0,163211:0:0:0:0:
448,192,163211,128,0,163387:0:0:0:0:
64,192,163211,128,0,163917:0:0:0:0:
320,192,163387,128,0,163564:0:0:0:0:
192,192,163564,128,0,163917:0:0:0:0:
320,192,163917,128,0,164270:0:0:0:0:
448,192,163917,128,0,165328:0:0:0:0:
64,192,164622,128,0,164975:0:0:0:0:
320,192,164622,1,0,0:0:0:0:
320,192,165152,128,0,165328:0:0:0:0:
192,192,165328,128,0,165681:0:0:0:0:
64,192,165328,128,0,165505:0:0:0:0:
320,192,165505,128,0,165681:0:0:0:0:
448,192,165681,128,0,166740:0:0:0:0:
64,192,165681,1,0,0:0:0:0:
64,192,165858,1,0,0:0:0:0:
192,192,165946,1,0,0:0:0:0:
64,192,166034,1,0,0:0:0:0:
320,192,166034,1,0,0:0:0:0:
192,192,166211,1,0,0:0:0:0:
64,192,166299,1,0,0:0:0:0:
192,192,166387,1,0,0:0:0:0:
320,192,166387,1,0,0:0:0:0:
64,192,166564,1,0,0:0:0:0:
192,192,166652,1,0,0:0:0:0:
64,192,166740,1,0,0:0:0:0:
320,192,166740,128,0,167093:0:0:0:0:
192,192,166917,1,0,0:0:0:0:
64,192,167005,1,0,0:0:0:0:
448,192,167093,1,0,0:0:0:0:
320,192,167181,1,0,0:0:0:0:
192,192,167270,1,0,0:0:0:0:
64,192,167358,1,0,0:0:0:0:
448,192,167446,1,0,0:0:0:0:
320,192,167534,1,0,0:0:0:0:
192,192,167622,1,0,0:0:0:0:
320,192,167711,1,0,0:0:0:0:
192,192,167799,1,0,0:0:0:0:
64,192,167887,1,0,0:0:0:0:
192,192,167975,1,0,0:0:0:0:
64,192,168064,1,0,0:0:0:0:
320,192,168152,128,0,168858:0:0:0:0:
448,192,168152,128,0,168505:0:0:0:0:
64,192,168505,128,0,168858:0:0:0:0:
448,192,168858,128,0,169564:0:0:0:0:
192,192,168858,128,0,169211:0:0:0:0:
320,192,169211,128,0,169564:0:0:0:0:
64,192,169564,128,0,170270:0:0:0:0:
192,192,169564,1,0,0:0:0:0:
320,192,169917,128,0,170270:0:0:0:0:
192,192,170270,128,0,170975:0:0:0:0:
448,192,170270,128,0,170622:0:0:0:0:
64,192,170622,128,0,171152:0:0:0:0:
320,192,170975,128,0,172387:0:0:0:0:
448,192,171152,128,0,171681:0:0:0:0:
64,192,171681,128,0,172387:0:0:0:0:
192,192,172387,1,0,0:0:0:0:
192,192,172564,1,0,0:0:0:0:
448,192,172652,1,0,0:0:0:0:
320,192,172696,1,0,0:0:0:0:
192,192,172740,1,0,0:0:0:0:
64,192,172784,1,0,0:0:0:0:
448,192,173005,1,0,0:0:0:0:
320,192,173049,1,0,0:0:0:0:
192,192,173093,1,0,0:0:0:0:
64,192,173137,1,0,0:0:0:0:
448,192,173446,1,0,0:0:0:0:
320,192,173446,1,0,0:0:0:0:
320,192,173622,1,0,0:0:0:0:
448,192,173622,1,0,0:0:0:0:
448,192,173799,1,0,0:0:0:0:
64,192,173799,1,0,0:0:0:0:
192,192,173799,128,0,174152:0:0:0:0:
320,192,173975,1,0,0:0:0:0:
448,192,174064,1,0,0:0:0:0:
64,192,174152,128,0,174505:0:0:0:0:
320,192,174152,1,0,0:0:0:0:
448,192,174328,1,0,0:0:0:0:
320,192,174417,1,0,0:0:0:0:
192,192,174505,1,0,0:0:0:0:
448,192,174505,1,0,0:0:0:0:
320,192,174681,1,0,0:0:0:0:
448,192,174770,1,0,0:0:0:0:
192,192,174858,1,0,0:0:0:0:
64,192,174858,1,0,0:0:0:0:
448,192,175034,1,0,0:0:0:0:
64,192,175122,1,0,0:0:0:0:
320,192,175211,1,0,0:0:0:0:
192,192,175211,1,0,0:0:0:0:
64,192,175387,1,0,0:0:0:0:
320,192,175475,1,0,0:0:0:0:
192,192,175564,1,0,0:0:0:0:
448,192,175564,1,0,0:0:0:0:
320,192,175740,1,0,0:0:0:0:
448,192,175828,1,0,0:0:0:0:
64,192,175917,1,0,0:0:0:0:
192,192,175917,1,0,0:0:0:0:
320,192,176093,1,0,0:0:0:0:
64,192,176093,1,0,0:0:0:0:
192,192,176181,1,0,0:0:0:0:
320,192,176270,1,0,0:0:0:0:
448,192,176270,1,0,0:0:0:0:
448,192,176446,1,0,0:0:0:0:
320,192,176446,128,0,176975:0:0:0:0:
192,192,176534,1,0,0:0:0:0:
64,192,176622,1,0,0:0:0:0:
448,192,176622,1,0,0:0:0:0:
192,192,176799,1,0,0:0:0:0:
448,192,176887,1,0,0:0:0:0:
192,192,176975,1,0,0:0:0:0:
64,192,176975,1,0,0:0:0:0:
448,192,177152,1,0,0:0:0:0:
192,192,177240,1,0,0:0:0:0:
320,192,177328,1,0,0:0:0:0:
64,192,177328,1,0,0:0:0:0:
192,192,177505,1,0,0:0:0:0:
320,192,177593,1,0,0:0:0:0:
64,192,177681,1,0,0:0:0:0:
448,192,177681,1,0,0:0:0:0:
320,192,177858,1,0,0:0:0:0:
448,192,177946,1,0,0:0:0:0:
192,192,178034,1,0,0:0:0:0:
64,192,178034,1,0,0:0:0:0:
448,192,178211,1,0,0:0:0:0:
64,192,178299,1,0,0:0:0:0:
320,192,178387,1,0,0:0:0:0:
192,192,178387,1,0,0:0:0:0:
64,192,178564,1,0,0:0:0:0:
320,192,178652,1,0,0:0:0:0:
192,192,178740,1,0,0:0:0:0:
448,192,178740,1,0,0:0:0:0:
320,192,178917,1,0,0:0:0:0:
448,192,179005,1,0,0:0:0:0:
192,192,179093,1,0,0:0:0:0:
64,192,179093,128,0,179446:0:0:0:0:
448,192,179270,1,0,0:0:0:0:
320,192,179270,1,0,0:0:0:0:
192,192,179358,1,0,0:0:0:0:
320,192,179446,1,0,0:0:0:0:
448,192,179446,128,0,179796:0:0:0:0:
64,192,179621,1,0,0:0:0:0:
192,192,179709,1,0,0:0:0:0:
64,192,179796,128,0,180147:0:0:0:0:
320,192,179796,1,0,0:0:0:0:
192,192,179972,1,0,0:0:0:0:
320,192,180060,1,0,0:0:0:0:
448,192,180147,1,0,0:0:0:0:
192,192,180147,1,0,0:0:0:0:
192,192,180323,1,0,0:0:0:0:
320,192,180410,1,0,0:0:0:0:
448,192,180498,1,0,0:0:0:0:
64,192,180498,1,0,0:0:0:0:
320,192,180674,1,0,0:0:0:0:
448,192,180761,1,0,0:0:0:0:
192,192,180849,1,0,0:0:0:0:
64,192,180849,1,0,0:0:0:0:
448,192,181024,1,0,0:0:0:0:
64,192,181112,1,0,0:0:0:0:
192,192,181200,1,0,0:0:0:0:
320,192,181200,1,0,0:0:0:0:
64,192,181375,1,0,0:0:0:0:
192,192,181463,1,0,0:0:0:0:
448,192,181551,128,0,181902:0:0:0:0:
320,192,181551,1,0,0:0:0:0:
192,192,181726,1,0,0:0:0:0:
64,192,181814,1,0,0:0:0:0:
320,192,181902,1,0,0:0:0:0:
192,192,181902,128,0,182253:0:0:0:0:
64,192,182077,1,0,0:0:0:0:
448,192,182165,1,0,0:0:0:0:
64,192,182253,1,0,0:0:0:0:
320,192,182253,128,0,182601:0:0:0:0:
448,192,182427,1,0,0:0:0:0:
192,192,182514,1,0,0:0:0:0:
448,192,182601,128,0,182950:0:0:0:0:
64,192,182601,1,0,0:0:0:0:
192,192,182776,1,0,0:0:0:0:
320,192,182863,1,0,0:0:0:0:
64,192,182950,1,0,0:0:0:0:
192,192,182950,1,0,0:0:0:0:
64,192,183125,1,0,0:0:0:0:
192,192,183212,1,0,0:0:0:0:
448,192,183299,1,0,0:0:0:0:
320,192,183299,1,0,0:0:0:0:
192,192,183473,1,0,0:0:0:0:
320,192,183561,1,0,0:0:0:0:
64,192,183648,1,0,0:0:0:0:
448,192,183648,1,0,0:0:0:0:
320,192,183822,1,0,0:0:0:0:
448,192,183909,1,0,0:0:0:0:
192,192,183997,1,0,0:0:0:0:
64,192,183997,1,0,0:0:0:0:
448,192,184171,1,0,0:0:0:0:
64,192,184258,1,0,0:0:0:0:
320,192,184346,1,0,0:0:0:0:
192,192,184346,1,0,0:0:0:0:
64,192,184520,1,0,0:0:0:0:
320,192,184607,1,0,0:0:0:0:
192,192,184694,1,0,0:0:0:0:
448,192,184694,1,0,0:0:0:0:
320,192,184869,1,0,0:0:0:0:
448,192,184869,1,0,0:0:0:0:
64,192,185043,1,0,0:0:0:0:
192,192,185043,1,0,0:0:0:0:
192,192,185216,1,0,0:0:0:0:
64,192,185216,1,0,0:0:0:0:
448,192,185389,1,0,0:0:0:0:
320,192,185389,1,0,0:0:0:0:
320,192,185563,1,0,0:0:0:0:
448,192,185563,1,0,0:0:0:0:
64,192,185736,1,0,0:0:0:0:
192,192,185779,1,0,0:0:0:0:
320,192,185823,1,0,0:0:0:0:
448,192,185866,1,0,0:0:0:0:
64,192,185910,1,0,0:0:0:0:
192,192,185910,1,0,0:0:0:0:
448,192,185996,1,0,0:0:0:0:
320,192,185996,1,0,0:0:0:0:
64,192,186083,1,0,0:0:0:0:
192,192,186083,1,0,0:0:0:0:
448,192,186170,1,0,0:0:0:0:
320,192,186170,1,0,0:0:0:0:
64,192,186256,1,0,0:0:0:0:
192,192,186256,1,0,0:0:0:0:
448,192,186343,1,0,0:0:0:0:
320,192,186343,1,0,0:0:0:0:
64,192,186430,1,0,0:0:0:0:
192,192,186430,1,0,0:0:0:0:
320,192,186690,5,0,0:0:0:0:
448,192,186690,1,0,0:0:0:0:
192,192,186690,1,0,0:0:0:0:
192,192,186950,1,0,0:0:0:0:
320,192,186950,1,0,0:0:0:0:
64,192,186950,1,0,0:0:0:0:
64,192,187210,1,0,0:0:0:0:
192,192,187210,1,0,0:0:0:0:
448,192,187210,1,0,0:0:0:0:
448,192,187470,1,0,0:0:0:0:
320,192,187470,1,0,0:0:0:0:
192,192,187470,1,0,0:0:0:0:
64,192,187644,1,0,0:0:0:0:
192,192,187644,1,0,0:0:0:0:
320,192,187644,1,0,0:0:0:0:
448,192,187817,1,0,0:0:0:0:
320,192,187817,128,0,188163:0:0:0:0:
64,192,187990,1,0,0:0:0:0:
192,192,188163,1,0,0:0:0:0:
64,192,188163,1,0,0:0:0:0:
448,192,188337,1,0,0:0:0:0:
320,192,188337,1,0,0:0:0:0:
320,192,188423,1,0,0:0:0:0:
192,192,188510,1,0,0:0:0:0:
64,192,188510,1,0,0:0:0:0:
64,192,188597,1,0,0:0:0:0:
320,192,188684,1,0,0:0:0:0:
448,192,188684,1,0,0:0:0:0:
448,192,188770,1,0,0:0:0:0:
64,192,188857,1,0,0:0:0:0:
192,192,188857,1,0,0:0:0:0:
192,192,188944,1,0,0:0:0:0:
448,192,189030,1,0,0:0:0:0:
320,192,189030,1,0,0:0:0:0:
320,192,189117,1,0,0:0:0:0:
192,192,189204,1,0,0:0:0:0:
64,192,189204,1,0,0:0:0:0:
192,192,189290,1,0,0:0:0:0:
320,192,189377,1,0,0:0:0:0:
320,192,189464,1,0,0:0:0:0:
64,192,189551,1,0,0:0:0:0:
448,192,189551,1,0,0:0:0:0:
192,192,189724,1,0,0:0:0:0:
448,192,189724,1,0,0:0:0:0:
320,192,189897,1,0,0:0:0:0:
192,192,189897,1,0,0:0:0:0:
64,192,190071,1,0,0:0:0:0:
448,192,190071,1,0,0:0:0:0:
192,192,190244,1,0,0:0:0:0:
448,192,190244,1,0,0:0:0:0:
320,192,190418,1,0,0:0:0:0:
192,192,190418,1,0,0:0:0:0:
192,192,190591,1,0,0:0:0:0:
64,192,190591,128,0,190938:0:0:0:0:
448,192,190764,1,0,0:0:0:0:
320,192,190938,1,0,0:0:0:0:
448,192,190938,1,0,0:0:0:0:
320,192,191025,1,0,0:0:0:0:
64,192,191111,1,0,0:0:0:0:
192,192,191111,1,0,0:0:0:0:
192,192,191198,1,0,0:0:0:0:
320,192,191285,1,0,0:0:0:0:
448,192,191285,1,0,0:0:0:0:
448,192,191371,1,0,0:0:0:0:
192,192,191458,1,0,0:0:0:0:
64,192,191458,1,0,0:0:0:0:
64,192,191545,1,0,0:0:0:0:
320,192,191632,1,0,0:0:0:0:
448,192,191632,1,0,0:0:0:0:
448,192,191718,1,0,0:0:0:0:
64,192,191805,1,0,0:0:0:0:
192,192,191805,1,0,0:0:0:0:
192,192,191892,1,0,0:0:0:0:
320,192,191978,1,0,0:0:0:0:
448,192,191978,1,0,0:0:0:0:
320,192,192065,1,0,0:0:0:0:
192,192,192152,1,0,0:0:0:0:
64,192,192152,1,0,0:0:0:0:
320,192,192325,1,0,0:0:0:0:
448,192,192325,1,0,0:0:0:0:
192,192,192499,1,0,0:0:0:0:
64,192,192499,1,0,0:0:0:0:
192,192,192672,1,0,0:0:0:0:
320,192,192672,1,0,0:0:0:0:
320,192,192845,1,0,0:0:0:0:
448,192,192845,1,0,0:0:0:0:
320,192,193019,1,0,0:0:0:0:
192,192,193019,1,0,0:0:0:0:
64,192,193192,1,0,0:0:0:0:
320,192,193192,1,0,0:0:0:0:
64,192,193366,1,0,0:0:0:0:
448,192,193366,128,0,193712:0:0:0:0:
320,192,193539,1,0,0:0:0:0:
192,192,193712,1,0,0:0:0:0:
64,192,193712,1,0,0:0:0:0:
448,192,193886,1,0,0:0:0:0:
320,192,193886,1,0,0:0:0:0:
320,192,193973,1,0,0:0:0:0:
192,192,194059,1,0,0:0:0:0:
64,192,194059,1,0,0:0:0:0:
448,192,194233,1,0,0:0:0:0:
320,192,194233,1,0,0:0:0:0:
64,192,194319,1,0,0:0:0:0:
192,192,194319,1,0,0:0:0:0:
448,192,194493,1,0,0:0:0:0:
320,192,194493,1,0,0:0:0:0:
192,192,194580,1,0,0:0:0:0:
64,192,194580,1,0,0:0:0:0:
320,192,194666,1,0,0:0:0:0:
448,192,194666,1,0,0:0:0:0:
192,192,194753,1,0,0:0:0:0:
64,192,194753,1,0,0:0:0:0:
192,192,194840,1,0,0:0:0:0:
320,192,194926,1,0,0:0:0:0:
448,192,194926,1,0,0:0:0:0:
448,192,195013,1,0,0:0:0:0:
192,192,195100,1,0,0:0:0:0:
64,192,195100,1,0,0:0:0:0:
192,192,195273,1,0,0:0:0:0:
320,192,195273,1,0,0:0:0:0:
320,192,195447,1,0,0:0:0:0:
448,192,195447,1,0,0:0:0:0:
64,192,195620,1,0,0:0:0:0:
448,192,195620,1,0,0:0:0:0:
320,192,195793,1,0,0:0:0:0:
64,192,195793,1,0,0:0:0:0:
192,192,195967,1,0,0:0:0:0:
320,192,195967,1,0,0:0:0:0:
192,192,196140,1,0,0:0:0:0:
448,192,196140,128,0,196487:0:0:0:0:
320,192,196314,1,0,0:0:0:0:
192,192,196487,1,0,0:0:0:0:
64,192,196487,1,0,0:0:0:0:
64,192,196574,1,0,0:0:0:0:
320,192,196660,1,0,0:0:0:0:
448,192,196660,1,0,0:0:0:0:
64,192,196834,1,0,0:0:0:0:
192,192,196834,1,0,0:0:0:0:
320,192,196921,1,0,0:0:0:0:
448,192,196921,1,0,0:0:0:0:
64,192,197094,1,0,0:0:0:0:
192,192,197094,1,0,0:0:0:0:
448,192,197181,1,0,0:0:0:0:
320,192,197181,1,0,0:0:0:0:
64,192,197354,1,0,0:0:0:0:
192,192,197354,1,0,0:0:0:0:
192,192,197441,1,0,0:0:0:0:
320,192,197527,1,0,0:0:0:0:
448,192,197527,1,0,0:0:0:0:
448,192,197614,1,0,0:0:0:0:
320,192,197614,1,0,0:0:0:0:
192,192,197701,1,0,0:0:0:0:
64,192,197701,1,0,0:0:0:0:
64,192,197788,1,0,0:0:0:0:
192,192,197788,1,0,0:0:0:0:
448,192,197874,1,0,0:0:0:0:
320,192,197874,1,0,0:0:0:0:
192,192,198048,1,0,0:0:0:0:
448,192,198048,1,0,0:0:0:0:
320,192,198221,1,0,0:0:0:0:
192,192,198221,1,0,0:0:0:0:
192,192,198308,1,0,0:0:0:0:
320,192,198395,1,0,0:0:0:0:
448,192,198395,1,0,0:0:0:0:
64,192,198568,1,0,0:0:0:0:
192,192,198568,1,0,0:0:0:0:
192,192,198655,1,0,0:0:0:0:
64,192,198655,1,0,0:0:0:0:
320,192,198741,1,0,0:0:0:0:
448,192,198741,1,0,0:0:0:0:
320,192,198828,1,0,0:0:0:0:
448,192,198828,1,0,0:0:0:0:
64,192,198915,1,0,0:0:0:0:
192,192,198915,128,0,199262:0:0:0:0:
320,192,199088,1,0,0:0:0:0:
448,192,199262,1,0,0:0:0:0:
64,192,199262,1,0,0:0:0:0:
320,192,199435,1,0,0:0:0:0:
448,192,199435,1,0,0:0:0:0:
320,192,199522,1,0,0:0:0:0:
64,192,199608,1,0,0:0:0:0:
192,192,199608,1,0,0:0:0:0:
192,192,199695,1,0,0:0:0:0:
320,192,199782,1,0,0:0:0:0:
448,192,199782,1,0,0:0:0:0:
448,192,199869,1,0,0:0:0:0:
64,192,199955,1,0,0:0:0:0:
192,192,199955,1,0,0:0:0:0:
64,192,200042,1,0,0:0:0:0:
320,192,200129,1,0,0:0:0:0:
448,192,200129,1,0,0:0:0:0:
320,192,200215,1,0,0:0:0:0:
192,192,200302,1,0,0:0:0:0:
64,192,200302,1,0,0:0:0:0:
64,192,200389,1,0,0:0:0:0:
192,192,200389,1,0,0:0:0:0:
320,192,200475,1,0,0:0:0:0:
448,192,200475,1,0,0:0:0:0:
448,192,200562,1,0,0:0:0:0:
320,192,200562,1,0,0:0:0:0:
64,192,200649,1,0,0:0:0:0:
192,192,200649,1,0,0:0:0:0:
64,192,200822,1,0,0:0:0:0:
448,192,200822,1,0,0:0:0:0:
320,192,200996,1,0,0:0:0:0:
448,192,200996,1,0,0:0:0:0:
320,192,201169,1,0,0:0:0:0:
192,192,201169,1,0,0:0:0:0:
64,192,201343,1,0,0:0:0:0:
320,192,201343,1,0,0:0:0:0:
192,192,201516,1,0,0:0:0:0:
64,192,201516,1,0,0:0:0:0:
64,192,201689,1,0,0:0:0:0:
448,192,201689,128,0,202036:0:0:0:0:
320,192,201863,1,0,0:0:0:0:
192,192,202036,1,0,0:0:0:0:
64,192,202036,1,0,0:0:0:0:
64,192,202123,1,0,0:0:0:0:
320,192,202210,1,0,0:0:0:0:
448,192,202210,1,0,0:0:0:0:
448,192,202296,1,0,0:0:0:0:
192,192,202383,1,0,0:0:0:0:
64,192,202383,1,0,0:0:0:0:
192,192,202470,1,0,0:0:0:0:
448,192,202556,1,0,0:0:0:0:
320,192,202556,1,0,0:0:0:0:
320,192,202643,1,0,0:0:0:0:
64,192,202730,1,0,0:0:0:0:
192,192,202730,1,0,0:0:0:0:
64,192,202817,1,0,0:0:0:0:
320,192,202903,1,0,0:0:0:0:
448,192,202903,1,0,0:0:0:0:
320,192,202990,1,0,0:0:0:0:
64,192,203077,1,0,0:0:0:0:
192,192,203077,1,0,0:0:0:0:
192,192,203163,1,0,0:0:0:0:
64,192,203163,1,0,0:0:0:0:
320,192,203250,1,0,0:0:0:0:
448,192,203250,1,0,0:0:0:0:
320,192,203423,1,0,0:0:0:0:
192,192,203423,1,0,0:0:0:0:
64,192,203597,1,0,0:0:0:0:
320,192,203597,1,0,0:0:0:0:
192,192,203770,1,0,0:0:0:0:
448,192,203770,1,0,0:0:0:0:
320,192,203944,1,0,0:0:0:0:
448,192,203944,1,0,0:0:0:0:
320,192,204117,1,0,0:0:0:0:
192,192,204117,1,0,0:0:0:0:
192,192,204290,1,0,0:0:0:0:
320,192,204290,1,0,0:0:0:0:
320,192,204464,1,0,0:0:0:0:
64,192,204464,128,0,204811:0:0:0:0:
192,192,204637,1,0,0:0:0:0:
320,192,204811,1,0,0:0:0:0:
448,192,204811,1,0,0:0:0:0:
192,192,204984,1,0,0:0:0:0:
64,192,204984,1,0,0:0:0:0:
192,192,205071,1,0,0:0:0:0:
320,192,205158,1,0,0:0:0:0:
448,192,205158,1,0,0:0:0:0:
64,192,205331,1,0,0:0:0:0:
192,192,205331,1,0,0:0:0:0:
320,192,205418,1,0,0:0:0:0:
448,192,205418,1,0,0:0:0:0:
192,192,205591,1,0,0:0:0:0:
64,192,205591,1,0,0:0:0:0:
320,192,205678,1,0,0:0:0:0:
448,192,205678,1,0,0:0:0:0:
192,192,205764,1,0,0:0:0:0:
64,192,205764,1,0,0:0:0:0:
320,192,205851,1,0,0:0:0:0:
448,192,205851,1,0,0:0:0:0:
448,192,205938,1,0,0:0:0:0:
192,192,206025,1,0,0:0:0:0:
64,192,206025,1,0,0:0:0:0:
192,192,206111,1,0,0:0:0:0:
320,192,206198,1,0,0:0:0:0:
448,192,206198,1,0,0:0:0:0:
320,192,206371,1,0,0:0:0:0:
192,192,206371,1,0,0:0:0:0:
192,192,206545,1,0,0:0:0:0:
64,192,206545,1,0,0:0:0:0:
448,192,206718,1,0,0:0:0:0:
64,192,206718,1,0,0:0:0:0:
192,192,206892,1,0,0:0:0:0:
448,192,206892,1,0,0:0:0:0:
320,192,207065,1,0,0:0:0:0:
192,192,207065,1,0,0:0:0:0:
64,192,207238,1,0,0:0:0:0:
320,192,207238,128,0,207585:0:0:0:0:
448,192,207412,1,0,0:0:0:0:
64,192,207585,1,0,0:0:0:0:
192,192,207585,1,0,0:0:0:0:
192,192,207672,1,0,0:0:0:0:
320,192,207759,1,0,0:0:0:0:
448,192,207759,1,0,0:0:0:0:
64,192,207932,1,0,0:0:0:0:
192,192,207932,1,0,0:0:0:0:
320,192,208019,1,0,0:0:0:0:
448,192,208019,1,0,0:0:0:0:
64,192,208192,1,0,0:0:0:0:
192,192,208192,1,0,0:0:0:0:
320,192,208279,1,0,0:0:0:0:
448,192,208279,1,0,0:0:0:0:
192,192,208452,1,0,0:0:0:0:
64,192,208452,1,0,0:0:0:0:
64,192,208539,1,0,0:0:0:0:
320,192,208626,1,0,0:0:0:0:
448,192,208626,1,0,0:0:0:0:
320,192,208712,1,0,0:0:0:0:
448,192,208712,1,0,0:0:0:0:
192,192,208799,1,0,0:0:0:0:
64,192,208799,1,0,0:0:0:0:
64,192,208886,1,0,0:0:0:0:
192,192,208886,1,0,0:0:0:0:
320,192,208973,1,0,0:0:0:0:
448,192,208973,1,0,0:0:0:0:
320,192,209146,1,0,0:0:0:0:
192,192,209146,1,0,0:0:0:0:
192,192,209319,1,0,0:0:0:0:
64,192,209319,1,0,0:0:0:0:
320,192,209406,1,0,0:0:0:0:
448,192,209406,1,0,0:0:0:0:
192,192,209493,1,0,0:0:0:0:
64,192,209493,1,0,0:0:0:0:
320,192,209666,1,0,0:0:0:0:
448,192,209666,1,0,0:0:0:0:
192,192,209753,1,0,0:0:0:0:
64,192,209753,1,0,0:0:0:0:
448,192,209840,1,0,0:0:0:0:
320,192,209840,1,0,0:0:0:0:
192,192,209926,1,0,0:0:0:0:
64,192,209926,1,0,0:0:0:0:
320,192,210013,1,0,0:0:0:0:
448,192,210013,128,0,210360:0:0:0:0:
64,192,210186,1,0,0:0:0:0:
320,192,210360,1,0,0:0:0:0:
192,192,210360,1,0,0:0:0:0:
192,192,210533,1,0,0:0:0:0:
64,192,210533,1,0,0:0:0:0:
64,192,210620,1,0,0:0:0:0:
448,192,210707,1,0,0:0:0:0:
320,192,210707,1,0,0:0:0:0:
448,192,210793,1,0,0:0:0:0:
64,192,210880,1,0,0:0:0:0:
192,192,210880,1,0,0:0:0:0:
192,192,210967,1,0,0:0:0:0:
320,192,211053,1,0,0:0:0:0:
448,192,211053,1,0,0:0:0:0:
320,192,211140,1,0,0:0:0:0:
64,192,211227,1,0,0:0:0:0:
192,192,211227,1,0,0:0:0:0:
64,192,211314,1,0,0:0:0:0:
320,192,211400,1,0,0:0:0:0:
448,192,211400,1,0,0:0:0:0:
448,192,211487,1,0,0:0:0:0:
320,192,211487,1,0,0:0:0:0:
64,192,211574,1,0,0:0:0:0:
192,192,211574,1,0,0:0:0:0:
192,192,211660,1,0,0:0:0:0:
64,192,211660,1,0,0:0:0:0:
320,192,211747,1,0,0:0:0:0:
448,192,211747,1,0,0:0:0:0:
320,192,211921,1,0,0:0:0:0:
192,192,211921,1,0,0:0:0:0:
64,192,212094,1,0,0:0:0:0:
192,192,212094,1,0,0:0:0:0:
64,192,212267,1,0,0:0:0:0:
448,192,212267,1,0,0:0:0:0:
192,192,212441,1,0,0:0:0:0:
448,192,212441,1,0,0:0:0:0:
320,192,212614,1,0,0:0:0:0:
192,192,212614,1,0,0:0:0:0:
64,192,212788,128,0,213134:0:0:0:0:
448,192,212788,1,0,0:0:0:0:
192,192,212961,1,0,0:0:0:0:
320,192,213134,1,0,0:0:0:0:
448,192,213134,1,0,0:0:0:0:
320,192,213221,1,0,0:0:0:0:
64,192,213308,1,0,0:0:0:0:
192,192,213308,1,0,0:0:0:0:
192,192,213395,1,0,0:0:0:0:
320,192,213481,1,0,0:0:0:0:
448,192,213481,1,0,0:0:0:0:
448,192,213568,1,0,0:0:0:0:
64,192,213655,1,0,0:0:0:0:
192,192,213655,1,0,0:0:0:0:
64,192,213741,1,0,0:0:0:0:
320,192,213828,1,0,0:0:0:0:
448,192,213828,1,0,0:0:0:0:
320,192,213915,1,0,0:0:0:0:
64,192,214001,1,0,0:0:0:0:
192,192,214001,1,0,0:0:0:0:
192,192,214088,1,0,0:0:0:0:
320,192,214175,1,0,0:0:0:0:
448,192,214175,1,0,0:0:0:0:
320,192,214262,1,0,0:0:0:0:
448,192,214262,1,0,0:0:0:0:
192,192,214348,1,0,0:0:0:0:
64,192,214348,1,0,0:0:0:0:
192,192,214522,1,0,0:0:0:0:
320,192,214522,1,0,0:0:0:0:
320,192,214695,1,0,0:0:0:0:
448,192,214695,1,0,0:0:0:0:
64,192,214869,1,0,0:0:0:0:
448,192,214869,1,0,0:0:0:0:
320,192,215042,1,0,0:0:0:0:
192,192,215042,1,0,0:0:0:0:
192,192,215215,1,0,0:0:0:0:
64,192,215215,1,0,0:0:0:0:
64,192,215389,1,0,0:0:0:0:
192,192,215389,1,0,0:0:0:0:
320,192,215562,1,0,0:0:0:0:
448,192,215562,1,0,0:0:0:0:
192,192,215649,1,0,0:0:0:0:
64,192,215736,1,0,0:0:0:0:
448,192,215736,1,0,0:0:0:0:
320,192,215822,1,0,0:0:0:0:
192,192,215909,1,0,0:0:0:0:
64,192,215909,1,0,0:0:0:0:
448,192,215996,1,0,0:0:0:0:
320,192,216082,1,0,0:0:0:0:
192,192,216082,1,0,0:0:0:0:
64,192,216169,1,0,0:0:0:0:
192,192,216256,1,0,0:0:0:0:
448,192,216256,1,0,0:0:0:0:
320,192,216343,1,0,0:0:0:0:
64,192,216429,1,0,0:0:0:0:
192,192,216429,1,0,0:0:0:0:
448,192,216516,1,0,0:0:0:0:
320,192,216603,1,0,0:0:0:0:
192,192,216603,1,0,0:0:0:0:
64,192,216689,1,0,0:0:0:0:
192,192,216776,1,0,0:0:0:0:
448,192,216776,1,0,0:0:0:0:
320,192,216863,1,0,0:0:0:0:
64,192,216949,1,0,0:0:0:0:
192,192,216949,1,0,0:0:0:0:
448,192,217036,1,0,0:0:0:0:
192,192,217123,1,0,0:0:0:0:
64,192,217123,1,0,0:0:0:0:
320,192,217210,1,0,0:0:0:0:
448,192,217296,1,0,0:0:0:0:
192,192,217296,1,0,0:0:0:0:
64,192,217383,1,0,0:0:0:0:
320,192,217470,1,0,0:0:0:0:
448,192,217470,1,0,0:0:0:0:
64,192,217556,1,0,0:0:0:0:
192,192,217643,1,0,0:0:0:0:
320,192,217643,1,0,0:0:0:0:
448,192,217730,1,0,0:0:0:0:
192,192,217817,1,0,0:0:0:0:
64,192,217817,1,0,0:0:0:0:
320,192,217903,1,0,0:0:0:0:
448,192,217990,1,0,0:0:0:0:
64,192,217990,1,0,0:0:0:0:
192,192,218077,1,0,0:0:0:0:
320,192,218163,1,0,0:0:0:0:
64,192,218163,1,0,0:0:0:0:
448,192,218250,1,0,0:0:0:0:
192,192,218337,1,0,0:0:0:0:
64,192,218337,1,0,0:0:0:0:
320,192,218423,1,0,0:0:0:0:
448,192,218510,1,0,0:0:0:0:
64,192,218510,1,0,0:0:0:0:
192,192,218597,1,0,0:0:0:0:
320,192,218684,1,0,0:0:0:0:
448,192,218684,1,0,0:0:0:0:
64,192,218770,1,0,0:0:0:0:
192,192,218857,1,0,0:0:0:0:
320,192,218857,1,0,0:0:0:0:
448,192,218944,1,0,0:0:0:0:
192,192,219030,1,0,0:0:0:0:
64,192,219030,1,0,0:0:0:0:
320,192,219117,1,0,0:0:0:0:
64,192,219204,1,0,0:0:0:0:
192,192,219204,1,0,0:0:0:0:
448,192,219290,1,0,0:0:0:0:
320,192,219377,1,0,0:0:0:0:
192,192,219377,1,0,0:0:0:0:
64,192,219464,1,0,0:0:0:0:
192,192,219551,1,0,0:0:0:0:
448,192,219551,1,0,0:0:0:0:
320,192,219637,1,0,0:0:0:0:
192,192,219724,1,0,0:0:0:0:
64,192,219724,1,0,0:0:0:0:
320,192,219811,1,0,0:0:0:0:
448,192,219811,1,0,0:0:0:0:
64,192,219897,1,0,0:0:0:0:
192,192,219897,1,0,0:0:0:0:
320,192,219984,1,0,0:0:0:0:
448,192,219984,1,0,0:0:0:0:
64,192,220071,1,0,0:0:0:0:
192,192,220071,1,0,0:0:0:0:
320,192,220158,1,0,0:0:0:0:
448,192,220158,1,0,0:0:0:0:
64,192,220244,1,0,0:0:0:0:
192,192,220244,1,0,0:0:0:0:
320,192,220331,1,0,0:0:0:0:
448,192,220331,1,0,0:0:0:0:
64,192,220418,1,0,0:0:0:0:
192,192,220461,1,0,0:0:0:0:
320,192,220504,1,0,0:0:0:0:
448,192,220548,1,0,0:0:0:0:
192,192,220591,1,0,0:0:0:0:
64,192,220591,1,0,0:0:0:0:
320,192,220678,1,0,0:0:0:0:
448,192,220678,1,0,0:0:0:0:
192,192,220764,1,0,0:0:0:0:
64,192,220764,1,0,0:0:0:0:
448,192,220851,1,0,0:0:0:0:
320,192,220851,1,0,0:0:0:0:
192,192,220938,1,0,0:0:0:0:
64,192,220938,1,0,0:0:0:0:
320,192,221025,1,0,0:0:0:0:
448,192,221025,1,0,0:0:0:0:
64,192,221111,1,0,0:0:0:0:
192,192,221111,128,0,221458:0:0:0:0:
448,192,221458,128,0,221805:0:0:0:0:
320,192,221805,128,0,221921:0:0:0:0:
192,192,221921,128,0,222036:0:0:0:0:
64,192,222036,128,0,222152:0:0:0:0:
320,192,222152,128,0,222267:0:0:0:0:
192,192,222267,128,0,222383:0:0:0:0:
64,192,222383,128,0,222499:0:0:0:0:
448,192,222499,1,0,0:0:0:0:
320,192,222499,1,0,0:0:0:0:
192,192,222730,128,0,222845:0:0:0:0:
320,192,222845,128,0,222961:0:0:0:0:
448,192,222961,128,0,223077:0:0:0:0:
192,192,223077,128,0,223192:0:0:0:0:
64,192,223192,128,0,223308:0:0:0:0:
320,192,223308,128,0,223423:0:0:0:0:
192,192,223423,128,0,223539:0:0:0:0:
448,192,223539,128,0,223655:0:0:0:0:
320,192,223655,128,0,223770:0:0:0:0:
64,192,223770,128,0,223886:0:0:0:0:
320,192,223886,1,0,0:0:0:0:
192,192,223886,128,0,224341:0:0:0:0:
320,192,224233,1,0,0:0:0:0:
448,192,224406,1,0,0:0:0:0:
320,192,224493,1,0,0:0:0:0:
192,192,224580,1,0,0:0:0:0:
64,192,224580,1,0,0:0:0:0:
64,192,224695,1,0,0:0:0:0:
192,192,224695,1,0,0:0:0:0:
64,192,224811,1,0,0:0:0:0:
192,192,224811,1,0,0:0:0:0:
320,192,224926,1,0,0:0:0:0:
448,192,224926,1,0,0:0:0:0:
448,192,225100,1,0,0:0:0:0:
320,192,225100,1,0,0:0:0:0:
64,192,225273,1,0,0:0:0:0:
192,192,225273,1,0,0:0:0:0:
320,192,225360,1,0,0:0:0:0:
448,192,225447,1,0,0:0:0:0:
320,192,225533,1,0,0:0:0:0:
64,192,225620,1,0,0:0:0:0:
192,192,225663,1,0,0:0:0:0:
320,192,225707,1,0,0:0:0:0:
448,192,225750,1,0,0:0:0:0:
64,192,225793,1,0,0:0:0:0:
192,192,225837,1,0,0:0:0:0:
448,192,225880,1,0,0:0:0:0:
64,192,225923,1,0,0:0:0:0:
320,192,225967,1,0,0:0:0:0:
448,192,226010,1,0,0:0:0:0:
64,192,226053,1,0,0:0:0:0:
192,192,226097,1,0,0:0:0:0:
320,192,226140,1,0,0:0:0:0:
64,192,226184,1,0,0:0:0:0:
192,192,226227,1,0,0:0:0:0:
320,192,226270,1,0,0:0:0:0:
448,192,226314,128,0,226660:0:0:0:0:
64,192,226314,128,0,226660:0:0:0:0:
320,192,226660,1,0,0:0:0:0:
192,192,226660,128,0,227007:0:0:0:0:
448,192,227007,1,0,0:0:0:0:
320,192,227007,1,0,0:0:0:0:
320,192,227123,1,0,0:0:0:0:
448,192,227123,1,0,0:0:0:0:
320,192,227238,1,0,0:0:0:0:
448,192,227238,1,0,0:0:0:0:
64,192,227354,1,0,0:0:0:0:
192,192,227354,1,0,0:0:0:0:
192,192,227470,1,0,0:0:0:0:
64,192,227470,1,0,0:0:0:0:
64,192,227585,1,0,0:0:0:0:
192,192,227585,1,0,0:0:0:0:
320,192,227701,128,0,228048:0:0:0:0:
448,192,228048,1,0,0:0:0:0:
192,192,228048,1,0,0:0:0:0:
64,192,228048,1,0,0:0:0:0:
64,192,228163,1,0,0:0:0:0:
192,192,228163,1,0,0:0:0:0:
64,192,228279,1,0,0:0:0:0:
192,192,228279,1,0,0:0:0:0:
448,192,228395,1,0,0:0:0:0:
64,192,228481,1,0,0:0:0:0:
448,192,228568,1,0,0:0:0:0:
64,192,228655,1,0,0:0:0:0:
192,192,228741,128,0,228828:0:0:0:0:
320,192,228741,128,0,228828:0:0:0:0:
192,192,228915,128,0,229001:0:0:0:0:
320,192,228915,128,0,229001:0:0:0:0:
64,192,229088,128,0,229435:0:0:0:0:
448,192,229088,128,0,229435:0:0:0:0:
192,192,229435,128,0,229522:0:0:0:0:
320,192,229435,128,0,229522:0:0:0:0:
192,192,229608,128,0,229695:0:0:0:0:
320,192,229608,128,0,229695:0:0:0:0:
192,192,229782,128,0,229869:0:0:0:0:
320,192,229782,128,0,229869:0:0:0:0:
192,192,229955,128,0,230042:0:0:0:0:
320,192,229955,128,0,230042:0:0:0:0:
64,192,230129,128,0,230215:0:0:0:0:
192,192,230129,128,0,230215:0:0:0:0:
64,192,230302,128,0,230389:0:0:0:0:
192,192,230302,128,0,230389:0:0:0:0:
320,192,230475,128,0,230562:0:0:0:0:
448,192,230475,128,0,230562:0:0:0:0:
448,192,230649,128,0,230736:0:0:0:0:
320,192,230649,128,0,230736:0:0:0:0:
64,192,230822,1,0,0:0:0:0:
192,192,230822,1,0,0:0:0:0:
320,192,230909,1,0,0:0:0:0:
448,192,230909,1,0,0:0:0:0:
192,192,230996,1,0,0:0:0:0:
64,192,230996,1,0,0:0:0:0:
320,192,231082,1,0,0:0:0:0:
448,192,231082,1,0,0:0:0:0:
64,192,231169,1,0,0:0:0:0:
192,192,231169,128,0,231343:0:0:0:0:
448,192,231343,128,0,231516:0:0:0:0:
320,192,231343,1,0,0:0:0:0:
64,192,231516,1,0,0:0:0:0:
192,192,231516,128,0,231689:0:0:0:0:
320,192,231689,128,0,231863:0:0:0:0:
448,192,231689,1,0,0:0:0:0:
64,192,231863,1,0,0:0:0:0:
448,192,231863,128,0,232036:0:0:0:0:
320,192,232036,1,0,0:0:0:0:
192,192,232036,128,0,232210:0:0:0:0:
64,192,232210,1,0,0:0:0:0:
448,192,232210,1,0,0:0:0:0:
320,192,232383,1,0,0:0:0:0:
192,192,232383,1,0,0:0:0:0:
448,192,232470,1,0,0:0:0:0:
64,192,232470,1,0,0:0:0:0:
320,192,232556,128,0,232643:0:0:0:0:
192,192,232556,128,0,232643:0:0:0:0:
192,192,232730,128,0,232817:0:0:0:0:
320,192,232730,128,0,232817:0:0:0:0:
320,192,232903,128,0,232990:0:0:0:0:
192,192,232903,128,0,232990:0:0:0:0:
192,192,233077,128,0,233163:0:0:0:0:
320,192,233077,128,0,233163:0:0:0:0:
192,192,233250,128,0,233597:0:0:0:0:
448,192,233250,1,0,0:0:0:0:
320,192,233597,128,0,233684:0:0:0:0:
64,192,233597,128,0,233684:0:0:0:0:
320,192,233770,128,0,233857:0:0:0:0:
64,192,233770,128,0,233857:0:0:0:0:
448,192,233944,128,0,234059:0:0:0:0:
64,192,233944,128,0,234059:0:0:0:0:
448,192,234175,128,0,234290:0:0:0:0:
64,192,234175,128,0,234290:0:0:0:0:
448,192,234406,128,0,234522:0:0:0:0:
64,192,234406,128,0,234522:0:0:0:0:
320,192,234637,1,0,0:0:0:0:
192,192,234724,1,0,0:0:0:0:
320,192,234811,1,0,0:0:0:0:
192,192,234897,1,0,0:0:0:0:
64,192,234984,1,0,0:0:0:0:
448,192,234984,1,0,0:0:0:0:
320,192,235071,1,0,0:0:0:0:
192,192,235158,1,0,0:0:0:0:
64,192,235244,1,0,0:0:0:0:
320,192,235331,1,0,0:0:0:0:
448,192,235331,1,0,0:0:0:0:
448,192,235447,1,0,0:0:0:0:
320,192,235447,1,0,0:0:0:0:
448,192,235562,1,0,0:0:0:0:
320,192,235562,1,0,0:0:0:0:
192,192,235678,1,0,0:0:0:0:
64,192,235678,1,0,0:0:0:0:
64,192,235793,1,0,0:0:0:0:
192,192,235793,1,0,0:0:0:0:
64,192,235909,1,0,0:0:0:0:
192,192,235909,1,0,0:0:0:0:
448,192,236025,1,0,0:0:0:0:
320,192,236090,1,0,0:0:0:0:
192,192,236133,1,0,0:0:0:0:
448,192,236198,1,0,0:0:0:0:
320,192,236263,1,0,0:0:0:0:
64,192,236306,1,0,0:0:0:0:
192,192,236371,1,0,0:0:0:0:
448,192,236371,1,0,0:0:0:0:
320,192,236429,1,0,0:0:0:0:
64,192,236487,1,0,0:0:0:0:
192,192,236545,1,0,0:0:0:0:
448,192,236603,1,0,0:0:0:0:
320,192,236660,1,0,0:0:0:0:
64,192,236718,1,0,0:0:0:0:
192,192,236762,1,0,0:0:0:0:
320,192,236805,1,0,0:0:0:0:
448,192,236848,1,0,0:0:0:0:
64,192,236892,1,0,0:0:0:0:
192,192,236935,1,0,0:0:0:0:
320,192,236978,1,0,0:0:0:0:
64,192,237022,1,0,0:0:0:0:
192,192,237065,1,0,0:0:0:0:
448,192,237108,1,0,0:0:0:0:
64,192,237152,1,0,0:0:0:0:
320,192,237195,1,0,0:0:0:0:
448,192,237238,1,0,0:0:0:0:
192,192,237282,1,0,0:0:0:0:
64,192,237325,1,0,0:0:0:0:
448,192,237369,1,0,0:0:0:0:
192,192,237412,128,0,237759:0:0:0:0:
320,192,237412,128,0,237759:0:0:0:0:
64,192,237759,1,0,0:0:0:0:
448,192,237759,1,0,0:0:0:0:
192,192,237874,1,0,0:0:0:0:
320,192,237874,1,0,0:0:0:0:
64,192,237990,1,0,0:0:0:0:
448,192,237990,1,0,0:0:0:0:
64,192,238106,1,0,0:0:0:0:
192,192,238106,1,0,0:0:0:0:
448,192,238221,1,0,0:0:0:0:
320,192,238221,1,0,0:0:0:0:
192,192,238337,1,0,0:0:0:0:
64,192,238337,1,0,0:0:0:0:
320,192,238452,128,0,238539:0:0:0:0:
448,192,238452,128,0,238539:0:0:0:0:
320,192,238626,128,0,238712:0:0:0:0:
448,192,238626,128,0,238712:0:0:0:0:
64,192,238799,1,0,0:0:0:0:
192,192,238799,1,0,0:0:0:0:
320,192,238886,1,0,0:0:0:0:
448,192,238886,1,0,0:0:0:0:
64,192,239059,1,0,0:0:0:0:
320,192,239059,1,0,0:0:0:0:
192,192,239146,1,0,0:0:0:0:
448,192,239146,1,0,0:0:0:0:
320,192,239146,1,0,0:0:0:0:
192,192,239233,1,0,0:0:0:0:
64,192,239233,1,0,0:0:0:0:
448,192,239319,1,0,0:0:0:0:
320,192,239319,1,0,0:0:0:0:
64,192,239493,1,0,0:0:0:0:
192,192,239493,1,0,0:0:0:0:
320,192,239580,1,0,0:0:0:0:
448,192,239580,1,0,0:0:0:0:
192,192,239753,1,0,0:0:0:0:
64,192,239753,1,0,0:0:0:0:
64,192,239840,1,0,0:0:0:0:
320,192,239840,128,0,239926:0:0:0:0:
64,192,240013,1,0,0:0:0:0:
320,192,240013,128,0,240100:0:0:0:0:
320,192,240186,128,0,240273:0:0:0:0:
64,192,240186,1,0,0:0:0:0:
320,192,240360,128,0,240447:0:0:0:0:
64,192,240360,1,0,0:0:0:0:
64,192,240533,1,0,0:0:0:0:
448,192,240533,128,0,240620:0:0:0:0:
64,192,240707,1,0,0:0:0:0:
448,192,240707,128,0,240793:0:0:0:0:
64,192,240880,1,0,0:0:0:0:
448,192,240880,128,0,240967:0:0:0:0:
448,192,241053,128,0,241140:0:0:0:0:
64,192,241053,1,0,0:0:0:0:
320,192,241227,1,0,0:0:0:0:
192,192,241270,1,0,0:0:0:0:
64,192,241314,1,0,0:0:0:0:
448,192,241357,1,0,0:0:0:0:
320,192,241400,1,0,0:0:0:0:
192,192,241444,1,0,0:0:0:0:
448,192,241487,1,0,0:0:0:0:
320,192,241530,1,0,0:0:0:0:
64,192,241574,1,0,0:0:0:0:
448,192,241617,1,0,0:0:0:0:
192,192,241660,1,0,0:0:0:0:
64,192,241704,1,0,0:0:0:0:
320,192,241747,1,0,0:0:0:0:
192,192,241790,1,0,0:0:0:0:
448,192,241834,1,0,0:0:0:0:
320,192,241877,1,0,0:0:0:0:
192,192,241921,1,0,0:0:0:0:
64,192,241921,1,0,0:0:0:0:
64,192,242007,1,0,0:0:0:0:
192,192,242007,1,0,0:0:0:0:
320,192,242094,1,0,0:0:0:0:
448,192,242094,1,0,0:0:0:0:
320,192,242267,1,0,0:0:0:0:
192,192,242267,1,0,0:0:0:0:
64,192,242441,1,0,0:0:0:0:
448,192,242441,1,0,0:0:0:0:
320,192,242614,1,0,0:0:0:0:
64,192,242614,1,0,0:0:0:0:
192,192,242788,1,0,0:0:0:0:
320,192,242788,1,0,0:0:0:0:
64,192,242961,1,0,0:0:0:0:
192,192,242961,1,0,0:0:0:0:
320,192,243134,1,0,0:0:0:0:
448,192,243134,1,0,0:0:0:0:
64,192,243308,1,0,0:0:0:0:
192,192,243308,128,0,243655:0:0:0:0:
64,192,243655,1,0,0:0:0:0:
448,192,243655,1,0,0:0:0:0:
64,192,243828,1,0,0:0:0:0:
448,192,243828,1,0,0:0:0:0:
192,192,244001,1,0,0:0:0:0:
448,192,244001,1,0,0:0:0:0:
320,192,244117,1,0,0:0:0:0:
192,192,244117,1,0,0:0:0:0:
320,192,244233,1,0,0:0:0:0:
64,192,244233,1,0,0:0:0:0:
64,192,244348,1,0,0:0:0:0:
448,192,244348,1,0,0:0:0:0:
448,192,244464,1,0,0:0:0:0:
192,192,244464,1,0,0:0:0:0:
192,192,244580,1,0,0:0:0:0:
64,192,244580,1,0,0:0:0:0:
64,192,244695,1,0,0:0:0:0:
320,192,244695,1,0,0:0:0:0:
448,192,244811,1,0,0:0:0:0:
320,192,244811,1,0,0:0:0:0:
448,192,244926,1,0,0:0:0:0:
64,192,244926,1,0,0:0:0:0:
320,192,245042,1,0,0:0:0:0:
64,192,245042,1,0,0:0:0:0:
192,192,245158,1,0,0:0:0:0:
320,192,245158,1,0,0:0:0:0:
192,192,245273,1,0,0:0:0:0:
448,192,245273,1,0,0:0:0:0:
64,192,245389,128,0,245736:0:0:0:0:
448,192,245389,1,0,0:0:0:0:
320,192,245736,128,0,245822:0:0:0:0:
448,192,245736,128,0,245822:0:0:0:0:
320,192,245909,128,0,245996:0:0:0:0:
448,192,245909,128,0,245996:0:0:0:0:
192,192,246082,1,0,0:0:0:0:
64,192,246082,1,0,0:0:0:0:
448,192,246198,1,0,0:0:0:0:
320,192,246198,1,0,0:0:0:0:
192,192,246314,1,0,0:0:0:0:
64,192,246314,1,0,0:0:0:0:
320,192,246429,1,0,0:0:0:0:
448,192,246429,128,0,246776:0:0:0:0:
64,192,246776,1,0,0:0:0:0:
192,192,246776,1,0,0:0:0:0:
192,192,246863,1,0,0:0:0:0:
448,192,246949,1,0,0:0:0:0:
320,192,246949,1,0,0:0:0:0:
320,192,247036,1,0,0:0:0:0:
192,192,247123,1,0,0:0:0:0:
64,192,247123,1,0,0:0:0:0:
192,192,247210,1,0,0:0:0:0:
448,192,247296,1,0,0:0:0:0:
320,192,247296,1,0,0:0:0:0:
320,192,247383,1,0,0:0:0:0:
192,192,247470,1,0,0:0:0:0:
64,192,247470,1,0,0:0:0:0:
448,192,247585,1,0,0:0:0:0:
320,192,247585,1,0,0:0:0:0:
192,192,247701,1,0,0:0:0:0:
64,192,247701,1,0,0:0:0:0:
448,192,247817,1,0,0:0:0:0:
320,192,247817,128,0,248163:0:0:0:0:
192,192,248163,1,0,0:0:0:0:
64,192,248163,1,0,0:0:0:0:
448,192,248337,1,0,0:0:0:0:
320,192,248337,1,0,0:0:0:0:
192,192,248423,1,0,0:0:0:0:
64,192,248423,1,0,0:0:0:0:
448,192,248510,1,0,0:0:0:0:
320,192,248510,128,0,248857:0:0:0:0:
192,192,248857,1,0,0:0:0:0:
64,192,248857,128,0,249204:0:0:0:0:
448,192,249204,1,0,0:0:0:0:
192,192,249204,128,0,249290:0:0:0:0:
192,192,249377,128,0,249464:0:0:0:0:
448,192,249377,1,0,0:0:0:0:
192,192,249551,128,0,249637:0:0:0:0:
448,192,249551,1,0,0:0:0:0:
192,192,249724,128,0,249811:0:0:0:0:
448,192,249724,1,0,0:0:0:0:
64,192,249897,1,0,0:0:0:0:
320,192,249897,1,0,0:0:0:0:
192,192,250013,1,0,0:0:0:0:
448,192,250013,1,0,0:0:0:0:
64,192,250129,1,0,0:0:0:0:
320,192,250129,1,0,0:0:0:0:
192,192,250244,1,0,0:0:0:0:
448,192,250244,1,0,0:0:0:0:
320,192,250360,1,0,0:0:0:0:
64,192,250360,1,0,0:0:0:0:
192,192,250475,1,0,0:0:0:0:
448,192,250475,1,0,0:0:0:0:
64,192,250591,1,0,0:0:0:0:
320,192,250591,128,0,250938:0:0:0:0:
64,192,250938,1,0,0:0:0:0:
192,192,250938,1,0,0:0:0:0:
448,192,251053,1,0,0:0:0:0:
320,192,251053,1,0,0:0:0:0:
192,192,251169,1,0,0:0:0:0:
64,192,251169,1,0,0:0:0:0:
320,192,251285,1,0,0:0:0:0:
448,192,251285,128,0,251632:0:0:0:0:
320,192,251632,1,0,0:0:0:0:
64,192,251632,128,0,251718:0:0:0:0:
64,192,251805,128,0,251892:0:0:0:0:
320,192,251805,1,0,0:0:0:0:
64,192,251978,128,0,252065:0:0:0:0:
320,192,251978,1,0,0:0:0:0:
64,192,252152,128,0,252238:0:0:0:0:
320,192,252152,1,0,0:0:0:0:
192,192,252325,1,0,0:0:0:0:
448,192,252325,128,0,252412:0:0:0:0:
448,192,252499,128,0,252585:0:0:0:0:
192,192,252499,1,0,0:0:0:0:
448,192,252672,128,0,252759:0:0:0:0:
192,192,252672,1,0,0:0:0:0:
448,192,252845,128,0,252932:0:0:0:0:
192,192,252845,1,0,0:0:0:0:
192,192,253019,1,0,0:0:0:0:
320,192,253019,1,0,0:0:0:0:
64,192,253106,1,0,0:0:0:0:
448,192,253106,1,0,0:0:0:0:
192,192,253192,1,0,0:0:0:0:
320,192,253192,1,0,0:0:0:0:
448,192,253279,1,0,0:0:0:0:
64,192,253279,1,0,0:0:0:0:
192,192,253366,1,0,0:0:0:0:
320,192,253366,1,0,0:0:0:0:
448,192,253539,1,0,0:0:0:0:
192,192,253539,1,0,0:0:0:0:
320,192,253712,1,0,0:0:0:0:
64,192,253712,1,0,0:0:0:0:
448,192,253886,1,0,0:0:0:0:
64,192,253886,1,0,0:0:0:0:
192,192,254059,1,0,0:0:0:0:
448,192,254059,1,0,0:0:0:0:
320,192,254233,1,0,0:0:0:0:
192,192,254233,1,0,0:0:0:0:
320,192,254406,1,0,0:0:0:0:
448,192,254406,1,0,0:0:0:0:
64,192,254580,1,0,0:0:0:0:
192,192,254580,1,0,0:0:0:0:
320,192,254637,1,0,0:0:0:0:
448,192,254695,1,0,0:0:0:0:
320,192,254753,1,0,0:0:0:0:
192,192,254753,1,0,0:0:0:0:
320,192,254869,1,0,0:0:0:0:
192,192,254869,1,0,0:0:0:0:
320,192,254984,1,0,0:0:0:0:
192,192,254984,1,0,0:0:0:0:
64,192,255100,1,0,0:0:0:0:
448,192,255100,1,0,0:0:0:0:
448,192,255215,1,0,0:0:0:0:
64,192,255215,1,0,0:0:0:0:
64,192,255331,1,0,0:0:0:0:
448,192,255331,1,0,0:0:0:0:
192,192,255447,128,0,255793:0:0:0:0:
320,192,255447,1,0,0:0:0:0:
320,192,255793,1,0,0:0:0:0:
448,192,255793,1,0,0:0:0:0:
320,192,255909,1,0,0:0:0:0:
448,192,255909,1,0,0:0:0:0:
320,192,256025,1,0,0:0:0:0:
448,192,256025,1,0,0:0:0:0:
64,192,256140,1,0,0:0:0:0:
192,192,256140,128,0,256249:0:0:0:0:
192,192,256371,128,0,256487:0:0:0:0:
64,192,256371,1,0,0:0:0:0:
192,192,256603,128,0,256718:0:0:0:0:
64,192,256603,1,0,0:0:0:0:
320,192,256834,1,0,0:0:0:0:
448,192,256834,1,0,0:0:0:0:
192,192,256921,1,0,0:0:0:0:
64,192,256921,1,0,0:0:0:0:
448,192,257007,1,0,0:0:0:0:
320,192,257007,1,0,0:0:0:0:
64,192,257094,1,0,0:0:0:0:
192,192,257094,1,0,0:0:0:0:
320,192,257181,1,0,0:0:0:0:
448,192,257181,1,0,0:0:0:0:
64,192,257267,1,0,0:0:0:0:
192,192,257354,1,0,0:0:0:0:
320,192,257354,1,0,0:0:0:0:
448,192,257441,1,0,0:0:0:0:
64,192,257527,1,0,0:0:0:0:
192,192,257527,128,0,257614:0:0:0:0:
192,192,257701,128,0,257788:0:0:0:0:
64,192,257701,1,0,0:0:0:0:
192,192,257874,128,0,257961:0:0:0:0:
64,192,257874,1,0,0:0:0:0:
192,192,258048,128,0,258134:0:0:0:0:
64,192,258048,1,0,0:0:0:0:
448,192,258221,1,0,0:0:0:0:
320,192,258279,1,0,0:0:0:0:
192,192,258337,1,0,0:0:0:0:
448,192,258395,1,0,0:0:0:0:
320,192,258452,1,0,0:0:0:0:
192,192,258510,1,0,0:0:0:0:
448,192,258568,128,0,258655:0:0:0:0:
64,192,258568,128,0,258655:0:0:0:0:
448,192,258741,128,0,258828:0:0:0:0:
64,192,258741,128,0,258828:0:0:0:0:
320,192,258915,1,0,0:0:0:0:
192,192,258958,1,0,0:0:0:0:
448,192,259001,1,0,0:0:0:0:
320,192,259045,1,0,0:0:0:0:
64,192,259088,1,0,0:0:0:0:
192,192,259132,1,0,0:0:0:0:
320,192,259175,1,0,0:0:0:0:
448,192,259218,1,0,0:0:0:0:
64,192,259262,1,0,0:0:0:0:
192,192,259305,1,0,0:0:0:0:
320,192,259348,1,0,0:0:0:0:
64,192,259392,1,0,0:0:0:0:
192,192,259435,1,0,0:0:0:0:
448,192,259478,1,0,0:0:0:0:
320,192,259522,1,0,0:0:0:0:
192,192,259565,1,0,0:0:0:0:
448,192,259608,128,0,259955:0:0:0:0:
64,192,259608,128,0,259955:0:0:0:0:
192,192,259955,1,0,0:0:0:0:
320,192,259955,1,0,0:0:0:0:
320,192,260071,1,0,0:0:0:0:
192,192,260071,1,0,0:0:0:0:
192,192,260186,1,0,0:0:0:0:
320,192,260186,1,0,0:0:0:0:
64,192,260302,1,0,0:0:0:0:
448,192,260302,1,0,0:0:0:0:
448,192,260418,1,0,0:0:0:0:
64,192,260418,1,0,0:0:0:0:
448,192,260533,1,0,0:0:0:0:
64,192,260533,1,0,0:0:0:0:
320,192,260649,1,0,0:0:0:0:
192,192,260649,128,0,260996:0:0:0:0:
448,192,260996,1,0,0:0:0:0:
320,192,260996,1,0,0:0:0:0:
320,192,261082,1,0,0:0:0:0:
448,192,261082,1,0,0:0:0:0:
64,192,261256,1,0,0:0:0:0:
192,192,261256,1,0,0:0:0:0:
448,192,261343,1,0,0:0:0:0:
192,192,261343,1,0,0:0:0:0:
320,192,261343,1,0,0:0:0:0:
64,192,261429,1,0,0:0:0:0:
320,192,261429,1,0,0:0:0:0:
192,192,261516,1,0,0:0:0:0:
448,192,261516,1,0,0:0:0:0:
192,192,261689,1,0,0:0:0:0:
64,192,261689,1,0,0:0:0:0:
320,192,261776,1,0,0:0:0:0:
448,192,261776,1,0,0:0:0:0:
64,192,261949,1,0,0:0:0:0:
192,192,261949,1,0,0:0:0:0:
448,192,262036,1,0,0:0:0:0:
320,192,262036,128,0,262123:0:0:0:0:
320,192,262210,128,0,262296:0:0:0:0:
448,192,262210,1,0,0:0:0:0:
320,192,262383,128,0,262470:0:0:0:0:
448,192,262383,1,0,0:0:0:0:
320,192,262556,128,0,262643:0:0:0:0:
448,192,262556,1,0,0:0:0:0:
64,192,262730,1,0,0:0:0:0:
192,192,262730,1,0,0:0:0:0:
64,192,262845,1,0,0:0:0:0:
192,192,262845,1,0,0:0:0:0:
64,192,262961,1,0,0:0:0:0:
192,192,262961,1,0,0:0:0:0:
320,192,263077,1,0,0:0:0:0:
448,192,263077,1,0,0:0:0:0:
320,192,263192,1,0,0:0:0:0:
448,192,263192,1,0,0:0:0:0:
448,192,263308,1,0,0:0:0:0:
320,192,263308,1,0,0:0:0:0:
192,192,263423,1,0,0:0:0:0:
64,192,263467,1,0,0:0:0:0:
448,192,263510,1,0,0:0:0:0:
320,192,263553,1,0,0:0:0:0:
192,192,263597,1,0,0:0:0:0:
64,192,263640,1,0,0:0:0:0:
448,192,263684,1,0,0:0:0:0:
320,192,263727,1,0,0:0:0:0:
64,192,263770,1,0,0:0:0:0:
448,192,263814,1,0,0:0:0:0:
192,192,263857,1,0,0:0:0:0:
64,192,263900,1,0,0:0:0:0:
448,192,263944,1,0,0:0:0:0:
320,192,263987,1,0,0:0:0:0:
64,192,264030,1,0,0:0:0:0:
192,192,264074,1,0,0:0:0:0:
320,192,264117,1,0,0:0:0:0:
448,192,264117,1,0,0:0:0:0:
64,192,264290,128,0,264811:0:0:0:0:
192,192,264464,1,0,0:0:0:0:
320,192,264464,1,0,0:0:0:0:
192,192,264811,1,0,0:0:0:0:
448,192,264811,1,0,0:0:0:0:
320,192,264984,128,0,265504:0:0:0:0:
64,192,265158,1,0,0:0:0:0:
448,192,265158,1,0,0:0:0:0:
64,192,265504,1,0,0:0:0:0:
192,192,265504,128,0,266111:0:0:0:0:
320,192,265678,1,0,0:0:0:0:
448,192,265851,128,0,265938:0:0:0:0:
448,192,266025,128,0,266111:0:0:0:0:
320,192,266198,1,0,0:0:0:0:
64,192,266198,1,0,0:0:0:0:
192,192,266314,1,0,0:0:0:0:
320,192,266429,1,0,0:0:0:0:
448,192,266429,1,0,0:0:0:0:
192,192,266545,1,0,0:0:0:0:
64,192,266545,1,0,0:0:0:0:
448,192,266660,1,0,0:0:0:0:
320,192,266776,1,0,0:0:0:0:
192,192,266776,1,0,0:0:0:0:
64,192,266892,1,0,0:0:0:0:
448,192,266892,1,0,0:0:0:0:
192,192,267007,1,0,0:0:0:0:
320,192,267007,1,0,0:0:0:0:
320,192,267123,1,0,0:0:0:0:
448,192,267123,1,0,0:0:0:0:
64,192,267238,1,0,0:0:0:0:
192,192,267238,1,0,0:0:0:0:
448,192,267354,1,0,0:0:0:0:
320,192,267354,1,0,0:0:0:0:
448,192,267470,1,0,0:0:0:0:
320,192,267470,1,0,0:0:0:0:
320,192,267585,1,0,0:0:0:0:
448,192,267585,1,0,0:0:0:0:
64,192,267701,1,0,0:0:0:0:
192,192,267701,1,0,0:0:0:0:
320,192,267817,1,0,0:0:0:0:
448,192,267817,1,0,0:0:0:0:
320,192,267932,1,0,0:0:0:0:
192,192,267932,1,0,0:0:0:0:
64,192,268048,1,0,0:0:0:0:
320,192,268048,1,0,0:0:0:0:
64,192,268163,1,0,0:0:0:0:
192,192,268163,1,0,0:0:0:0:
448,192,268279,1,0,0:0:0:0:
320,192,268279,128,0,268626:0:0:0:0:
64,192,268626,1,0,0:0:0:0:
192,192,268626,1,0,0:0:0:0:
320,192,268799,1,0,0:0:0:0:
448,192,268799,1,0,0:0:0:0:
192,192,268886,1,0,0:0:0:0:
64,192,268886,1,0,0:0:0:0:
320,192,268973,1,0,0:0:0:0:
448,192,268973,1,0,0:0:0:0:
448,192,269088,1,0,0:0:0:0:
320,192,269088,1,0,0:0:0:0:
448,192,269204,1,0,0:0:0:0:
320,192,269204,1,0,0:0:0:0:
64,192,269319,1,0,0:0:0:0:
192,192,269319,1,0,0:0:0:0:
64,192,269493,1,0,0:0:0:0:
192,192,269493,1,0,0:0:0:0:
320,192,269666,1,0,0:0:0:0:
192,192,269666,1,0,0:0:0:0:
448,192,269753,1,0,0:0:0:0:
320,192,269840,1,0,0:0:0:0:
192,192,269840,1,0,0:0:0:0:
64,192,269926,1,0,0:0:0:0:
448,192,270013,1,0,0:0:0:0:
320,192,270013,1,0,0:0:0:0:
192,192,270056,1,0,0:0:0:0:
64,192,270100,1,0,0:0:0:0:
320,192,270143,1,0,0:0:0:0:
192,192,270186,1,0,0:0:0:0:
64,192,270230,1,0,0:0:0:0:
320,192,270273,1,0,0:0:0:0:
448,192,270317,1,0,0:0:0:0:
192,192,270360,1,0,0:0:0:0:
320,192,270403,1,0,0:0:0:0:
64,192,270447,1,0,0:0:0:0:
192,192,270490,1,0,0:0:0:0:
448,192,270533,128,0,270707:0:0:0:0:
320,192,270533,1,0,0:0:0:0:
320,192,270707,1,0,0:0:0:0:
192,192,270707,128,0,271053:0:0:0:0:
448,192,271053,1,0,0:0:0:0:
64,192,271053,128,0,271400:0:0:0:0:
448,192,271400,1,0,0:0:0:0:
320,192,271400,1,0,0:0:0:0:
448,192,271516,1,0,0:0:0:0:
320,192,271516,1,0,0:0:0:0:
192,192,271632,1,0,0:0:0:0:
64,192,271632,1,0,0:0:0:0:
320,192,271747,1,0,0:0:0:0:
448,192,271747,1,0,0:0:0:0:
64,192,271863,1,0,0:0:0:0:
192,192,271863,1,0,0:0:0:0:
64,192,271978,1,0,0:0:0:0:
192,192,271978,1,0,0:0:0:0:
448,192,272094,128,0,272441:0:0:0:0:
64,192,272094,1,0,0:0:0:0:
320,192,272441,1,0,0:0:0:0:
192,192,272441,1,0,0:0:0:0:
448,192,272556,1,0,0:0:0:0:
64,192,272556,1,0,0:0:0:0:
320,192,272672,1,0,0:0:0:0:
64,192,272788,1,0,0:0:0:0:
192,192,272788,1,0,0:0:0:0:
320,192,272874,1,0,0:0:0:0:
448,192,272874,1,0,0:0:0:0:
192,192,272961,1,0,0:0:0:0:
64,192,272961,1,0,0:0:0:0:
320,192,273048,1,0,0:0:0:0:
448,192,273048,1,0,0:0:0:0:
64,192,273134,128,0,273221:0:0:0:0:
192,192,273134,1,0,0:0:0:0:
64,192,273308,128,0,273395:0:0:0:0:
192,192,273308,1,0,0:0:0:0:
320,192,273481,128,0,273828:0:0:0:0:
448,192,273481,1,0,0:0:0:0:
64,192,273828,1,0,0:0:0:0:
192,192,273828,128,0,273915:0:0:0:0:
192,192,274001,128,0,274088:0:0:0:0:
448,192,274001,1,0,0:0:0:0:
192,192,274175,128,0,274262:0:0:0:0:
448,192,274175,1,0,0:0:0:0:
192,192,274348,128,0,274435:0:0:0:0:
448,192,274348,1,0,0:0:0:0:
64,192,274522,1,0,0:0:0:0:
320,192,274522,1,0,0:0:0:0:
448,192,274565,1,0,0:0:0:0:
192,192,274608,1,0,0:0:0:0:
320,192,274652,1,0,0:0:0:0:
64,192,274695,1,0,0:0:0:0:
192,192,274738,1,0,0:0:0:0:
448,192,274782,1,0,0:0:0:0:
320,192,274825,1,0,0:0:0:0:
192,192,274869,1,0,0:0:0:0:
64,192,274912,1,0,0:0:0:0:
448,192,274912,1,0,0:0:0:0:
320,192,274955,1,0,0:0:0:0:
192,192,274999,1,0,0:0:0:0:
448,192,275042,1,0,0:0:0:0:
320,192,275085,1,0,0:0:0:0:
64,192,275129,1,0,0:0:0:0:
192,192,275172,1,0,0:0:0:0:
320,192,275215,1,0,0:0:0:0:
448,192,275215,1,0,0:0:0:0:
192,192,275302,1,0,0:0:0:0:
64,192,275302,1,0,0:0:0:0:
320,192,275389,1,0,0:0:0:0:
448,192,275389,1,0,0:0:0:0:
192,192,275475,1,0,0:0:0:0:
64,192,275475,1,0,0:0:0:0:
448,192,275562,1,0,0:0:0:0:
320,192,275562,128,0,275736:0:0:0:0:
192,192,275736,1,0,0:0:0:0:
448,192,275736,128,0,275909:0:0:0:0:
192,192,275909,1,0,0:0:0:0:
64,192,275909,128,0,276082:0:0:0:0:
448,192,276082,1,0,0:0:0:0:
320,192,276082,128,0,276256:0:0:0:0:
448,192,276256,1,0,0:0:0:0:
192,192,276256,128,0,276429:0:0:0:0:
320,192,276429,1,0,0:0:0:0:
64,192,276429,128,0,276603:0:0:0:0:
320,192,276603,1,0,0:0:0:0:
192,192,276603,128,0,276776:0:0:0:0:
448,192,276776,1,0,0:0:0:0:
320,192,276776,1,0,0:0:0:0:
192,192,276863,1,0,0:0:0:0:
64,192,276863,1,0,0:0:0:0:
448,192,276949,1,0,0:0:0:0:
320,192,276949,128,0,277036:0:0:0:0:
192,192,277123,128,0,277210:0:0:0:0:
64,192,277123,1,0,0:0:0:0:
64,192,277296,1,0,0:0:0:0:
192,192,277296,128,0,277383:0:0:0:0:
64,192,277470,1,0,0:0:0:0:
192,192,277470,128,0,277556:0:0:0:0:
448,192,277470,1,0,0:0:0:0:
64,192,277643,1,0,0:0:0:0:
320,192,277643,128,0,277903:0:0:0:0:
192,192,277990,1,0,0:0:0:0:
448,192,277990,128,0,278077:0:0:0:0:
192,192,278163,1,0,0:0:0:0:
448,192,278163,128,0,278250:0:0:0:0:
64,192,278337,1,0,0:0:0:0:
320,192,278337,128,0,278452:0:0:0:0:
64,192,278568,1,0,0:0:0:0:
320,192,278568,128,0,278684:0:0:0:0:
64,192,278799,1,0,0:0:0:0:
192,192,278799,1,0,0:0:0:0:
320,192,278799,128,0,278915:0:0:0:0:
192,192,279030,1,0,0:0:0:0:
448,192,279030,1,0,0:0:0:0:
320,192,279117,1,0,0:0:0:0:
64,192,279117,1,0,0:0:0:0:
192,192,279204,1,0,0:0:0:0:
448,192,279204,1,0,0:0:0:0:
320,192,279290,1,0,0:0:0:0:
192,192,279377,1,0,0:0:0:0:
64,192,279377,1,0,0:0:0:0:
320,192,279464,1,0,0:0:0:0:
448,192,279464,1,0,0:0:0:0:
192,192,279551,1,0,0:0:0:0:
64,192,279551,1,0,0:0:0:0:
448,192,279637,1,0,0:0:0:0:
320,192,279637,1,0,0:0:0:0:
192,192,279724,1,0,0:0:0:0:
64,192,279724,1,0,0:0:0:0:
64,192,279840,1,0,0:0:0:0:
192,192,279840,1,0,0:0:0:0:
64,192,279955,1,0,0:0:0:0:
192,192,279955,1,0,0:0:0:0:
320,192,280071,1,0,0:0:0:0:
448,192,280071,1,0,0:0:0:0:
320,192,280186,1,0,0:0:0:0:
448,192,280186,1,0,0:0:0:0:
320,192,280302,1,0,0:0:0:0:
448,192,280302,1,0,0:0:0:0:
64,192,280418,1,0,0:0:0:0:
192,192,280418,128,0,280764:0:0:0:0:
320,192,280764,1,0,0:0:0:0:
320,192,280880,1,0,0:0:0:0:
320,192,280996,1,0,0:0:0:0:
64,192,281111,1,0,0:0:0:0:
192,192,281111,1,0,0:0:0:0:
448,192,281155,1,0,0:0:0:0:
320,192,281198,1,0,0:0:0:0:
192,192,281241,1,0,0:0:0:0:
448,192,281285,1,0,0:0:0:0:
320,192,281328,1,0,0:0:0:0:
64,192,281371,1,0,0:0:0:0:
192,192,281415,1,0,0:0:0:0:
320,192,281458,1,0,0:0:0:0:
448,192,281501,1,0,0:0:0:0:
64,192,281545,1,0,0:0:0:0:
192,192,281588,1,0,0:0:0:0:
448,192,281632,1,0,0:0:0:0:
64,192,281675,1,0,0:0:0:0:
192,192,281718,1,0,0:0:0:0:
320,192,281762,1,0,0:0:0:0:
448,192,281805,128,0,282152:0:0:0:0:
64,192,281805,1,0,0:0:0:0:
192,192,282152,1,0,0:0:0:0:
64,192,282152,1,0,0:0:0:0:
64,192,282267,1,0,0:0:0:0:
192,192,282267,1,0,0:0:0:0:
64,192,282383,1,0,0:0:0:0:
192,192,282383,1,0,0:0:0:0:
320,192,282499,1,0,0:0:0:0:
448,192,282499,1,0,0:0:0:0:
320,192,282614,1,0,0:0:0:0:
448,192,282614,1,0,0:0:0:0:
320,192,282730,1,0,0:0:0:0:
448,192,282730,1,0,0:0:0:0:
64,192,282845,1,0,0:0:0:0:
192,192,282845,128,0,282932:0:0:0:0:
448,192,283019,1,0,0:0:0:0:
320,192,283019,128,0,283106:0:0:0:0:
64,192,283192,1,0,0:0:0:0:
192,192,283192,1,0,0:0:0:0:
320,192,283301,1,0,0:0:0:0:
448,192,283301,1,0,0:0:0:0:
192,192,283452,1,0,0:0:0:0:
448,192,283452,1,0,0:0:0:0:
64,192,283539,1,0,0:0:0:0:
320,192,283539,1,0,0:0:0:0:
448,192,283539,1,0,0:0:0:0:
64,192,283626,1,0,0:0:0:0:
192,192,283626,1,0,0:0:0:0:
320,192,283712,1,0,0:0:0:0:
448,192,283712,1,0,0:0:0:0:
64,192,283886,1,0,0:0:0:0:
192,192,283886,128,0,283973:0:0:0:0:
320,192,283973,1,0,0:0:0:0:
64,192,284059,1,0,0:0:0:0:
448,192,284059,1,0,0:0:0:0:
320,192,284146,1,0,0:0:0:0:
192,192,284146,1,0,0:0:0:0:
448,192,284233,1,0,0:0:0:0:
64,192,284233,128,0,284319:0:0:0:0:
64,192,284406,1,0,0:0:0:0:
448,192,284406,128,0,284493:0:0:0:0:
192,192,284580,1,0,0:0:0:0:
320,192,284580,128,0,284666:0:0:0:0:
192,192,284753,1,0,0:0:0:0:
320,192,284753,128,0,284840:0:0:0:0:
192,192,284926,1,0,0:0:0:0:
64,192,284926,128,0,285013:0:0:0:0:
192,192,285100,1,0,0:0:0:0:
64,192,285100,128,0,285186:0:0:0:0:
192,192,285273,1,0,0:0:0:0:
64,192,285273,128,0,285360:0:0:0:0:
192,192,285447,1,0,0:0:0:0:
64,192,285447,128,0,285533:0:0:0:0:
448,192,285620,1,0,0:0:0:0:
320,192,285663,1,0,0:0:0:0:
192,192,285707,1,0,0:0:0:0:
448,192,285750,1,0,0:0:0:0:
320,192,285793,1,0,0:0:0:0:
192,192,285837,1,0,0:0:0:0:
64,192,285880,1,0,0:0:0:0:
320,192,285923,1,0,0:0:0:0:
192,192,285967,1,0,0:0:0:0:
64,192,286010,1,0,0:0:0:0:
448,192,286053,1,0,0:0:0:0:
320,192,286097,1,0,0:0:0:0:
192,192,286140,1,0,0:0:0:0:
64,192,286184,1,0,0:0:0:0:
320,192,286227,1,0,0:0:0:0:
192,192,286270,1,0,0:0:0:0:
64,192,286314,1,0,0:0:0:0:
448,192,286314,1,0,0:0:0:0:
192,192,286400,1,0,0:0:0:0:
320,192,286400,1,0,0:0:0:0:
64,192,286487,1,0,0:0:0:0:
448,192,286487,128,0,286660:0:0:0:0:
192,192,286660,1,0,0:0:0:0:
64,192,286660,128,0,286834:0:0:0:0:
448,192,286834,1,0,0:0:0:0:
320,192,286834,128,0,287007:0:0:0:0:
192,192,287007,1,0,0:0:0:0:
64,192,287007,128,0,287181:0:0:0:0:
320,192,287181,1,0,0:0:0:0:
192,192,287181,128,0,287354:0:0:0:0:
448,192,287354,1,0,0:0:0:0:
320,192,287354,128,0,287527:0:0:0:0:
64,192,287527,1,0,0:0:0:0:
192,192,287527,128,0,287701:0:0:0:0:
320,192,287701,1,0,0:0:0:0:
448,192,287701,128,0,287874:0:0:0:0:
64,192,287874,1,0,0:0:0:0:
192,192,287874,128,0,288048:0:0:0:0:
448,192,288048,1,0,0:0:0:0:
320,192,288048,128,0,288134:0:0:0:0:
320,192,288221,128,0,288308:0:0:0:0:
64,192,288395,1,0,0:0:0:0:
448,192,288395,1,0,0:0:0:0:
192,192,288510,1,0,0:0:0:0:
448,192,288510,1,0,0:0:0:0:
192,192,288626,1,0,0:0:0:0:
320,192,288626,1,0,0:0:0:0:
320,192,288741,1,0,0:0:0:0:
64,192,288741,1,0,0:0:0:0:
192,192,288857,1,0,0:0:0:0:
64,192,288857,1,0,0:0:0:0:
192,192,288973,1,0,0:0:0:0:
448,192,288973,1,0,0:0:0:0:
448,192,289088,1,0,0:0:0:0:
320,192,289088,1,0,0:0:0:0:
320,192,289204,1,0,0:0:0:0:
64,192,289204,1,0,0:0:0:0:
64,192,289319,1,0,0:0:0:0:
192,192,289319,1,0,0:0:0:0:
192,192,289435,1,0,0:0:0:0:
320,192,289435,1,0,0:0:0:0:
448,192,289551,1,0,0:0:0:0:
320,192,289551,1,0,0:0:0:0:
192,192,289666,1,0,0:0:0:0:
448,192,289666,1,0,0:0:0:0:
64,192,289782,1,0,0:0:0:0:
320,192,289782,128,0,289869:0:0:0:0:
64,192,289955,1,0,0:0:0:0:
320,192,289955,128,0,290042:0:0:0:0:
192,192,290129,128,0,290215:0:0:0:0:
448,192,290129,1,0,0:0:0:0:
192,192,290302,128,0,290389:0:0:0:0:
448,192,290302,1,0,0:0:0:0:
320,192,290475,1,0,0:0:0:0:
448,192,290475,1,0,0:0:0:0:
320,192,290591,1,0,0:0:0:0:
448,192,290591,1,0,0:0:0:0:
320,192,290707,1,0,0:0:0:0:
448,192,290707,1,0,0:0:0:0:
64,192,290822,128,0,291169:0:0:0:0:
192,192,290822,1,0,0:0:0:0:
448,192,291169,1,0,0:0:0:0:
320,192,291169,1,0,0:0:0:0:
320,192,291256,1,0,0:0:0:0:
192,192,291343,1,0,0:0:0:0:
64,192,291343,1,0,0:0:0:0:
192,192,291429,1,0,0:0:0:0:
320,192,291516,1,0,0:0:0:0:
448,192,291516,1,0,0:0:0:0:
320,192,291603,1,0,0:0:0:0:
192,192,291689,1,0,0:0:0:0:
64,192,291689,1,0,0:0:0:0:
192,192,291776,1,0,0:0:0:0:
448,192,291863,1,0,0:0:0:0:
320,192,291863,1,0,0:0:0:0:
448,192,291978,1,0,0:0:0:0:
320,192,291978,1,0,0:0:0:0:
448,192,292094,1,0,0:0:0:0:
320,192,292094,1,0,0:0:0:0:
64,192,292210,1,0,0:0:0:0:
192,192,292253,1,0,0:0:0:0:
320,192,292296,1,0,0:0:0:0:
64,192,292340,1,0,0:0:0:0:
192,192,292383,1,0,0:0:0:0:
448,192,292426,1,0,0:0:0:0:
64,192,292470,1,0,0:0:0:0:
320,192,292513,1,0,0:0:0:0:
448,192,292556,1,0,0:0:0:0:
192,192,292600,1,0,0:0:0:0:
320,192,292643,1,0,0:0:0:0:
64,192,292686,1,0,0:0:0:0:
192,192,292730,1,0,0:0:0:0:
448,192,292773,1,0,0:0:0:0:
64,192,292817,1,0,0:0:0:0:
192,192,292860,1,0,0:0:0:0:
448,192,292903,1,0,0:0:0:0:
320,192,292903,128,0,293250:0:0:0:0:
192,192,293250,1,0,0:0:0:0:
64,192,293250,128,0,293597:0:0:0:0:
192,192,293597,1,0,0:0:0:0:
448,192,293597,128,0,293684:0:0:0:0:
192,192,293770,1,0,0:0:0:0:
448,192,293770,128,0,293857:0:0:0:0:
192,192,293944,1,0,0:0:0:0:
448,192,293944,128,0,294030:0:0:0:0:
192,192,294117,1,0,0:0:0:0:
448,192,294117,128,0,294204:0:0:0:0:
320,192,294290,1,0,0:0:0:0:
192,192,294290,1,0,0:0:0:0:
192,192,294406,1,0,0:0:0:0:
320,192,294406,1,0,0:0:0:0:
192,192,294522,1,0,0:0:0:0:
320,192,294522,1,0,0:0:0:0:
448,192,294637,1,0,0:0:0:0:
64,192,294637,1,0,0:0:0:0:
64,192,294753,1,0,0:0:0:0:
448,192,294753,1,0,0:0:0:0:
448,192,294869,1,0,0:0:0:0:
64,192,294869,1,0,0:0:0:0:
192,192,294984,1,0,0:0:0:0:
320,192,294984,128,0,295331:0:0:0:0:
192,192,295331,1,0,0:0:0:0:
64,192,295331,1,0,0:0:0:0:
64,192,295447,1,0,0:0:0:0:
192,192,295447,1,0,0:0:0:0:
192,192,295562,1,0,0:0:0:0:
64,192,295562,1,0,0:0:0:0:
64,192,295678,1,0,0:0:0:0:
320,192,295678,128,0,296025:0:0:0:0:
192,192,296025,128,0,296111:0:0:0:0:
64,192,296025,1,0,0:0:0:0:
192,192,296198,128,0,296285:0:0:0:0:
64,192,296198,1,0,0:0:0:0:
320,192,296371,128,0,296458:0:0:0:0:
448,192,296371,1,0,0:0:0:0:
320,192,296545,128,0,296632:0:0:0:0:
448,192,296545,1,0,0:0:0:0:
448,192,296718,1,0,0:0:0:0:
320,192,296762,1,0,0:0:0:0:
192,192,296805,1,0,0:0:0:0:
64,192,296848,1,0,0:0:0:0:
448,192,296892,1,0,0:0:0:0:
192,192,296935,1,0,0:0:0:0:
64,192,296978,1,0,0:0:0:0:
320,192,297022,1,0,0:0:0:0:
448,192,297065,1,0,0:0:0:0:
192,192,297108,1,0,0:0:0:0:
320,192,297152,1,0,0:0:0:0:
64,192,297195,1,0,0:0:0:0:
192,192,297238,1,0,0:0:0:0:
320,192,297282,1,0,0:0:0:0:
64,192,297325,1,0,0:0:0:0:
192,192,297369,1,0,0:0:0:0:
320,192,297412,1,0,0:0:0:0:
448,192,297412,1,0,0:0:0:0:
192,192,297499,1,0,0:0:0:0:
64,192,297499,1,0,0:0:0:0:
320,192,297585,1,0,0:0:0:0:
448,192,297585,1,0,0:0:0:0:
192,192,297672,1,0,0:0:0:0:
64,192,297672,1,0,0:0:0:0:
320,192,297759,1,0,0:0:0:0:
448,192,297759,128,0,297932:0:0:0:0:
192,192,297932,1,0,0:0:0:0:
320,192,297932,128,0,298106:0:0:0:0:
192,192,298106,1,0,0:0:0:0:
64,192,298106,128,0,298279:0:0:0:0:
448,192,298279,1,0,0:0:0:0:
320,192,298279,128,0,298452:0:0:0:0:
192,192,298452,1,0,0:0:0:0:
448,192,298452,128,0,298626:0:0:0:0:
320,192,298626,1,0,0:0:0:0:
192,192,298626,128,0,298799:0:0:0:0:
448,192,298799,5,0,0:0:0:0:
320,192,298799,1,0,0:0:0:0:
64,192,298886,1,0,0:0:0:0:
192,192,298886,1,0,0:0:0:0:
320,192,298973,1,0,0:0:0:0:
448,192,298973,1,0,0:0:0:0:
192,192,299059,1,0,0:0:0:0:
64,192,299059,1,0,0:0:0:0:
448,192,299146,1,0,0:0:0:0:
320,192,299146,1,0,0:0:0:0:
448,192,299262,1,0,0:0:0:0:
320,192,299262,1,0,0:0:0:0:
448,192,299377,1,0,0:0:0:0:
320,192,299377,1,0,0:0:0:0:
192,192,299493,1,0,0:0:0:0:
64,192,299493,1,0,0:0:0:0:
192,192,299608,1,0,0:0:0:0:
448,192,299608,1,0,0:0:0:0:
64,192,299608,1,0,0:0:0:0:
192,192,299724,1,0,0:0:0:0:
64,192,299724,1,0,0:0:0:0:
64,192,299840,1,0,0:0:0:0:
320,192,299840,128,0,300186:0:0:0:0:
64,192,300186,1,0,0:0:0:0:
192,192,300186,1,0,0:0:0:0:
64,192,300302,1,0,0:0:0:0:
192,192,300302,1,0,0:0:0:0:
64,192,300418,1,0,0:0:0:0:
192,192,300418,1,0,0:0:0:0:
320,192,300533,128,0,300649:0:0:0:0:
448,192,300533,1,0,0:0:0:0:
320,192,300764,128,0,300880:0:0:0:0:
448,192,300764,1,0,0:0:0:0:
64,192,300996,1,0,0:0:0:0:
448,192,300996,1,0,0:0:0:0:
320,192,300996,128,0,301111:0:0:0:0:
64,192,301227,1,0,0:0:0:0:
192,192,301227,1,0,0:0:0:0:
320,192,301314,1,0,0:0:0:0:
448,192,301314,1,0,0:0:0:0:
192,192,301400,1,0,0:0:0:0:
64,192,301400,1,0,0:0:0:0:
320,192,301487,1,0,0:0:0:0:
448,192,301487,1,0,0:0:0:0:
64,192,301574,1,0,0:0:0:0:
192,192,301574,1,0,0:0:0:0:
192,192,301660,1,0,0:0:0:0:
64,192,301660,1,0,0:0:0:0:
320,192,301747,1,0,0:0:0:0:
448,192,301747,1,0,0:0:0:0:
320,192,301834,1,0,0:0:0:0:
448,192,301834,1,0,0:0:0:0:
64,192,301921,1,0,0:0:0:0:
192,192,301921,128,0,302007:0:0:0:0:
64,192,302094,1,0,0:0:0:0:
192,192,302094,128,0,302181:0:0:0:0:
64,192,302267,1,0,0:0:0:0:
192,192,302267,128,0,302354:0:0:0:0:
448,192,302441,1,0,0:0:0:0:
64,192,302441,1,0,0:0:0:0:
192,192,302441,128,0,302527:0:0:0:0:
64,192,302614,128,0,302961:0:0:0:0:
448,192,302614,1,0,0:0:0:0:
320,192,302961,1,0,0:0:0:0:
448,192,302961,1,0,0:0:0:0:
448,192,303077,1,0,0:0:0:0:
320,192,303077,1,0,0:0:0:0:
448,192,303192,1,0,0:0:0:0:
320,192,303192,1,0,0:0:0:0:
192,192,303308,1,0,0:0:0:0:
320,192,303351,1,0,0:0:0:0:
64,192,303395,1,0,0:0:0:0:
192,192,303438,1,0,0:0:0:0:
448,192,303481,1,0,0:0:0:0:
64,192,303525,1,0,0:0:0:0:
320,192,303568,1,0,0:0:0:0:
448,192,303611,1,0,0:0:0:0:
192,192,303655,1,0,0:0:0:0:
320,192,303698,1,0,0:0:0:0:
64,192,303741,1,0,0:0:0:0:
192,192,303785,1,0,0:0:0:0:
320,192,303828,1,0,0:0:0:0:
448,192,303828,1,0,0:0:0:0:
64,192,304001,1,0,0:0:0:0:
192,192,304001,128,0,304348:0:0:0:0:
320,192,304348,1,0,0:0:0:0:
448,192,304348,1,0,0:0:0:0:
320,192,304464,1,0,0:0:0:0:
448,192,304464,1,0,0:0:0:0:
320,192,304580,1,0,0:0:0:0:
448,192,304580,1,0,0:0:0:0:
192,192,304695,1,0,0:0:0:0:
64,192,304695,1,0,0:0:0:0:
192,192,304811,1,0,0:0:0:0:
64,192,304811,1,0,0:0:0:0:
192,192,304926,1,0,0:0:0:0:
64,192,304926,1,0,0:0:0:0:
448,192,305042,1,0,0:0:0:0:
320,192,305042,128,0,305129:0:0:0:0:
64,192,305215,1,0,0:0:0:0:
192,192,305215,128,0,305302:0:0:0:0:
320,192,305389,1,0,0:0:0:0:
448,192,305389,1,0,0:0:0:0:
448,192,305562,1,0,0:0:0:0:
320,192,305562,1,0,0:0:0:0:
192,192,305649,1,0,0:0:0:0:
64,192,305649,1,0,0:0:0:0:
320,192,305736,1,0,0:0:0:0:
448,192,305736,1,0,0:0:0:0:
192,192,305736,1,0,0:0:0:0:
64,192,305822,1,0,0:0:0:0:
320,192,305822,1,0,0:0:0:0:
448,192,305909,1,0,0:0:0:0:
192,192,305909,1,0,0:0:0:0:
320,192,306082,1,0,0:0:0:0:
448,192,306082,128,0,306256:0:0:0:0:
64,192,306256,1,0,0:0:0:0:
192,192,306256,1,0,0:0:0:0:
320,192,306343,1,0,0:0:0:0:
448,192,306343,1,0,0:0:0:0:
192,192,306429,1,0,0:0:0:0:
64,192,306429,128,0,306516:0:0:0:0:
64,192,306603,1,0,0:0:0:0:
192,192,306603,128,0,306689:0:0:0:0:
320,192,306776,1,0,0:0:0:0:
448,192,306776,128,0,306863:0:0:0:0:
320,192,306949,128,0,307036:0:0:0:0:
448,192,306949,1,0,0:0:0:0:
64,192,307123,1,0,0:0:0:0:
192,192,307123,1,0,0:0:0:0:
64,192,307238,1,0,0:0:0:0:
192,192,307238,1,0,0:0:0:0:
64,192,307354,1,0,0:0:0:0:
192,192,307354,1,0,0:0:0:0:
320,192,307470,1,0,0:0:0:0:
448,192,307470,1,0,0:0:0:0:
320,192,307585,1,0,0:0:0:0:
448,192,307585,1,0,0:0:0:0:
320,192,307701,1,0,0:0:0:0:
448,192,307701,1,0,0:0:0:0:
64,192,307817,1,0,0:0:0:0:
192,192,307817,128,0,307932:0:0:0:0:
192,192,308048,128,0,308163:0:0:0:0:
64,192,308048,1,0,0:0:0:0:
64,192,308279,1,0,0:0:0:0:
192,192,308279,128,0,308395:0:0:0:0:
320,192,308510,1,0,0:0:0:0:
448,192,308510,1,0,0:0:0:0:
192,192,308597,1,0,0:0:0:0:
64,192,308640,1,0,0:0:0:0:
192,192,308770,1,0,0:0:0:0:
64,192,308814,1,0,0:0:0:0:
320,192,308857,1,0,0:0:0:0:
448,192,308857,1,0,0:0:0:0:
192,192,309030,1,0,0:0:0:0:
320,192,309117,1,0,0:0:0:0:
64,192,309204,1,0,0:0:0:0:
192,192,309247,1,0,0:0:0:0:
320,192,309290,1,0,0:0:0:0:
448,192,309334,1,0,0:0:0:0:
192,192,309377,1,0,0:0:0:0:
320,192,309421,1,0,0:0:0:0:
64,192,309464,1,0,0:0:0:0:
192,192,309507,1,0,0:0:0:0:
448,192,309551,1,0,0:0:0:0:
320,192,309551,128,0,309897:0:0:0:0:
192,192,309897,1,0,0:0:0:0:
64,192,309897,1,0,0:0:0:0:
448,192,309897,1,0,0:0:0:0:
192,192,310158,1,0,0:0:0:0:
320,192,310158,1,0,0:0:0:0:
448,192,310158,1,0,0:0:0:0:
64,192,310418,1,0,0:0:0:0:
192,192,310418,1,0,0:0:0:0:
320,192,310418,1,0,0:0:0:0:
448,192,310678,1,0,0:0:0:0:
320,192,310678,1,0,0:0:0:0:
64,192,310678,1,0,0:0:0:0:
192,192,310938,1,0,0:0:0:0:
64,192,310938,1,0,0:0:0:0:
320,192,311111,1,0,0:0:0:0:
448,192,311111,1,0,0:0:0:0:
64,192,311285,5,0,0:0:0:0:
448,192,311285,1,0,0:0:0:0:
192,192,311285,128,0,311632:0:0:0:0:
320,192,311632,1,0,0:0:0:0:
448,192,311632,1,0,0:0:0:0:
320,192,311718,1,0,0:0:0:0:
192,192,311805,1,0,0:0:0:0:
64,192,311805,1,0,0:0:0:0:
192,192,311892,1,0,0:0:0:0:
448,192,311978,1,0,0:0:0:0:
320,192,311978,1,0,0:0:0:0:
320,192,312065,1,0,0:0:0:0:
64,192,312152,1,0,0:0:0:0:
192,192,312152,1,0,0:0:0:0:
192,192,312238,1,0,0:0:0:0:
320,192,312325,1,0,0:0:0:0:
448,192,312325,1,0,0:0:0:0:
320,192,312412,1,0,0:0:0:0:
64,192,312499,1,0,0:0:0:0:
192,192,312499,1,0,0:0:0:0:
192,192,312585,1,0,0:0:0:0:
320,192,312672,1,0,0:0:0:0:
448,192,312672,1,0,0:0:0:0:
448,192,312759,1,0,0:0:0:0:
64,192,312845,1,0,0:0:0:0:
192,192,312845,1,0,0:0:0:0:
192,192,312932,1,0,0:0:0:0:
320,192,313019,1,0,0:0:0:0:
448,192,313019,1,0,0:0:0:0:
320,192,313192,1,0,0:0:0:0:
192,192,313192,1,0,0:0:0:0:
192,192,313366,1,0,0:0:0:0:
64,192,313366,1,0,0:0:0:0:
64,192,313539,1,0,0:0:0:0:
448,192,313539,1,0,0:0:0:0:
192,192,313712,1,0,0:0:0:0:
448,192,313712,1,0,0:0:0:0:
320,192,313886,1,0,0:0:0:0:
192,192,313886,1,0,0:0:0:0:
320,192,314059,1,0,0:0:0:0:
64,192,314059,128,0,314406:0:0:0:0:
320,192,314406,1,0,0:0:0:0:
448,192,314406,1,0,0:0:0:0:
448,192,314493,1,0,0:0:0:0:
192,192,314580,1,0,0:0:0:0:
64,192,314580,1,0,0:0:0:0:
64,192,314666,1,0,0:0:0:0:
320,192,314753,1,0,0:0:0:0:
448,192,314753,1,0,0:0:0:0:
448,192,314840,1,0,0:0:0:0:
192,192,314926,1,0,0:0:0:0:
64,192,314926,1,0,0:0:0:0:
64,192,315013,1,0,0:0:0:0:
320,192,315100,1,0,0:0:0:0:
448,192,315100,1,0,0:0:0:0:
448,192,315186,1,0,0:0:0:0:
192,192,315273,1,0,0:0:0:0:
64,192,315273,1,0,0:0:0:0:
64,192,315360,1,0,0:0:0:0:
448,192,315447,1,0,0:0:0:0:
320,192,315447,1,0,0:0:0:0:
320,192,315533,1,0,0:0:0:0:
192,192,315620,1,0,0:0:0:0:
64,192,315620,1,0,0:0:0:0:
320,192,315793,1,0,0:0:0:0:
448,192,315793,1,0,0:0:0:0:
320,192,315967,1,0,0:0:0:0:
192,192,315967,1,0,0:0:0:0:
192,192,316140,1,0,0:0:0:0:
64,192,316140,1,0,0:0:0:0:
64,192,316314,1,0,0:0:0:0:
448,192,316314,1,0,0:0:0:0:
320,192,316487,1,0,0:0:0:0:
448,192,316487,1,0,0:0:0:0:
320,192,316660,1,0,0:0:0:0:
192,192,316660,1,0,0:0:0:0:
64,192,316834,1,0,0:0:0:0:
448,192,316834,128,0,317181:0:0:0:0:
320,192,317181,1,0,0:0:0:0:
192,192,317181,1,0,0:0:0:0:
192,192,317354,1,0,0:0:0:0:
64,192,317354,1,0,0:0:0:0:
192,192,317441,1,0,0:0:0:0:
320,192,317527,1,0,0:0:0:0:
448,192,317527,1,0,0:0:0:0:
64,192,317701,1,0,0:0:0:0:
320,192,317701,1,0,0:0:0:0:
448,192,317788,1,0,0:0:0:0:
192,192,317788,1,0,0:0:0:0:
64,192,317961,1,0,0:0:0:0:
192,192,317961,1,0,0:0:0:0:
448,192,318048,1,0,0:0:0:0:
320,192,318048,1,0,0:0:0:0:
192,192,318134,1,0,0:0:0:0:
64,192,318134,1,0,0:0:0:0:
320,192,318221,1,0,0:0:0:0:
448,192,318221,1,0,0:0:0:0:
320,192,318308,1,0,0:0:0:0:
192,192,318395,1,0,0:0:0:0:
64,192,318395,1,0,0:0:0:0:
64,192,318481,1,0,0:0:0:0:
320,192,318568,1,0,0:0:0:0:
448,192,318568,1,0,0:0:0:0:
192,192,318741,1,0,0:0:0:0:
320,192,318741,1,0,0:0:0:0:
64,192,318915,1,0,0:0:0:0:
448,192,318915,1,0,0:0:0:0:
320,192,319088,1,0,0:0:0:0:
448,192,319088,1,0,0:0:0:0:
64,192,319262,1,0,0:0:0:0:
192,192,319262,1,0,0:0:0:0:
192,192,319435,1,0,0:0:0:0:
320,192,319435,1,0,0:0:0:0:
64,192,319608,1,0,0:0:0:0:
448,192,319608,128,0,319955:0:0:0:0:
192,192,319955,1,0,0:0:0:0:
64,192,319955,1,0,0:0:0:0:
192,192,320042,1,0,0:0:0:0:
448,192,320129,1,0,0:0:0:0:
64,192,320129,128,0,320302:0:0:0:0:
320,192,320302,1,0,0:0:0:0:
448,192,320302,1,0,0:0:0:0:
320,192,320389,1,0,0:0:0:0:
64,192,320562,1,0,0:0:0:0:
192,192,320562,1,0,0:0:0:0:
192,192,320649,1,0,0:0:0:0:
320,192,320822,1,0,0:0:0:0:
192,192,320822,1,0,0:0:0:0:
64,192,320909,1,0,0:0:0:0:
448,192,320909,1,0,0:0:0:0:
192,192,320996,1,0,0:0:0:0:
320,192,320996,1,0,0:0:0:0:
320,192,321082,1,0,0:0:0:0:
64,192,321169,1,0,0:0:0:0:
448,192,321169,1,0,0:0:0:0:
448,192,321256,1,0,0:0:0:0:
64,192,321343,1,0,0:0:0:0:
192,192,321343,1,0,0:0:0:0:
320,192,321516,1,0,0:0:0:0:
448,192,321516,1,0,0:0:0:0:
320,192,321689,1,0,0:0:0:0:
192,192,321689,1,0,0:0:0:0:
192,192,321776,1,0,0:0:0:0:
320,192,321863,1,0,0:0:0:0:
448,192,321863,1,0,0:0:0:0:
64,192,322036,1,0,0:0:0:0:
192,192,322036,1,0,0:0:0:0:
448,192,322123,1,0,0:0:0:0:
320,192,322123,1,0,0:0:0:0:
192,192,322210,1,0,0:0:0:0:
64,192,322210,1,0,0:0:0:0:
320,192,322296,1,0,0:0:0:0:
448,192,322296,1,0,0:0:0:0:
64,192,322383,1,0,0:0:0:0:
192,192,322383,128,0,322730:0:0:0:0:
320,192,322730,1,0,0:0:0:0:
448,192,322730,1,0,0:0:0:0:
64,192,322903,1,0,0:0:0:0:
192,192,322903,1,0,0:0:0:0:
192,192,322990,1,0,0:0:0:0:
320,192,323077,1,0,0:0:0:0:
448,192,323077,1,0,0:0:0:0:
448,192,323163,1,0,0:0:0:0:
192,192,323250,1,0,0:0:0:0:
64,192,323250,1,0,0:0:0:0:
64,192,323337,1,0,0:0:0:0:
448,192,323423,1,0,0:0:0:0:
320,192,323423,1,0,0:0:0:0:
320,192,323510,1,0,0:0:0:0:
64,192,323597,1,0,0:0:0:0:
192,192,323597,1,0,0:0:0:0:
192,192,323684,1,0,0:0:0:0:
448,192,323770,1,0,0:0:0:0:
320,192,323770,1,0,0:0:0:0:
320,192,323857,1,0,0:0:0:0:
192,192,323944,1,0,0:0:0:0:
64,192,323944,1,0,0:0:0:0:
64,192,324030,1,0,0:0:0:0:
448,192,324117,1,0,0:0:0:0:
320,192,324117,1,0,0:0:0:0:
320,192,324290,1,0,0:0:0:0:
192,192,324290,1,0,0:0:0:0:
192,192,324464,1,0,0:0:0:0:
64,192,324464,1,0,0:0:0:0:
64,192,324637,1,0,0:0:0:0:
448,192,324637,1,0,0:0:0:0:
192,192,324811,1,0,0:0:0:0:
448,192,324811,1,0,0:0:0:0:
320,192,324984,1,0,0:0:0:0:
192,192,324984,1,0,0:0:0:0:
64,192,325158,128,0,325504:0:0:0:0:
448,192,325158,1,0,0:0:0:0:
320,192,325504,1,0,0:0:0:0:
448,192,325504,1,0,0:0:0:0:
448,192,325591,1,0,0:0:0:0:
192,192,325678,1,0,0:0:0:0:
64,192,325678,1,0,0:0:0:0:
192,192,325764,1,0,0:0:0:0:
320,192,325851,1,0,0:0:0:0:
448,192,325851,1,0,0:0:0:0:
448,192,325938,1,0,0:0:0:0:
64,192,326025,1,0,0:0:0:0:
192,192,326025,1,0,0:0:0:0:
192,192,326111,1,0,0:0:0:0:
448,192,326198,1,0,0:0:0:0:
320,192,326198,1,0,0:0:0:0:
448,192,326285,1,0,0:0:0:0:
192,192,326371,1,0,0:0:0:0:
64,192,326371,1,0,0:0:0:0:
192,192,326458,1,0,0:0:0:0:
448,192,326545,1,0,0:0:0:0:
320,192,326545,1,0,0:0:0:0:
320,192,326632,1,0,0:0:0:0:
64,192,326718,1,0,0:0:0:0:
192,192,326718,128,0,326805:0:0:0:0:
320,192,326892,1,0,0:0:0:0:
448,192,326892,1,0,0:0:0:0:
64,192,327065,1,0,0:0:0:0:
192,192,327065,1,0,0:0:0:0:
192,192,327238,1,0,0:0:0:0:
320,192,327238,1,0,0:0:0:0:
320,192,327412,1,0,0:0:0:0:
448,192,327412,1,0,0:0:0:0:
64,192,327585,1,0,0:0:0:0:
448,192,327585,1,0,0:0:0:0:
320,192,327759,1,0,0:0:0:0:
64,192,327759,1,0,0:0:0:0:
320,192,327932,1,0,0:0:0:0:
192,192,327932,128,0,328279:0:0:0:0:
64,192,328279,1,0,0:0:0:0:
448,192,328279,1,0,0:0:0:0:
320,192,328452,1,0,0:0:0:0:
448,192,328452,1,0,0:0:0:0:
320,192,328539,1,0,0:0:0:0:
64,192,328626,1,0,0:0:0:0:
192,192,328626,1,0,0:0:0:0:
448,192,328799,1,0,0:0:0:0:
64,192,328799,1,0,0:0:0:0:
192,192,328886,1,0,0:0:0:0:
320,192,328886,1,0,0:0:0:0:
448,192,329059,1,0,0:0:0:0:
320,192,329059,1,0,0:0:0:0:
192,192,329146,1,0,0:0:0:0:
64,192,329146,1,0,0:0:0:0:
320,192,329233,1,0,0:0:0:0:
448,192,329233,1,0,0:0:0:0:
192,192,329319,1,0,0:0:0:0:
64,192,329319,1,0,0:0:0:0:
192,192,329406,1,0,0:0:0:0:
64,192,329406,1,0,0:0:0:0:
448,192,329493,1,0,0:0:0:0:
320,192,329493,1,0,0:0:0:0:
448,192,329580,1,0,0:0:0:0:
320,192,329580,1,0,0:0:0:0:
64,192,329666,1,0,0:0:0:0:
192,192,329666,1,0,0:0:0:0:
192,192,329840,1,0,0:0:0:0:
320,192,329840,1,0,0:0:0:0:
320,192,330013,1,0,0:0:0:0:
448,192,330013,1,0,0:0:0:0:
64,192,330186,1,0,0:0:0:0:
448,192,330186,1,0,0:0:0:0:
320,192,330360,1,0,0:0:0:0:
64,192,330360,1,0,0:0:0:0:
192,192,330533,1,0,0:0:0:0:
64,192,330533,1,0,0:0:0:0:
448,192,330707,1,0,0:0:0:0:
320,192,330707,128,0,331053:0:0:0:0:
64,192,331053,1,0,0:0:0:0:
192,192,331053,1,0,0:0:0:0:
64,192,331140,1,0,0:0:0:0:
320,192,331227,1,0,0:0:0:0:
448,192,331227,1,0,0:0:0:0:
64,192,331400,1,0,0:0:0:0:
192,192,331400,1,0,0:0:0:0:
320,192,331487,1,0,0:0:0:0:
448,192,331487,1,0,0:0:0:0:
64,192,331660,1,0,0:0:0:0:
192,192,331660,1,0,0:0:0:0:
320,192,331747,1,0,0:0:0:0:
448,192,331747,1,0,0:0:0:0:
448,192,331921,1,0,0:0:0:0:
320,192,331921,1,0,0:0:0:0:
192,192,332007,1,0,0:0:0:0:
64,192,332007,1,0,0:0:0:0:
320,192,332094,1,0,0:0:0:0:
448,192,332094,1,0,0:0:0:0:
448,192,332181,1,0,0:0:0:0:
320,192,332181,1,0,0:0:0:0:
192,192,332267,1,0,0:0:0:0:
64,192,332267,1,0,0:0:0:0:
64,192,332354,1,0,0:0:0:0:
192,192,332354,1,0,0:0:0:0:
320,192,332441,1,0,0:0:0:0:
448,192,332441,1,0,0:0:0:0:
320,192,332614,1,0,0:0:0:0:
192,192,332614,1,0,0:0:0:0:
64,192,332788,1,0,0:0:0:0:
192,192,332788,1,0,0:0:0:0:
320,192,332874,1,0,0:0:0:0:
448,192,332874,1,0,0:0:0:0:
192,192,332961,1,0,0:0:0:0:
64,192,332961,1,0,0:0:0:0:
192,192,333134,1,0,0:0:0:0:
64,192,333134,1,0,0:0:0:0:
192,192,333221,1,0,0:0:0:0:
448,192,333308,1,0,0:0:0:0:
320,192,333308,1,0,0:0:0:0:
320,192,333395,1,0,0:0:0:0:
64,192,333481,1,0,0:0:0:0:
192,192,333481,128,0,333828:0:0:0:0:
320,192,333828,1,0,0:0:0:0:
448,192,333828,1,0,0:0:0:0:
64,192,334001,1,0,0:0:0:0:
192,192,334001,1,0,0:0:0:0:
192,192,334088,1,0,0:0:0:0:
320,192,334175,1,0,0:0:0:0:
448,192,334175,1,0,0:0:0:0:
448,192,334262,1,0,0:0:0:0:
64,192,334348,1,0,0:0:0:0:
192,192,334348,1,0,0:0:0:0:
192,192,334435,1,0,0:0:0:0:
320,192,334522,1,0,0:0:0:0:
448,192,334522,1,0,0:0:0:0:
448,192,334608,1,0,0:0:0:0:
192,192,334695,1,0,0:0:0:0:
64,192,334695,1,0,0:0:0:0:
64,192,334782,1,0,0:0:0:0:
448,192,334869,1,0,0:0:0:0:
320,192,334869,1,0,0:0:0:0:
320,192,334955,1,0,0:0:0:0:
64,192,335042,1,0,0:0:0:0:
192,192,335042,1,0,0:0:0:0:
64,192,335129,1,0,0:0:0:0:
320,192,335215,1,0,0:0:0:0:
448,192,335215,1,0,0:0:0:0:
64,192,335389,1,0,0:0:0:0:
448,192,335389,1,0,0:0:0:0:
192,192,335562,1,0,0:0:0:0:
64,192,335562,1,0,0:0:0:0:
320,192,335736,1,0,0:0:0:0:
448,192,335736,1,0,0:0:0:0:
448,192,335909,1,0,0:0:0:0:
192,192,335909,1,0,0:0:0:0:
192,192,336082,1,0,0:0:0:0:
320,192,336082,1,0,0:0:0:0:
320,192,336256,1,0,0:0:0:0:
64,192,336256,128,0,336603:0:0:0:0:
320,192,336603,1,0,0:0:0:0:
448,192,336603,1,0,0:0:0:0:
448,192,336689,1,0,0:0:0:0:
192,192,336776,1,0,0:0:0:0:
64,192,336776,1,0,0:0:0:0:
64,192,336863,1,0,0:0:0:0:
320,192,336949,1,0,0:0:0:0:
448,192,336949,1,0,0:0:0:0:
320,192,337036,1,0,0:0:0:0:
64,192,337123,1,0,0:0:0:0:
192,192,337123,1,0,0:0:0:0:
192,192,337210,1,0,0:0:0:0:
320,192,337296,1,0,0:0:0:0:
448,192,337296,1,0,0:0:0:0:
448,192,337383,1,0,0:0:0:0:
192,192,337470,1,0,0:0:0:0:
64,192,337470,1,0,0:0:0:0:
64,192,337556,1,0,0:0:0:0:
320,192,337643,1,0,0:0:0:0:
448,192,337643,1,0,0:0:0:0:
320,192,337730,1,0,0:0:0:0:
192,192,337817,1,0,0:0:0:0:
64,192,337817,1,0,0:0:0:0:
64,192,337903,1,0,0:0:0:0:
320,192,337990,1,0,0:0:0:0:
448,192,337990,1,0,0:0:0:0:
64,192,338163,1,0,0:0:0:0:
448,192,338163,1,0,0:0:0:0:
320,192,338337,1,0,0:0:0:0:
64,192,338337,1,0,0:0:0:0:
192,192,338510,1,0,0:0:0:0:
64,192,338510,1,0,0:0:0:0:
320,192,338684,1,0,0:0:0:0:
448,192,338684,1,0,0:0:0:0:
320,192,338857,1,0,0:0:0:0:
192,192,338857,1,0,0:0:0:0:
64,192,339030,1,0,0:0:0:0:
448,192,339030,128,0,339377:0:0:0:0:
320,192,339377,1,0,0:0:0:0:
192,192,339377,1,0,0:0:0:0:
64,192,339551,1,0,0:0:0:0:
192,192,339551,1,0,0:0:0:0:
64,192,339637,1,0,0:0:0:0:
320,192,339724,1,0,0:0:0:0:
448,192,339724,1,0,0:0:0:0:
64,192,339897,1,0,0:0:0:0:
192,192,339897,1,0,0:0:0:0:
448,192,339984,1,0,0:0:0:0:
320,192,339984,1,0,0:0:0:0:
448,192,340158,1,0,0:0:0:0:
320,192,340158,1,0,0:0:0:0:
192,192,340244,1,0,0:0:0:0:
64,192,340244,1,0,0:0:0:0:
448,192,340331,1,0,0:0:0:0:
320,192,340331,1,0,0:0:0:0:
192,192,340418,1,0,0:0:0:0:
64,192,340418,1,0,0:0:0:0:
64,192,340504,1,0,0:0:0:0:
192,192,340504,1,0,0:0:0:0:
320,192,340591,1,0,0:0:0:0:
448,192,340591,1,0,0:0:0:0:
448,192,340678,1,0,0:0:0:0:
320,192,340678,1,0,0:0:0:0:
64,192,340764,1,0,0:0:0:0:
192,192,340764,1,0,0:0:0:0:
64,192,340938,1,0,0:0:0:0:
448,192,340938,1,0,0:0:0:0:
192,192,341111,1,0,0:0:0:0:
320,192,341111,1,0,0:0:0:0:
320,192,341285,1,0,0:0:0:0:
448,192,341285,1,0,0:0:0:0:
192,192,341458,1,0,0:0:0:0:
64,192,341458,1,0,0:0:0:0:
192,192,341632,1,0,0:0:0:0:
320,192,341632,1,0,0:0:0:0:
64,192,341805,1,0,0:0:0:0:
448,192,341805,128,0,342152:0:0:0:0:
192,192,342152,1,0,0:0:0:0:
64,192,342152,1,0,0:0:0:0:
64,192,342238,1,0,0:0:0:0:
320,192,342325,1,0,0:0:0:0:
448,192,342325,1,0,0:0:0:0:
192,192,342499,1,0,0:0:0:0:
64,192,342499,1,0,0:0:0:0:
320,192,342585,1,0,0:0:0:0:
448,192,342585,1,0,0:0:0:0:
192,192,342759,1,0,0:0:0:0:
320,192,342759,1,0,0:0:0:0:
64,192,342845,1,0,0:0:0:0:
448,192,342845,1,0,0:0:0:0:
192,192,343019,1,0,0:0:0:0:
64,192,343019,1,0,0:0:0:0:
64,192,343106,1,0,0:0:0:0:
192,192,343106,1,0,0:0:0:0:
320,192,343192,1,0,0:0:0:0:
448,192,343192,1,0,0:0:0:0:
320,192,343279,1,0,0:0:0:0:
448,192,343279,1,0,0:0:0:0:
192,192,343366,1,0,0:0:0:0:
64,192,343366,1,0,0:0:0:0:
192,192,343452,1,0,0:0:0:0:
64,192,343452,1,0,0:0:0:0:
320,192,343539,1,0,0:0:0:0:
448,192,343539,1,0,0:0:0:0:
320,192,343712,1,0,0:0:0:0:
192,192,343712,1,0,0:0:0:0:
192,192,343886,1,0,0:0:0:0:
64,192,343886,1,0,0:0:0:0:
320,192,343973,1,0,0:0:0:0:
448,192,343973,1,0,0:0:0:0:
192,192,344059,1,0,0:0:0:0:
64,192,344059,1,0,0:0:0:0:
320,192,344233,1,0,0:0:0:0:
448,192,344233,1,0,0:0:0:0:
448,192,344319,1,0,0:0:0:0:
320,192,344319,1,0,0:0:0:0:
192,192,344406,1,0,0:0:0:0:
64,192,344406,1,0,0:0:0:0:
64,192,344493,1,0,0:0:0:0:
192,192,344493,1,0,0:0:0:0:
320,192,344580,1,0,0:0:0:0:
448,192,344580,128,0,344926:0:0:0:0:
192,192,344926,1,0,0:0:0:0:
64,192,344926,1,0,0:0:0:0:
320,192,345100,1,0,0:0:0:0:
448,192,345100,1,0,0:0:0:0:
320,192,345186,1,0,0:0:0:0:
192,192,345273,1,0,0:0:0:0:
64,192,345273,1,0,0:0:0:0:
192,192,345360,1,0,0:0:0:0:
320,192,345447,1,0,0:0:0:0:
448,192,345447,1,0,0:0:0:0:
448,192,345533,1,0,0:0:0:0:
192,192,345620,1,0,0:0:0:0:
64,192,345620,1,0,0:0:0:0:
64,192,345707,1,0,0:0:0:0:
320,192,345793,1,0,0:0:0:0:
448,192,345793,1,0,0:0:0:0:
320,192,345880,1,0,0:0:0:0:
64,192,345967,1,0,0:0:0:0:
192,192,345967,1,0,0:0:0:0:
192,192,346053,1,0,0:0:0:0:
320,192,346140,1,0,0:0:0:0:
448,192,346140,1,0,0:0:0:0:
448,192,346227,1,0,0:0:0:0:
64,192,346314,1,0,0:0:0:0:
192,192,346314,1,0,0:0:0:0:
64,192,346487,1,0,0:0:0:0:
448,192,346487,1,0,0:0:0:0:
320,192,346660,1,0,0:0:0:0:
192,192,346660,1,0,0:0:0:0:
320,192,346834,1,0,0:0:0:0:
448,192,346834,1,0,0:0:0:0:
64,192,347007,1,0,0:0:0:0:
448,192,347007,1,0,0:0:0:0:
320,192,347181,1,0,0:0:0:0:
192,192,347181,1,0,0:0:0:0:
64,192,347354,1,0,0:0:0:0:
320,192,347354,128,0,347701:0:0:0:0:
64,192,347701,1,0,0:0:0:0:
192,192,347701,1,0,0:0:0:0:
192,192,347788,1,0,0:0:0:0:
448,192,347874,1,0,0:0:0:0:
320,192,347874,1,0,0:0:0:0:
320,192,347961,1,0,0:0:0:0:
192,192,348048,1,0,0:0:0:0:
64,192,348048,1,0,0:0:0:0:
64,192,348134,1,0,0:0:0:0:
320,192,348221,1,0,0:0:0:0:
448,192,348221,1,0,0:0:0:0:
448,192,348308,1,0,0:0:0:0:
64,192,348395,1,0,0:0:0:0:
192,192,348395,1,0,0:0:0:0:
192,192,348481,1,0,0:0:0:0:
320,192,348568,1,0,0:0:0:0:
448,192,348568,1,0,0:0:0:0:
448,192,348655,1,0,0:0:0:0:
192,192,348741,1,0,0:0:0:0:
64,192,348741,1,0,0:0:0:0:
64,192,348828,1,0,0:0:0:0:
320,192,348915,1,0,0:0:0:0:
448,192,348915,1,0,0:0:0:0:
64,192,349088,1,0,0:0:0:0:
192,192,349088,1,0,0:0:0:0:
64,192,349262,1,0,0:0:0:0:
448,192,349262,1,0,0:0:0:0:
192,192,349435,1,0,0:0:0:0:
448,192,349435,1,0,0:0:0:0:
320,192,349608,1,0,0:0:0:0:
192,192,349608,1,0,0:0:0:0:
64,192,349782,1,0,0:0:0:0:
320,192,349782,1,0,0:0:0:0:
320,192,349955,1,0,0:0:0:0:
64,192,349955,1,0,0:0:0:0:
320,192,350129,1,0,0:0:0:0:
448,192,350129,1,0,0:0:0:0:
192,192,350215,1,0,0:0:0:0:
64,192,350302,1,0,0:0:0:0:
448,192,350302,1,0,0:0:0:0:
320,192,350389,1,0,0:0:0:0:
192,192,350475,1,0,0:0:0:0:
64,192,350475,1,0,0:0:0:0:
448,192,350562,1,0,0:0:0:0:
320,192,350649,1,0,0:0:0:0:
192,192,350649,1,0,0:0:0:0:
64,192,350736,1,0,0:0:0:0:
192,192,350822,1,0,0:0:0:0:
448,192,350822,1,0,0:0:0:0:
320,192,350909,1,0,0:0:0:0:
64,192,350996,1,0,0:0:0:0:
192,192,350996,1,0,0:0:0:0:
448,192,351082,1,0,0:0:0:0:
320,192,351169,1,0,0:0:0:0:
64,192,351169,1,0,0:0:0:0:
192,192,351256,1,0,0:0:0:0:
320,192,351343,1,0,0:0:0:0:
448,192,351343,1,0,0:0:0:0:
64,192,351429,1,0,0:0:0:0:
192,192,351516,1,0,0:0:0:0:
320,192,351516,1,0,0:0:0:0:
448,192,351603,1,0,0:0:0:0:
64,192,351689,1,0,0:0:0:0:
192,192,351689,1,0,0:0:0:0:
320,192,351776,1,0,0:0:0:0:
448,192,351863,1,0,0:0:0:0:
64,192,351863,1,0,0:0:0:0:
192,192,351949,1,0,0:0:0:0:
320,192,352036,1,0,0:0:0:0:
448,192,352036,1,0,0:0:0:0:
64,192,352123,1,0,0:0:0:0:
192,192,352210,1,0,0:0:0:0:
320,192,352210,1,0,0:0:0:0:
448,192,352296,1,0,0:0:0:0:
64,192,352383,1,0,0:0:0:0:
320,192,352383,1,0,0:0:0:0:
192,192,352470,1,0,0:0:0:0:
320,192,352556,1,0,0:0:0:0:
448,192,352556,1,0,0:0:0:0:
64,192,352643,1,0,0:0:0:0:
192,192,352730,1,0,0:0:0:0:
448,192,352730,1,0,0:0:0:0:
320,192,352817,1,0,0:0:0:0:
192,192,352903,1,0,0:0:0:0:
64,192,352903,1,0,0:0:0:0:
448,192,352990,1,0,0:0:0:0:
320,192,353077,1,0,0:0:0:0:
192,192,353077,1,0,0:0:0:0:
64,192,353163,1,0,0:0:0:0:
320,192,353250,1,0,0:0:0:0:
448,192,353250,1,0,0:0:0:0:
192,192,353337,1,0,0:0:0:0:
64,192,353337,1,0,0:0:0:0:
448,192,353423,1,0,0:0:0:0:
320,192,353423,1,0,0:0:0:0:
64,192,353510,1,0,0:0:0:0:
192,192,353597,1,0,0:0:0:0:
320,192,353597,1,0,0:0:0:0:
448,192,353684,1,0,0:0:0:0:
64,192,353684,1,0,0:0:0:0:
192,192,353770,1,0,0:0:0:0:
320,192,353770,1,0,0:0:0:0:
448,192,353857,1,0,0:0:0:0:
192,192,353944,1,0,0:0:0:0:
64,192,353944,1,0,0:0:0:0:
320,192,354030,1,0,0:0:0:0:
448,192,354030,1,0,0:0:0:0:
192,192,354117,1,0,0:0:0:0:
64,192,354117,1,0,0:0:0:0:
320,192,354204,1,0,0:0:0:0:
448,192,354204,1,0,0:0:0:0:
64,192,354290,1,0,0:0:0:0:
192,192,354290,1,0,0:0:0:0:
448,192,354377,1,0,0:0:0:0:
320,192,354377,1,0,0:0:0:0:
192,192,354464,1,0,0:0:0:0:
64,192,354464,1,0,0:0:0:0:
320,192,354551,1,0,0:0:0:0:
448,192,354551,1,0,0:0:0:0:
192,192,354637,1,0,0:0:0:0:
64,192,354637,1,0,0:0:0:0:
320,192,354724,1,0,0:0:0:0:
448,192,354724,1,0,0:0:0:0:
64,192,354811,1,0,0:0:0:0:
192,192,354811,1,0,0:0:0:0:
448,192,354897,1,0,0:0:0:0:
320,192,354897,1,0,0:0:0:0:
64,192,354984,1,0,0:0:0:0:
192,192,354984,1,0,0:0:0:0:
448,192,355071,1,0,0:0:0:0:
320,192,355071,1,0,0:0:0:0:
192,192,355158,1,0,0:0:0:0:
64,192,355158,1,0,0:0:0:0:
320,192,355244,1,0,0:0:0:0:
448,192,355244,1,0,0:0:0:0:
192,192,355331,1,0,0:0:0:0:
64,192,355331,1,0,0:0:0:0:
320,192,355418,1,0,0:0:0:0:
448,192,355418,1,0,0:0:0:0:
64,192,355504,1,0,0:0:0:0:
192,192,355504,1,0,0:0:0:0:
448,192,355591,1,0,0:0:0:0:
320,192,355591,1,0,0:0:0:0:
64,192,355678,1,0,0:0:0:0:
192,192,355678,1,0,0:0:0:0:
448,192,355764,1,0,0:0:0:0:
320,192,355764,1,0,0:0:0:0:
192,192,355851,1,0,0:0:0:0:
64,192,355851,1,0,0:0:0:0:
320,192,355938,5,0,0:0:0:0:
448,192,355938,1,0,0:0:0:0:
192,192,356025,1,0,0:0:0:0:
64,192,356025,1,0,0:0:0:0:
320,192,356111,1,0,0:0:0:0:
448,192,356111,1,0,0:0:0:0:
64,192,356198,1,0,0:0:0:0:
192,192,356198,1,0,0:0:0:0:
448,192,356285,1,0,0:0:0:0:
320,192,356285,1,0,0:0:0:0:
64,192,356371,1,0,0:0:0:0:
192,192,356415,1,0,0:0:0:0:
320,192,356458,1,0,0:0:0:0:
448,192,356501,1,0,0:0:0:0:
64,192,356545,1,0,0:0:0:0:
192,192,356588,1,0,0:0:0:0:
320,192,356632,1,0,0:0:0:0:
448,192,356632,1,0,0:0:0:0:
192,192,356718,1,0,0:0:0:0:
64,192,356718,1,0,0:0:0:0:
320,192,356805,1,0,0:0:0:0:
448,192,356805,1,0,0:0:0:0:
192,192,356892,1,0,0:0:0:0:
64,192,356892,1,0,0:0:0:0:
320,192,356978,1,0,0:0:0:0:
448,192,356978,1,0,0:0:0:0:
192,192,357065,128,0,361227:0:0:0:0:
64,192,357065,1,0,0:0:0:0:
