osu file format v14

[General]
AudioFilename: audio.mp3
AudioLeadIn: 0
PreviewTime: 93881
Countdown: 1
SampleSet: Soft
StackLeniency: 0.7
Mode: 2
LetterboxInBreaks: 0
WidescreenStoryboard: 0

[Editor]
Bookmarks: 17705,24764,162453
DistanceSpacing: 0.5
BeatDivisor: 4
GridSize: 4
TimelineZoom: 2.4

[Metadata]
Title:Brain Power Long Version
TitleUnicode:Brain Power Long Version
Artist:NOMA
ArtistUnicode:ノマ
Creator:[_-Kukkai-_]
Version:Blockbuster
Source:SOUND VOLTEX II -infinite infection-
Tags:
BeatmapID:1935750
BeatmapSetID:926770

[Difficulty]
HPDrainRate:6
CircleSize:4.2
OverallDifficulty:9.6
ApproachRate:9.6
SliderMultiplier:2
SliderTickRate:2

[Events]
//Background and Video events
0,0,"asdasdsad.PNG",0,0
//Break Periods
//Storyboard Layer 0 (Background)
//Storyboard Layer 1 (Fail)
//Storyboard Layer 2 (Pass)
//Storyboard Layer 3 (Foreground)
//Storyboard Sound Samples

[TimingPoints]
2176,352.941176470588,4,2,0,60,1,0
12411,-90.9090909090909,4,2,0,60,0,0
13470,-100,4,2,0,60,0,0
19117,-90.9090909090909,4,2,0,60,0,0
24764,-100,4,2,0,60,0,0
34999,-90.9090909090909,4,2,0,60,0,0
36058,-100,4,2,0,60,0,0
41705,-90.9090909090909,4,2,0,60,0,0
47352,-90.9090909090909,4,2,0,60,0,0
86881,350.877192982456,4,2,0,60,1,0
86881,-90.9090909090909,4,2,0,60,0,0
91091,348.837209302326,4,2,0,60,1,0
95277,346.820809248555,4,2,0,60,1,0
95277,-83.3333333333333,4,2,0,60,0,1
128571,352.941176470588,4,2,0,70,1,0
128571,-83.3333333333333,4,2,0,70,0,0
179394,350.877192982456,4,2,0,60,1,0
182201,348.837209302326,4,2,0,60,1,0
184991,346.820809248555,4,2,0,60,1,0
187765,346.820809248555,4,2,0,60,1,1
187765,-83.3333333333333,4,2,0,60,0,1
221059,-100,4,2,0,60,0,0

[HitObjects]
444,364,2176,6,0,L|448:252,1,100
216,352,2528,2,0,L|208:236,1,100
360,220,2881,2,0,L|352:100,1,100
120,344,3234,2,0,L|104:224,1,100
260,208,3587,6,0,L|280:64,1,100
40,352,3940,2,0,L|52:232,1,100
208,356,4293,2,0,L|212:248,1,100
472,352,4646,2,0,L|460:232,1,100
304,356,4999,6,0,L|300:248,1,100
52,352,5352,2,0,L|48:228,1,100
200,176,5705,2,0,L|112:104,1,100
460,352,6058,2,0,L|464:228,1,100
312,176,6411,6,0,L|400:104,1,100
156,364,6764,2,0,L|152:240,1,100
312,248,7117,2,0,L|328:120,1,100
92,88,7470,1,0,0:0:0:0:
392,96,7646,1,0,0:0:0:0:
144,368,7823,6,0,L|136:248,1,100
376,376,8175,2,0,L|392:264,1,100
240,256,8528,2,0,L|232:136,1,100
472,264,8881,2,0,L|476:148,1,100
320,136,9234,6,0,L|408:60,1,100
156,376,9587,2,0,L|140:264,1,100
292,256,9940,2,0,L|300:136,1,100
60,264,10293,2,0,L|56:148,1,100
212,136,10646,6,0,L|124:60,1,100
376,364,10999,2,0,L|364:248,1,100
212,256,11352,2,0,L|232:124,1,100
468,200,11705,2,0,L|444:88,1,100
296,128,12058,6,0,L|392:32,1,100
128,232,12411,1,0,0:0:0:0:
364,176,12587,2,0,L|396:176,2,27.5000008392334
56,104,12764,1,0,0:0:0:0:
140,100,12881,1,0,0:0:0:0:
56,104,12999,1,0,0:0:0:0:
416,360,13117,1,0,0:0:0:0:
160,300,13293,1,0,0:0:0:0:
132,296,13337,1,0,0:0:0:0:
104,296,13381,1,0,0:0:0:0:
280,216,13470,6,0,L|376:140,1,100
108,360,13823,2,0,L|12:284,1,100
184,260,14175,2,0,L|88:184,1,100
404,360,14528,2,0,L|500:284,1,100
328,260,14880,6,0,L|424:184,1,100
120,248,15234,2,0,L|72:116,1,100
236,240,15587,2,0,L|188:108,1,100
440,248,15940,2,0,L|488:116,1,100
324,240,16293,6,0,L|372:108,1,100
108,360,16646,2,0,L|12:284,1,100
184,260,16998,2,0,L|88:184,1,100
404,360,17351,2,0,L|512:360,1,100
344,268,17703,6,0,L|468:268,1,100
124,192,18058,2,0,L|4:192,1,100
200,100,18411,2,0,L|64:100,1,100
392,96,18764,1,0,0:0:0:0:
104,104,18940,1,0,0:0:0:0:
364,360,19117,6,0,L|436:360,1,55.0000016784668
476,288,19293,2,0,L|416:288,1,55.0000016784668
244,284,19470,2,0,L|220:220,1,55.0000016784668
300,176,19646,2,0,L|392:176,1,55.0000016784668
176,96,19823,1,0,0:0:0:0:
231,96,19911,1,0,0:0:0:0:
286,96,19999,1,0,0:0:0:0:
341,96,20087,1,0,0:0:0:0:
148,168,20175,2,0,L|60:168,1,55.0000016784668
36,88,20352,2,0,L|108:88,1,55.0000016784668
336,352,20528,6,0,L|396:352,1,55.0000016784668
452,284,20705,2,0,L|372:284,1,55.0000016784668
212,208,20881,1,0,0:0:0:0:
267,208,20969,1,0,0:0:0:0:
322,208,21057,1,0,0:0:0:0:
377,208,21145,1,0,0:0:0:0:
176,352,21234,6,0,L|116:352,1,55.0000016784668
56,284,21411,2,0,L|136:284,1,55.0000016784668
300,208,21587,1,0,0:0:0:0:
245,208,21675,1,0,0:0:0:0:
190,208,21763,1,0,0:0:0:0:
135,208,21851,1,0,0:0:0:0:
356,124,21940,6,0,L|416:124,1,55.0000016784668
476,64,22117,2,0,L|416:64,1,55.0000016784668
252,56,22293,1,0,0:0:0:0:
307,56,22381,1,0,0:0:0:0:
362,56,22469,1,0,0:0:0:0:
417,56,22557,1,0,0:0:0:0:
240,96,22646,5,0,0:0:0:0:
211,56,22690,1,0,0:0:0:0:
239,56,22734,1,0,0:0:0:0:
266,56,22778,1,0,0:0:0:0:
294,56,22822,1,0,0:0:0:0:
321,56,22866,1,0,0:0:0:0:
349,56,22910,1,0,0:0:0:0:
120,116,22999,2,0,L|208:116,1,55.0000016784668
360,116,23175,2,0,L|428:116,1,55.0000016784668
52,200,23352,5,0,0:0:0:0:
280,200,23617,1,0,0:0:0:0:
52,140,23881,1,0,0:0:0:0:
424,132,24146,1,0,0:0:0:0:
212,68,24411,1,0,0:0:0:0:
376,64,24587,1,0,0:0:0:0:
68,364,24764,6,0,L|64:252,1,100
296,352,25116,2,0,L|304:236,1,100
228,232,25381,1,0,0:0:0:0:
152,220,25469,2,0,L|160:100,1,100
392,344,25822,2,0,L|408:224,1,100
328,220,26087,1,0,0:0:0:0:
252,208,26175,6,0,L|232:64,1,100
472,352,26528,2,0,L|460:232,1,100
384,352,26793,1,0,0:0:0:0:
304,356,26881,2,0,L|300:248,1,100
40,352,27234,2,0,L|52:232,1,100
128,248,27499,1,0,0:0:0:0:
208,356,27587,6,0,L|212:248,1,100
460,352,27940,2,0,L|464:228,1,100
384,228,28205,1,0,0:0:0:0:
312,176,28293,2,0,L|400:104,1,100
52,352,28646,2,0,L|48:228,1,100
124,228,28911,1,0,0:0:0:0:
200,176,28999,6,0,L|112:104,1,100
356,364,29352,2,0,L|360:240,1,100
280,256,29617,1,0,0:0:0:0:
200,248,29705,2,0,L|184:120,1,100
420,88,30058,1,0,0:0:0:0:
120,96,30234,1,0,0:0:0:0:
368,368,30411,6,0,L|376:248,1,100
136,376,30763,2,0,L|120:264,1,100
196,268,31028,1,0,0:0:0:0:
272,256,31116,2,0,L|280:136,1,100
40,264,31469,2,0,L|36:148,1,100
112,152,31734,1,0,0:0:0:0:
192,136,31822,6,0,L|104:60,1,100
356,376,32175,2,0,L|372:264,1,100
292,264,32440,1,0,0:0:0:0:
220,256,32528,2,0,L|212:136,1,100
452,264,32881,2,0,L|456:148,1,100
384,156,33146,1,0,0:0:0:0:
300,136,33234,6,0,L|388:60,1,100
136,364,33587,2,0,L|148:248,1,100
224,260,33852,1,0,0:0:0:0:
300,256,33940,2,0,L|280:124,1,100
44,200,34293,2,0,L|68:88,1,100
140,148,34558,1,0,0:0:0:0:
216,128,34646,6,0,L|120:32,1,100
384,232,34999,1,0,0:0:0:0:
148,176,35175,2,0,L|116:176,2,27.5000008392334
456,104,35352,1,0,0:0:0:0:
372,100,35469,1,0,0:0:0:0:
456,104,35587,1,0,0:0:0:0:
96,360,35705,1,0,0:0:0:0:
352,300,35881,1,0,0:0:0:0:
380,296,35925,1,0,0:0:0:0:
408,296,35969,1,0,0:0:0:0:
232,216,36058,6,0,L|136:140,1,100
404,360,36411,2,0,L|500:284,1,100
404,264,36675,1,0,0:0:0:0:
328,260,36763,2,0,L|424:184,1,100
108,360,37116,2,0,L|12:284,1,100
108,264,37381,1,0,0:0:0:0:
184,260,37468,6,0,L|88:184,1,100
392,248,37822,2,0,L|440:116,1,100
352,128,38087,1,0,0:0:0:0:
276,240,38175,2,0,L|324:108,1,100
72,248,38528,2,0,L|24:116,1,100
112,128,38793,1,0,0:0:0:0:
188,240,38881,6,0,L|140:108,1,100
404,360,39234,2,0,L|500:284,1,100
404,272,39499,1,0,0:0:0:0:
328,260,39586,2,0,L|424:184,1,100
108,360,39939,2,0,L|0:360,1,100
88,296,40205,1,0,0:0:0:0:
168,268,40291,6,0,L|44:268,1,100
388,192,40646,2,0,L|508:192,1,100
400,132,40911,1,0,0:0:0:0:
312,100,40999,2,0,L|448:100,1,100
120,96,41352,1,0,0:0:0:0:
408,104,41528,1,0,0:0:0:0:
148,360,41705,6,0,L|76:360,1,55.0000016784668
36,288,41881,2,0,L|96:288,1,55.0000016784668
268,284,42058,2,0,L|292:220,1,55.0000016784668
212,176,42234,2,0,L|120:176,1,55.0000016784668
336,96,42411,1,0,0:0:0:0:
281,96,42499,1,0,0:0:0:0:
226,96,42587,1,0,0:0:0:0:
171,96,42675,1,0,0:0:0:0:
364,168,42763,2,0,L|452:168,1,55.0000016784668
476,88,42940,2,0,L|404:88,1,55.0000016784668
176,352,43116,6,0,L|116:352,1,55.0000016784668
60,284,43293,2,0,L|140:284,1,55.0000016784668
300,208,43469,1,0,0:0:0:0:
245,208,43557,1,0,0:0:0:0:
190,208,43645,1,0,0:0:0:0:
135,208,43733,1,0,0:0:0:0:
336,352,43822,6,0,L|396:352,1,55.0000016784668
456,284,43999,2,0,L|376:284,1,55.0000016784668
212,208,44175,1,0,0:0:0:0:
267,208,44263,1,0,0:0:0:0:
322,208,44351,1,0,0:0:0:0:
377,208,44439,1,0,0:0:0:0:
156,124,44528,6,0,L|96:124,1,55.0000016784668
36,64,44705,2,0,L|96:64,1,55.0000016784668
260,56,44881,1,0,0:0:0:0:
205,56,44969,1,0,0:0:0:0:
150,56,45057,1,0,0:0:0:0:
95,56,45145,1,0,0:0:0:0:
272,100,45234,5,0,0:0:0:0:
301,56,45278,1,0,0:0:0:0:
273,56,45322,1,0,0:0:0:0:
246,56,45366,1,0,0:0:0:0:
218,56,45410,1,0,0:0:0:0:
191,56,45454,1,0,0:0:0:0:
163,56,45498,1,0,0:0:0:0:
392,116,45587,2,0,L|304:116,1,55.0000016784668
152,116,45763,2,0,L|84:116,1,55.0000016784668
460,200,45940,5,0,0:0:0:0:
212,192,46205,1,0,0:0:0:0:
460,140,46469,1,0,0:0:0:0:
88,132,46734,1,0,0:0:0:0:
460,68,46999,1,0,0:0:0:0:
176,72,47175,1,0,0:0:0:0:
344,368,47352,6,0,L|344:248,1,110.000003356934
96,360,47705,2,0,P|40:324|92:252,1,165.000005035401
136,244,48058,2,0,L|324:244,1,165.000005035401
112,356,48411,2,0,L|100:240,1,110.000003356934
272,236,48764,6,0,L|284:120,1,110.000003356934
40,364,49117,2,0,L|28:248,1,110.000003356934
200,244,49470,6,0,L|112:140,1,110.000003356934
468,356,49823,2,0,L|340:356,1,110.000003356934
96,304,50175,2,0,L|232:304,1,110.000003356934
36,228,50528,2,0,L|152:228,1,110.000003356934
412,360,50881,2,0,P|464:320|388:260,1,165.000005035401
244,252,51234,2,0,P|196:204|272:128,1,165.000005035401
296,128,51587,6,0,L|452:124,1,110.000003356934
32,364,51940,2,0,L|20:236,1,110.000003356934
184,240,52293,2,0,L|280:152,1,110.000003356934
12,144,52646,1,0,0:0:0:0:
344,144,52823,1,0,0:0:0:0:
204,352,52999,6,0,L|196:232,1,110.000003356934
464,252,53352,2,0,L|480:128,1,110.000003356934
312,132,53705,2,0,L|412:60,1,110.000003356934
48,252,54058,2,0,L|32:128,1,110.000003356934
200,132,54411,6,0,L|100:60,1,110.000003356934
364,360,54764,2,0,L|464:312,1,110.000003356934
292,252,55117,2,0,L|452:252,1,110.000003356934
72,252,55470,2,0,L|48:128,1,110.000003356934
340,360,55823,6,0,P|384:328|312:268,1,165.000005035401
132,256,56175,2,0,P|76:224|128:152,1,165.000005035401
188,152,56528,2,0,L|72:152,1,110.000003356934
408,368,56881,2,0,L|420:252,1,110.000003356934
156,240,57234,1,0,0:0:0:0:
129,239,57278,1,0,0:0:0:0:
104,229,57322,1,0,0:0:0:0:
84,210,57366,1,0,0:0:0:0:
72,186,57410,1,0,0:0:0:0:
70,159,57454,1,0,0:0:0:0:
78,132,57498,1,0,0:0:0:0:
296,140,57587,6,0,L|328:140,1,18.3333338928223
160,68,57705,2,0,L|136:68,1,18.3333338928223
412,72,57823,2,0,L|440:72,1,18.3333338928223
184,360,57940,6,0,P|112:352|24:300,1,165.000005035401
296,304,58293,2,0,P|368:288|456:228,1,165.000005035401
152,296,58646,6,0,L|136:176,1,110.000003356934
400,368,58999,2,0,L|512:332,1,110.000003356934
420,292,59264,1,0,0:0:0:0:
336,280,59352,2,0,L|228:224,1,110.000003356934
296,184,59617,1,0,0:0:0:0:
128,172,59705,2,0,L|-4:172,1,110.000003356934
76,108,59970,1,0,0:0:0:0:
360,296,60058,6,0,L|376:176,1,110.000003356934
112,368,60411,2,0,L|0:332,1,110.000003356934
92,292,60676,1,0,0:0:0:0:
176,280,60764,2,0,L|272:216,1,110.000003356934
204,172,61029,1,0,0:0:0:0:
376,172,61117,2,0,L|508:172,1,110.000003356934
428,104,61382,1,0,0:0:0:0:
136,244,61470,6,0,L|8:244,2,110.000003356934
384,236,61999,1,0,0:0:0:0:
144,356,62175,2,0,L|136:216,1,110.000003356934
392,232,62528,2,0,L|400:104,1,110.000003356934
240,108,62881,6,0,L|96:108,1,110.000003356934
364,360,63234,2,0,L|496:360,1,110.000003356934
308,300,63587,2,0,L|408:244,1,110.000003356934
124,208,63940,1,0,0:0:0:0:
412,192,64117,1,0,0:0:0:0:
120,364,64293,6,0,L|96:232,1,110.000003356934
352,240,64646,2,0,L|240:200,1,110.000003356934
420,240,64999,2,0,L|440:92,1,110.000003356934
160,240,65352,2,0,L|272:200,1,110.000003356934
92,240,65705,6,0,L|72:92,1,110.000003356934
328,360,66058,2,0,L|448:336,1,110.000003356934
268,268,66411,2,0,L|120:248,1,110.000003356934
416,268,66764,2,0,L|452:140,1,110.000003356934
164,260,67117,6,0,L|120:136,1,110.000003356934
392,356,67470,2,0,L|244:356,1,110.000003356934
448,284,67823,2,0,L|328:284,1,110.000003356934
80,280,68175,2,0,L|48:148,1,110.000003356934
220,152,68528,2,0,L|76:152,1,110.000003356934
388,360,68881,2,0,L|416:240,1,110.000003356934
120,256,69234,2,0,B|40:256|40:256|120:244,1,146.666671142578
360,152,69587,2,0,L|444:152,2,73.3333355712891
88,360,69940,5,0,0:0:0:0:
60,358,69984,1,0,0:0:0:0:
38,343,70028,1,0,0:0:0:0:
25,319,70072,1,0,0:0:0:0:
25,292,70116,1,0,0:0:0:0:
39,268,70160,1,0,0:0:0:0:
63,254,70204,1,0,0:0:0:0:
90,254,70248,1,0,0:0:0:0:
120,256,70293,1,0,0:0:0:0:
147,256,70337,1,0,0:0:0:0:
175,256,70381,1,0,0:0:0:0:
202,256,70425,1,0,0:0:0:0:
230,256,70469,1,0,0:0:0:0:
257,256,70513,1,0,0:0:0:0:
285,256,70557,1,0,0:0:0:0:
96,180,70646,6,0,L|92:152,1,18.3333338928223
180,128,70764,2,0,L|184:104,1,18.3333338928223
96,180,70881,2,0,L|92:152,1,18.3333338928223
180,128,70999,2,0,L|184:104,1,18.3333338928223
48,92,71175,2,0,L|40:60,1,18.3333338928223
288,376,71352,5,0,0:0:0:0:
315,376,71396,1,0,0:0:0:0:
343,376,71440,1,0,0:0:0:0:
370,376,71484,1,0,0:0:0:0:
398,376,71528,1,0,0:0:0:0:
232,296,71617,1,0,0:0:0:0:
259,296,71661,1,0,0:0:0:0:
287,296,71705,1,0,0:0:0:0:
314,296,71749,1,0,0:0:0:0:
342,296,71793,1,0,0:0:0:0:
156,216,71881,1,0,0:0:0:0:
128,216,71925,1,0,0:0:0:0:
101,216,71969,1,0,0:0:0:0:
332,312,72058,5,0,0:0:0:0:
327,284,72102,1,0,0:0:0:0:
315,260,72146,1,0,0:0:0:0:
296,240,72190,1,0,0:0:0:0:
272,227,72234,1,0,0:0:0:0:
246,218,72278,1,0,0:0:0:0:
219,214,72322,1,0,0:0:0:0:
191,212,72366,1,0,0:0:0:0:
168,198,72410,1,0,0:0:0:0:
147,180,72455,1,0,0:0:0:0:
131,158,72499,1,0,0:0:0:0:
124,132,72543,1,0,0:0:0:0:
133,106,72587,1,0,0:0:0:0:
150,85,72631,1,0,0:0:0:0:
172,68,72675,1,0,0:0:0:0:
412,376,72764,5,0,0:0:0:0:
426,352,72808,1,0,0:0:0:0:
438,327,72852,1,0,0:0:0:0:
448,302,72896,1,0,0:0:0:0:
456,276,72940,1,0,0:0:0:0:
462,249,72984,1,0,0:0:0:0:
466,221,73028,1,0,0:0:0:0:
468,194,73072,1,0,0:0:0:0:
467,167,73116,1,0,0:0:0:0:
464,139,73161,1,0,0:0:0:0:
459,112,73205,1,0,0:0:0:0:
452,86,73249,1,0,0:0:0:0:
443,60,73293,1,0,0:0:0:0:
432,35,73337,1,0,0:0:0:0:
418,11,73381,1,0,0:0:0:0:
180,256,73470,6,0,L|144:256,1,27.5000008392334
348,176,73646,2,0,L|384:176,1,27.5000008392334
76,192,73823,2,0,L|40:192,1,27.5000008392334
132,72,73999,2,0,L|208:72,1,55.0000016784668
364,328,74175,2,0,L|484:328,1,110.000003356934
420,260,74440,1,0,0:0:0:0:
200,256,74528,6,0,L|168:256,1,27.5000008392334
372,160,74705,2,0,L|400:160,1,27.5000008392334
20,180,74881,1,0,0:0:0:0:
176,180,74970,1,0,0:0:0:0:
320,180,75058,1,0,0:0:0:0:
464,176,75146,1,0,0:0:0:0:
296,112,75234,1,0,0:0:0:0:
228,112,75323,1,0,0:0:0:0:
160,108,75411,1,0,0:0:0:0:
228,112,75499,1,0,0:0:0:0:
440,364,75587,5,0,0:0:0:0:
429,338,75631,1,0,0:0:0:0:
414,315,75675,1,0,0:0:0:0:
396,294,75719,1,0,0:0:0:0:
375,276,75763,1,0,0:0:0:0:
352,262,75807,1,0,0:0:0:0:
326,252,75851,1,0,0:0:0:0:
299,246,75895,1,0,0:0:0:0:
272,244,75939,1,0,0:0:0:0:
245,247,75984,1,0,0:0:0:0:
218,254,76028,1,0,0:0:0:0:
193,265,76072,1,0,0:0:0:0:
170,279,76116,1,0,0:0:0:0:
149,298,76160,1,0,0:0:0:0:
132,319,76204,1,0,0:0:0:0:
376,176,76293,5,0,0:0:0:0:
403,176,76337,1,0,0:0:0:0:
431,176,76381,1,0,0:0:0:0:
458,176,76425,1,0,0:0:0:0:
432,136,76469,1,0,0:0:0:0:
272,96,76558,5,0,0:0:0:0:
299,96,76602,1,0,0:0:0:0:
327,96,76646,1,0,0:0:0:0:
354,96,76690,1,0,0:0:0:0:
382,96,76734,1,0,0:0:0:0:
176,44,76823,5,0,0:0:0:0:
149,44,76867,1,0,0:0:0:0:
121,44,76911,1,0,0:0:0:0:
320,368,76999,5,0,0:0:0:0:
328,341,77043,1,0,0:0:0:0:
330,314,77087,1,0,0:0:0:0:
328,286,77131,1,0,0:0:0:0:
320,260,77175,1,0,0:0:0:0:
307,236,77219,1,0,0:0:0:0:
289,215,77263,1,0,0:0:0:0:
268,197,77307,1,0,0:0:0:0:
245,183,77351,1,0,0:0:0:0:
218,175,77396,1,0,0:0:0:0:
191,171,77440,1,0,0:0:0:0:
164,173,77484,1,0,0:0:0:0:
137,180,77528,1,0,0:0:0:0:
113,192,77572,1,0,0:0:0:0:
90,208,77616,1,0,0:0:0:0:
360,104,77705,6,0,L|448:104,2,73.3333355712891
120,364,78058,1,0,0:0:0:0:
94,354,78102,1,0,0:0:0:0:
75,334,78146,1,0,0:0:0:0:
66,308,78190,1,0,0:0:0:0:
70,281,78234,1,0,0:0:0:0:
84,258,78278,1,0,0:0:0:0:
107,243,78322,1,0,0:0:0:0:
364,360,78411,5,0,0:0:0:0:
391,360,78455,1,0,0:0:0:0:
419,360,78499,1,0,0:0:0:0:
446,360,78543,1,0,0:0:0:0:
474,360,78587,1,0,0:0:0:0:
416,292,78675,1,0,0:0:0:0:
172,304,78764,1,0,0:0:0:0:
144,280,78808,1,0,0:0:0:0:
158,250,78852,1,0,0:0:0:0:
324,224,78940,1,0,0:0:0:0:
352,200,78984,1,0,0:0:0:0:
337,170,79028,1,0,0:0:0:0:
100,352,79117,5,0,0:0:0:0:
73,343,79161,1,0,0:0:0:0:
53,326,79205,1,0,0:0:0:0:
40,302,79249,1,0,0:0:0:0:
37,274,79293,1,0,0:0:0:0:
45,248,79337,1,0,0:0:0:0:
63,227,79381,1,0,0:0:0:0:
87,214,79425,1,0,0:0:0:0:
114,212,79469,5,0,0:0:0:0:
300,200,79587,2,0,L|328:200,1,18.3333338928223
108,124,79705,2,0,L|80:124,1,18.3333338928223
396,360,79823,6,0,P|424:300|388:264,1,110.000003356934
312,252,80087,1,0,0:0:0:0:
152,252,80175,2,0,L|68:252,2,73.3333355712891
420,248,80528,2,0,L|496:248,1,55.0000016784668
420,248,80705,2,0,L|320:248,1,55.0000016784668
152,168,80881,1,0,0:0:0:0:
304,164,81058,1,0,0:0:0:0:
52,360,81234,6,0,L|44:240,1,110.000003356934
408,360,81587,2,0,L|448:252,1,110.000003356934
276,196,81940,2,0,L|396:196,1,110.000003356934
64,360,82293,2,0,L|24:252,1,110.000003356934
196,196,82646,6,0,L|76:196,1,110.000003356934
320,104,82999,2,0,L|164:104,1,110.000003356934
448,360,83352,2,0,L|476:236,1,110.000003356934
396,252,83617,1,0,0:0:0:0:
320,252,83705,1,0,0:0:0:0:
464,176,83881,1,0,0:0:0:0:
148,356,84058,6,0,L|20:356,1,110.000003356934
296,276,84411,2,0,L|308:156,1,110.000003356934
136,160,84764,2,0,L|128:36,1,110.000003356934
380,368,85117,2,0,L|496:340,1,110.000003356934
320,236,85470,6,0,L|444:236,1,110.000003356934
132,368,85823,2,0,L|16:340,1,110.000003356934
192,236,86176,2,0,L|68:236,1,110.000003356934
372,164,86528,1,0,0:0:0:0:
84,160,86705,1,0,0:0:0:0:
364,360,86881,6,0,L|488:340,1,110.000003356934
152,360,87231,2,0,L|44:340,1,110.000003356934
216,280,87582,2,0,L|248:164,1,110.000003356934
12,112,87933,2,0,L|132:112,1,110.000003356934
248,320,88284,6,0,L|104:320,1,110.000003356934
404,376,88635,2,0,L|416:240,1,110.000003356934
168,244,88986,2,0,L|136:116,1,110.000003356934
424,232,89337,2,0,L|380:112,1,110.000003356934
24,364,89688,6,0,L|24:220,1,110.000003356934
260,360,90038,2,0,L|260:220,1,110.000003356934
500,364,90389,2,0,L|500:220,1,110.000003356934
256,196,90740,2,0,L|400:196,1,110.000003356934
208,312,91091,6,0,L|208:172,1,100
480,192,91439,2,0,L|480:64,1,100
212,176,91788,2,0,L|80:160,1,100
396,104,92137,1,0,0:0:0:0:
116,104,92311,1,0,0:0:0:0:
392,360,92486,6,0,L|504:360,1,100
152,284,92835,1,0,0:0:0:0:
392,272,93009,2,0,L|392:180,1,50
168,184,93184,1,0,0:0:0:0:
143,184,93227,1,0,0:0:0:0:
118,184,93271,1,0,0:0:0:0:
93,184,93314,1,0,0:0:0:0:
68,184,93358,1,0,0:0:0:0:
120,120,93445,1,0,0:0:0:0:
304,112,93532,2,0,L|380:112,1,50
304,112,93707,2,0,L|248:112,1,50
440,352,93881,6,0,P|476:288|440:256,1,100
256,264,94143,2,0,L|144:264,1,100
328,180,94404,2,0,L|436:180,1,100
156,340,94666,2,0,P|116:288|156:252,1,100
304,240,94928,2,0,L|380:240,1,50
152,180,95102,2,0,L|88:180,1,50
312,352,95277,6,0,L|400:352,1,59.9999981689454
432,352,95450,2,0,L|356:352,1,59.9999981689454
72,252,95623,2,0,L|8:252,1,59.9999981689454
72,252,95797,2,0,L|160:252,1,59.9999981689454
408,244,95970,6,0,L|496:216,1,59.9999981689454
252,256,96144,2,0,L|176:256,1,59.9999981689454
24,172,96317,2,0,L|88:136,1,59.9999981689454
284,176,96490,2,0,L|360:128,1,59.9999981689454
92,356,96664,6,0,L|24:356,1,59.9999981689454
200,272,96837,2,0,L|108:272,1,59.9999981689454
328,260,97011,2,0,L|328:176,1,59.9999981689454
256,176,97184,2,0,L|260:88,1,59.9999981689454
332,104,97357,6,0,L|420:104,1,59.9999981689454
128,344,97531,2,0,L|124:264,1,59.9999981689454
292,264,97704,2,0,L|304:200,1,59.9999981689454
236,192,97878,2,0,L|168:192,1,59.9999981689454
360,192,98051,6,0,L|432:192,1,59.9999981689454
484,128,98224,2,0,L|404:128,1,59.9999981689454
228,372,98398,2,0,L|228:280,1,59.9999981689454
400,288,98571,2,0,L|400:200,1,59.9999981689454
168,372,98745,6,0,L|148:304,1,59.9999981689454
340,288,98918,2,0,L|320:200,1,59.9999981689454
104,376,99092,2,0,L|68:316,1,59.9999981689454
280,292,99265,2,0,L|244:232,1,59.9999981689454
44,200,99438,6,0,L|112:200,1,59.9999981689454
324,376,99612,2,0,L|324:288,1,59.9999981689454
264,236,99785,1,0,0:0:0:0:
324,236,99871,1,0,0:0:0:0:
384,236,99958,1,0,0:0:0:0:
384,236,100045,1,0,0:0:0:0:
192,368,100132,6,0,L|192:288,1,59.9999981689454
264,288,100305,2,0,L|264:220,1,59.9999981689454
80,212,100479,2,0,L|12:212,1,59.9999981689454
208,148,100652,2,0,L|320:148,1,59.9999981689454
80,96,100826,6,0,L|8:96,1,59.9999981689454
80,96,100999,2,0,L|196:96,1,59.9999981689454
356,92,101172,2,0,L|448:92,1,59.9999981689454
476,92,101346,2,0,L|416:92,1,59.9999981689454
196,360,101519,6,0,L|128:360,1,59.9999981689454
340,288,101693,1,0,0:0:0:0:
120,284,101779,2,0,L|88:196,1,59.9999981689454
340,200,101953,1,0,0:0:0:0:
84,172,102040,2,0,L|144:120,1,59.9999981689454
404,120,102213,6,0,L|484:120,1,59.9999981689454
288,48,102386,2,0,L|368:48,1,59.9999981689454
100,372,102560,2,0,L|100:288,1,59.9999981689454
168,284,102733,2,0,L|168:216,1,59.9999981689454
88,196,102907,6,0,L|76:124,1,59.9999981689454
284,204,103080,2,0,L|304:136,1,59.9999981689454
100,100,103253,2,0,L|32:100,1,59.9999981689454
100,100,103427,2,0,L|184:100,1,59.9999981689454
416,360,103600,6,0,L|492:360,1,59.9999981689454
476,288,103774,2,0,L|404:288,1,59.9999981689454
224,280,103947,2,0,L|152:220,1,59.9999981689454
396,196,104120,2,0,L|460:196,1,59.9999981689454
228,136,104294,5,0,0:0:0:0:
448,124,104381,2,0,L|452:56,1,59.9999981689454
188,64,104554,1,0,0:0:0:0:
464,64,104641,2,0,L|404:24,1,59.9999981689454
164,368,104814,2,0,L|264:332,1,59.9999981689454
424,324,104987,6,0,L|488:324,3,59.9999981689454
252,252,105334,2,0,L|252:176,1,59.9999981689454
332,168,105508,2,0,L|332:88,1,59.9999981689454
104,64,105681,2,0,L|172:64,1,59.9999981689454
320,64,105855,2,0,L|320:128,1,59.9999981689454
120,176,106028,2,0,L|52:176,1,59.9999981689454
320,164,106201,2,0,L|400:164,1,59.9999981689454
192,352,106375,5,0,0:0:0:0:
132,352,106461,1,0,0:0:0:0:
72,352,106548,1,0,0:0:0:0:
12,352,106635,1,0,0:0:0:0:
304,256,106722,2,0,L|216:256,1,59.9999981689454
76,256,106895,2,0,L|-4:256,1,59.9999981689454
336,256,107068,6,0,L|264:204,1,59.9999981689454
112,248,107242,2,0,L|40:196,1,59.9999981689454
368,256,107415,2,0,L|348:176,1,59.9999981689454
148,248,107589,2,0,L|128:168,1,59.9999981689454
380,160,107762,6,0,L|492:160,1,59.9999981689454
256,76,107935,2,0,L|348:76,1,59.9999981689454
104,368,108109,2,0,L|104:276,1,59.9999981689454
264,276,108282,2,0,L|348:276,1,59.9999981689454
264,276,108456,6,0,L|180:276,1,59.9999981689454
280,216,108629,2,0,L|284:136,1,59.9999981689454
104,136,108803,2,0,L|104:64,1,59.9999981689454
292,64,108976,2,0,L|408:64,1,59.9999981689454
124,336,109149,5,0,0:0:0:0:
184,336,109235,1,0,0:0:0:0:
244,336,109322,1,0,0:0:0:0:
304,336,109409,1,0,0:0:0:0:
40,256,109496,2,0,L|128:256,1,59.9999981689454
292,252,109670,2,0,L|372:252,1,59.9999981689454
100,256,109843,6,0,L|168:192,1,59.9999981689454
352,252,110016,2,0,L|420:188,1,59.9999981689454
160,256,110190,2,0,L|172:176,1,59.9999981689454
416,252,110363,2,0,L|428:172,1,59.9999981689454
204,148,110537,6,0,L|108:148,1,59.9999981689454
320,352,110710,2,0,L|320:260,1,59.9999981689454
256,272,110883,2,0,L|164:272,1,59.9999981689454
256,272,111057,2,0,L|320:272,1,59.9999981689454
116,352,111230,2,0,L|264:352,1,119.999996337891
112,264,111577,2,0,L|112:200,1,59.9999981689454
284,192,111750,2,0,L|284:116,1,59.9999981689454
80,136,111924,6,0,L|20:136,1,59.9999981689454
16,72,112097,2,0,L|80:72,1,59.9999981689454
256,368,112271,2,0,L|256:296,1,59.9999981689454
192,248,112444,2,0,L|116:248,1,59.9999981689454
332,240,112618,6,0,L|408:240,1,59.9999981689454
164,160,112791,1,0,0:0:0:0:
392,176,112878,2,0,L|412:120,1,59.9999981689454
116,100,113051,1,0,0:0:0:0:
400,88,113138,2,0,L|336:12,1,59.9999981689454
88,368,113311,6,0,L|16:368,1,59.9999981689454
224,296,113485,2,0,L|300:296,1,59.9999981689454
136,236,113658,2,0,L|136:168,1,59.9999981689454
200,156,113831,2,0,L|276:156,1,59.9999981689454
80,104,114005,6,0,L|0:104,1,59.9999981689454
80,40,114178,2,0,L|164:40,1,59.9999981689454
324,352,114352,2,0,L|324:280,1,59.9999981689454
248,272,114525,2,0,L|248:176,1,59.9999981689454
440,204,114698,6,0,L|504:204,1,59.9999981689454
440,204,114872,2,0,L|344:204,1,59.9999981689454
184,204,115045,2,0,L|72:204,1,59.9999981689454
320,136,115219,2,0,L|384:116,1,59.9999981689454
152,96,115392,5,0,0:0:0:0:
324,356,115479,2,0,L|396:336,1,59.9999981689454
96,368,115652,1,0,0:0:0:0:
296,280,115739,2,0,L|328:208,1,59.9999981689454
128,196,115912,2,0,L|164:124,1,59.9999981689454
392,120,116086,6,0,L|300:88,1,59.9999981689454
68,112,116259,2,0,L|168:84,1,59.9999981689454
312,360,116433,2,0,L|304:264,1,59.9999981689454
220,280,116606,2,0,L|212:188,1,59.9999981689454
436,188,116779,5,0,0:0:0:0:
272,188,116866,1,0,0:0:0:0:
96,184,116953,2,0,L|4:184,1,59.9999981689454
272,120,117126,1,0,0:0:0:0:
424,124,117213,1,0,0:0:0:0:
192,340,117300,2,0,L|120:332,1,59.9999981689454
332,288,117473,6,0,L|404:288,1,59.9999981689454
392,212,117646,2,0,L|316:212,1,59.9999981689454
152,216,117820,2,0,L|152:120,1,59.9999981689454
232,132,117993,2,0,L|232:60,1,59.9999981689454
68,372,118167,6,0,L|8:328,1,59.9999981689454
236,304,118340,2,0,L|320:272,1,59.9999981689454
128,252,118513,2,0,L|128:188,1,59.9999981689454
372,172,118687,2,0,L|304:152,1,59.9999981689454
80,172,118860,6,0,L|192:144,1,59.9999981689454
312,120,119034,2,0,L|400:96,1,59.9999981689454
168,360,119207,2,0,L|168:280,1,59.9999981689454
248,280,119381,2,0,L|248:200,1,59.9999981689454
160,208,119554,6,0,L|88:208,1,59.9999981689454
300,196,119727,2,0,L|352:144,1,59.9999981689454
184,140,119901,2,0,L|156:80,1,59.9999981689454
432,160,120074,2,0,L|432:72,1,59.9999981689454
224,360,120248,6,0,L|136:360,1,59.9999981689454
104,296,120421,2,0,L|180:296,1,59.9999981689454
352,296,120594,2,0,L|452:268,1,59.9999981689454
140,228,120768,2,0,L|244:192,1,59.9999981689454
416,228,120941,6,0,L|460:176,1,59.9999981689454
104,236,121115,2,0,L|152:168,1,59.9999981689454
376,228,121288,2,0,L|404:156,1,59.9999981689454
52,232,121461,2,0,L|80:156,1,59.9999981689454
320,148,121635,6,0,L|296:76,1,59.9999981689454
232,76,121808,2,0,L|136:72,1,59.9999981689454
328,340,121982,2,0,L|328:252,1,59.9999981689454
256,252,122155,2,0,L|256:160,1,59.9999981689454
324,176,122329,6,0,L|408:176,1,59.9999981689454
320,116,122502,2,0,L|224:116,1,59.9999981689454
440,112,122675,2,0,L|504:112,1,59.9999981689454
168,120,122849,2,0,L|100:120,1,59.9999981689454
296,376,123022,5,0,0:0:0:0:
356,376,123108,1,0,0:0:0:0:
416,376,123195,1,0,0:0:0:0:
476,376,123282,1,0,0:0:0:0:
236,308,123369,1,0,0:0:0:0:
296,308,123455,1,0,0:0:0:0:
356,308,123542,1,0,0:0:0:0:
416,308,123629,1,0,0:0:0:0:
160,216,123716,6,0,L|228:216,1,59.9999981689454
388,212,123889,1,0,0:0:0:0:
132,152,123976,2,0,L|204:152,1,59.9999981689454
408,148,124149,2,0,L|492:148,1,59.9999981689454
268,144,124323,1,0,0:0:0:0:
20,152,124409,6,0,L|120:152,1,59.9999981689454
296,152,124583,2,0,L|208:152,1,59.9999981689454
76,360,124756,2,0,L|76:272,1,59.9999981689454
152,280,124930,2,0,L|152:200,1,59.9999981689454
84,200,125103,6,0,L|12:200,1,59.9999981689454
252,188,125277,2,0,L|360:192,1,59.9999981689454
152,128,125450,2,0,L|152:60,1,59.9999981689454
392,56,125623,2,0,L|320:56,1,59.9999981689454
108,368,125797,6,0,L|60:312,1,59.9999981689454
352,360,125970,2,0,L|416:296,1,59.9999981689454
60,240,126144,1,0,0:0:0:0:
244,228,126230,1,0,0:0:0:0:
412,228,126317,2,0,L|500:228,1,59.9999981689454
60,240,126490,5,0,0:0:0:0:
244,228,126576,1,0,0:0:0:0:
412,228,126663,2,0,L|500:228,1,59.9999981689454
244,156,126837,2,0,L|168:144,1,59.9999981689454
408,148,127011,2,0,L|496:124,1,59.9999981689454
172,348,127184,6,0,L|88:348,3,59.9999981689454
368,340,127531,2,0,L|452:312,1,59.9999981689454
176,260,127704,2,0,L|108:220,1,59.9999981689454
384,188,127878,5,0,0:0:0:0:
357,174,127921,1,0,0:0:0:0:
330,161,127964,1,0,0:0:0:0:
52,152,128051,2,0,L|128:144,1,59.9999981689454
312,120,128224,2,0,L|408:112,1,59.9999981689454
140,68,128398,2,0,L|48:56,1,59.9999981689454
312,356,128571,6,0,L|440:356,1,119.999996337891
100,368,128923,2,0,L|100:212,1,119.999996337891
228,232,129276,2,0,L|76:232,1,119.999996337891
396,228,129629,2,0,P|424:168|348:128,1,119.999996337891
332,132,129894,1,0,0:0:0:0:
268,132,129982,5,0,0:0:0:0:
392,52,130159,2,0,L|440:4,1,59.9999981689454
148,360,130335,2,0,L|20:360,1,119.999996337891
88,296,130600,1,0,0:0:0:0:
152,240,130688,2,0,L|8:240,1,119.999996337891
92,176,130953,1,0,0:0:0:0:
320,360,131041,2,0,P|348:284|288:264,1,119.999996337891
256,264,131306,1,0,0:0:0:0:
184,264,131394,6,0,P|152:204|188:176,1,119.999996337891
252,168,131659,1,0,0:0:0:0:
448,164,131747,2,0,P|476:108|432:72,1,119.999996337891
376,72,132012,1,0,0:0:0:0:
312,72,132100,2,0,L|460:72,1,119.999996337891
372,20,132365,1,0,0:0:0:0:
64,360,132453,2,0,P|36:300|88:256,1,119.999996337891
128,264,132718,1,0,0:0:0:0:
192,264,132806,6,0,L|64:264,1,119.999996337891
132,204,133071,1,0,0:0:0:0:
348,260,133159,2,0,L|484:260,1,119.999996337891
408,200,133423,1,0,0:0:0:0:
344,136,133512,2,0,L|476:136,1,119.999996337891
404,72,133776,1,0,0:0:0:0:
108,64,133865,1,0,0:0:0:0:
472,72,134041,1,0,0:0:0:0:
208,360,134218,6,0,L|208:272,1,59.9999981689454
272,292,134394,2,0,L|360:292,1,59.9999981689454
148,220,134571,1,0,0:0:0:0:
208,220,134659,1,0,0:0:0:0:
268,220,134747,1,0,0:0:0:0:
328,220,134835,1,0,0:0:0:0:
144,144,134923,6,0,L|224:144,1,59.9999981689454
372,136,135100,2,0,L|448:136,1,59.9999981689454
112,144,135276,2,0,L|188:96,1,59.9999981689454
348,136,135453,2,0,L|424:108,1,59.9999981689454
192,360,135629,6,0,L|192:280,1,59.9999981689454
264,276,135806,2,0,L|264:212,1,59.9999981689454
72,352,135982,2,0,L|8:352,1,59.9999981689454
72,284,136159,2,0,L|148:284,1,59.9999981689454
312,284,136335,6,0,L|312:176,1,59.9999981689454
236,188,136512,2,0,L|236:100,1,59.9999981689454
428,124,136688,2,0,L|492:124,1,59.9999981689454
428,124,136865,2,0,L|348:124,1,59.9999981689454
180,340,137041,5,0,0:0:0:0:
240,340,137129,1,0,0:0:0:0:
300,340,137217,1,0,0:0:0:0:
360,340,137305,1,0,0:0:0:0:
152,256,137394,2,0,L|216:256,1,59.9999981689454
392,252,137571,2,0,L|456:252,1,59.9999981689454
216,176,137747,5,0,0:0:0:0:
200,176,137791,1,0,0:0:0:0:
230,176,137835,1,0,0:0:0:0:
260,176,137879,1,0,0:0:0:0:
290,176,137923,1,0,0:0:0:0:
320,176,137967,1,0,0:0:0:0:
350,176,138011,1,0,0:0:0:0:
128,108,138100,2,0,L|64:108,1,59.9999981689454
304,104,138276,2,0,L|392:104,1,59.9999981689454
76,368,138453,6,0,P|36:304|76:232,1,119.999996337891
316,364,138718,2,0,P|360:296|316:232,1,119.999996337891
52,224,138982,2,0,L|124:104,1,119.999996337891
368,240,139247,2,0,L|296:124,1,119.999996337891
100,116,139512,2,0,L|40:116,1,59.9999981689454
288,120,139688,2,0,L|368:120,1,59.9999981689454
132,364,139865,6,0,L|8:324,1,119.999996337891
328,356,140218,2,0,L|348:224,1,119.999996337891
76,228,140571,2,0,P|48:164|92:136,1,119.999996337891
144,136,140835,1,0,0:0:0:0:
340,228,140923,2,0,P|384:184|336:136,1,119.999996337891
300,136,141188,1,0,0:0:0:0:
240,136,141276,6,0,L|372:136,1,119.999996337891
96,352,141629,2,0,L|220:352,1,119.999996337891
64,288,141982,2,0,L|52:160,1,119.999996337891
384,288,142335,2,0,L|416:156,1,119.999996337891
232,148,142688,6,0,L|372:148,1,119.999996337891
60,376,143041,2,0,L|44:240,1,119.999996337891
340,232,143394,2,0,P|376:172|340:144,1,119.999996337891
288,148,143659,1,0,0:0:0:0:
124,232,143747,2,0,P|88:172|124:144,1,119.999996337891
176,148,144012,1,0,0:0:0:0:
368,372,144100,6,0,L|488:372,1,119.999996337891
232,308,144453,2,0,L|220:164,1,119.999996337891
296,184,144718,1,0,0:0:0:0:
364,176,144806,2,0,P|392:104|348:76,1,119.999996337891
112,84,145159,1,0,0:0:0:0:
368,80,145335,1,0,0:0:0:0:
52,368,145512,6,0,L|40:248,1,119.999996337891
108,240,145776,1,0,0:0:0:0:
368,232,145865,2,0,L|380:112,1,119.999996337891
312,104,146129,1,0,0:0:0:0:
124,104,146218,2,0,L|8:16,1,119.999996337891
364,356,146571,2,0,L|392:216,1,119.999996337891
304,224,146835,1,0,0:0:0:0:
212,212,146923,6,0,L|212:60,1,119.999996337891
472,228,147276,2,0,L|472:92,1,119.999996337891
188,352,147629,2,0,L|336:352,1,119.999996337891
40,288,147982,2,0,L|16:140,1,119.999996337891
332,292,148335,6,0,P|372:236|316:192,1,119.999996337891
280,192,148600,1,0,0:0:0:0:
68,184,148688,2,0,P|32:120|72:100,1,119.999996337891
120,96,148953,1,0,0:0:0:0:
180,96,149041,2,0,L|48:96,1,119.999996337891
400,360,149394,2,0,L|428:232,1,119.999996337891
164,224,149747,5,0,0:0:0:0:
136,212,149791,1,0,0:0:0:0:
119,189,149835,1,0,0:0:0:0:
116,159,149879,1,0,0:0:0:0:
130,133,149923,1,0,0:0:0:0:
156,118,149967,1,0,0:0:0:0:
185,119,150011,1,0,0:0:0:0:
364,116,150100,6,0,L|388:116,1,19.9999993896485
212,40,150218,2,0,L|180:40,1,19.9999993896485
424,40,150335,2,0,L|448:40,1,19.9999993896485
168,352,150453,2,0,P|68:328|20:244,1,179.999994506836
264,256,150806,2,0,P|356:232|416:160,1,179.999994506836
136,176,151159,6,0,P|108:112|144:80,1,119.999996337891
208,80,151423,1,0,0:0:0:0:
448,356,151512,2,0,P|480:300|432:264,1,119.999996337891
292,192,151865,2,0,L|416:192,1,119.999996337891
68,356,152218,2,0,L|24:232,1,119.999996337891
300,228,152571,6,0,L|440:228,1,119.999996337891
360,160,152835,1,0,0:0:0:0:
212,228,152923,2,0,L|92:228,1,119.999996337891
152,160,153187,1,0,0:0:0:0:
220,156,153276,2,0,L|348:156,1,119.999996337891
72,364,153629,2,0,L|44:244,1,119.999996337891
396,248,153982,6,0,P|452:208|388:124,1,179.999994506836
232,112,154335,2,0,L|360:112,1,119.999996337891
184,336,154688,2,0,L|40:336,1,119.999996337891
352,332,155041,2,0,L|388:200,1,119.999996337891
308,212,155306,1,0,0:0:0:0:
240,212,155394,6,0,L|376:208,1,119.999996337891
76,220,155747,2,0,L|48:100,1,119.999996337891
392,208,156100,2,0,L|428:88,1,119.999996337891
128,76,156453,1,0,0:0:0:0:
420,76,156629,1,0,0:0:0:0:
68,360,156806,6,0,P|56:296|104:268,1,119.999996337891
156,268,157070,1,0,0:0:0:0:
356,272,157159,2,0,L|480:272,1,119.999996337891
292,192,157512,2,0,L|152:192,1,119.999996337891
444,360,157865,2,0,L|472:208,1,119.999996337891
312,140,158218,6,0,L|436:140,1,119.999996337891
68,360,158570,2,0,L|40:208,1,119.999996337891
200,140,158923,2,0,L|76:140,1,119.999996337891
328,344,159276,2,0,P|432:312|468:204,1,179.999994506836
136,232,159629,6,0,P|80:180|160:128,1,179.999994506836
372,280,159982,2,0,P|400:208|344:176,1,119.999996337891
308,176,160247,1,0,0:0:0:0:
236,176,160335,1,0,0:0:0:0:
376,116,160512,1,0,0:0:0:0:
84,356,160688,6,0,L|232:352,2,119.999996337891
280,280,161218,1,0,0:0:0:0:
20,280,161394,2,0,L|20:144,1,119.999996337891
368,136,161747,2,0,B|448:136|448:136|368:124,1,159.999995117188
144,136,162100,2,0,L|52:136,2,79.9999975585938
328,360,162453,6,0,B|424:276|424:276|328:176|328:176|112:180|112:180|332:128|332:128|124:128,1,899.999972534181
332,356,163865,6,0,P|400:324|300:56,1,419.999987182618
92,336,164570,2,0,L|396:336,1,299.999990844727
196,252,165100,2,0,L|148:176,1,59.9999981689454
356,368,165276,6,0,P|432:324|316:80,1,419.999987182618
144,368,165982,2,0,P|68:324|184:80,1,419.999987182618
332,256,166688,6,0,L|20:256,1,299.999990844727
196,360,167218,6,0,L|516:360,1,299.999990844727
232,280,167747,2,0,L|36:280,1,179.999994506836
448,184,168100,6,0,B|204:184|204:184|452:128|452:128|36:128,1,899.999972534181
268,364,169512,6,0,B|372:296|372:296|260:216|260:216|488:220|488:220|256:160|256:160|448:164,1,899.999972534181
148,356,170923,6,0,P|64:312|224:112,1,419.999987182618
364,356,171629,2,0,P|448:312|288:112,1,419.999987182618
96,200,172335,6,0,L|296:200,1,179.999994506836
96,200,172688,2,0,L|296:200,1,179.999994506836
96,200,173041,2,0,L|296:200,1,179.999994506836
96,200,173394,2,0,L|68:60,1,119.999996337891
408,360,173747,6,0,L|432:224,1,119.999996337891
176,236,174100,2,0,L|28:236,1,119.999996337891
240,356,174453,2,0,L|268:216,1,119.999996337891
20,172,174806,2,0,L|148:172,1,119.999996337891
264,168,175159,6,0,L|136:168,1,119.999996337891
452,356,175512,2,0,L|476:220,1,119.999996337891
192,200,175865,2,0,L|56:200,1,119.999996337891
352,120,176218,1,0,0:0:0:0:
84,360,176394,6,0,L|216:360,2,119.999996337891
356,364,176923,2,0,L|384:224,1,119.999996337891
188,232,177276,2,0,L|164:88,1,119.999996337891
436,240,177629,2,0,L|460:88,1,119.999996337891
292,76,177982,6,0,L|436:76,1,119.999996337891
72,364,178335,2,0,L|52:236,1,119.999996337891
224,208,178688,2,0,L|72:208,1,119.999996337891
380,132,179041,1,0,0:0:0:0:
112,144,179218,1,0,0:0:0:0:
384,356,179394,6,0,L|404:212,1,100
144,248,179744,2,0,L|8:248,1,100
208,184,180095,2,0,L|336:184,1,100
44,360,180446,2,0,L|40:216,1,100
176,200,180797,6,0,L|48:200,1,100
336,364,181148,2,0,L|472:336,1,100
152,308,181499,2,0,L|168:196,1,100
460,200,181850,2,0,L|440:92,1,100
208,84,182201,6,0,L|340:84,1,100
32,368,182549,2,0,L|20:232,1,100
256,368,182898,2,0,L|256:240,1,100
484,372,183247,2,0,L|492:244,1,100
348,248,183596,6,0,L|468:212,1,100
160,256,183945,2,0,L|44:232,1,100
376,344,184294,2,0,L|428:220,1,100
128,212,184642,1,0,0:0:0:0:
420,204,184817,1,0,0:0:0:0:
124,140,184991,6,0,L|-8:140,1,100
340,72,185337,1,0,0:0:0:0:
48,76,185511,1,0,0:0:0:0:
284,364,185684,1,0,0:0:0:0:
309,364,185727,1,0,0:0:0:0:
334,364,185770,1,0,0:0:0:0:
359,364,185814,1,0,0:0:0:0:
384,364,185857,1,0,0:0:0:0:
332,296,185944,1,0,0:0:0:0:
140,280,186031,2,0,L|76:280,1,50
280,204,186204,2,0,L|364:204,1,50
64,304,186378,6,0,P|28:244|84:220,1,100
320,196,186638,2,0,L|432:196,1,100
200,124,186898,2,0,L|88:124,1,100
312,112,187158,2,0,L|440:112,1,100
128,332,187418,2,0,L|64:284,1,50
304,276,187592,2,0,L|340:212,1,50
88,216,187765,6,0,L|16:216,1,59.9999981689454
88,216,187938,2,0,L|164:216,1,59.9999981689454
356,364,188111,2,0,L|424:324,1,59.9999981689454
160,324,188285,2,0,L|224:280,1,59.9999981689454
400,268,188458,6,0,L|468:228,1,59.9999981689454
128,332,188632,2,0,L|192:288,1,59.9999981689454
372,268,188805,2,0,L|440:228,1,59.9999981689454
100,332,188979,2,0,L|164:288,1,59.9999981689454
324,228,189152,6,0,L|408:192,1,59.9999981689454
96,224,189325,2,0,L|28:192,1,59.9999981689454
292,360,189499,2,0,L|292:268,1,59.9999981689454
224,280,189672,2,0,L|228:200,1,59.9999981689454
388,200,189845,6,0,L|464:196,1,59.9999981689454
180,160,190019,2,0,L|92:160,1,59.9999981689454
336,164,190192,2,0,L|336:96,1,59.9999981689454
104,168,190366,2,0,L|104:88,1,59.9999981689454
372,364,190539,6,0,L|432:364,1,59.9999981689454
372,364,190712,2,0,L|288:364,1,59.9999981689454
80,360,190886,2,0,L|4:336,1,59.9999981689454
284,296,191059,2,0,L|204:272,1,59.9999981689454
64,312,191233,6,0,L|24:248,1,59.9999981689454
320,300,191406,2,0,L|272:224,1,59.9999981689454
92,312,191580,2,0,L|88:232,1,59.9999981689454
344,304,191753,2,0,L|344:212,1,59.9999981689454
84,188,191926,6,0,L|176:188,1,59.9999981689454
352,192,192100,2,0,L|344:116,1,59.9999981689454
272,124,192273,2,0,L|208:124,1,59.9999981689454
272,60,192447,2,0,L|340:60,1,59.9999981689454
144,332,192620,6,0,L|144:260,1,59.9999981689454
204,244,192793,2,0,L|204:140,1,59.9999981689454
32,164,192967,2,0,L|112:160,1,59.9999981689454
332,152,193140,2,0,L|240:152,1,59.9999981689454
68,360,193314,6,0,L|0:360,1,59.9999981689454
68,360,193487,2,0,L|160:360,1,59.9999981689454
328,352,193660,2,0,L|392:352,2,59.9999981689454
168,280,193921,1,0,0:0:0:0:
368,272,194007,2,0,L|400:188,1,59.9999981689454
212,200,194181,1,0,0:0:0:0:
40,204,194267,2,0,L|24:132,1,59.9999981689454
216,124,194441,1,0,0:0:0:0:
396,108,194528,2,0,L|332:108,1,59.9999981689454
80,360,194701,6,0,L|176:332,1,59.9999981689454
380,304,194874,2,0,L|296:272,1,59.9999981689454
128,248,195048,2,0,L|128:160,1,59.9999981689454
200,164,195221,2,0,L|272:164,1,59.9999981689454
180,92,195395,6,0,L|88:92,1,59.9999981689454
308,332,195568,2,0,L|304:232,1,59.9999981689454
144,256,195741,2,0,L|80:232,1,59.9999981689454
336,204,195915,2,0,L|408:180,1,59.9999981689454
