osu file format v14

[General]
AudioFilename: Brain Power.mp3
AudioLeadIn: 0
PreviewTime: 71070
Countdown: 0
SampleSet: None
StackLeniency: 0.3
Mode: 1
LetterboxInBreaks: 0
WidescreenStoryboard: 0

[Editor]
DistanceSpacing: 1
BeatDivisor: 4
GridSize: 32
TimelineZoom: 3.199999

[Metadata]
Title:Brain Power
TitleUnicode:Brain Power
Artist:NOMA
ArtistUnicode:ノマ
Creator:S a n d
Version:Futsuu
Source:SOUND VOLTEX II -infinite infection-
Tags:Sand Donkama
BeatmapID:878091
BeatmapSetID:403076

[Difficulty]
HPDrainRate:4
CircleSize:4.2
OverallDifficulty:4.5
ApproachRate:5
SliderMultiplier:1.4
SliderTickRate:1

[Events]
//Background and Video events
0,0,"BrainPower.png",0,50
//Break Periods
//Storyboard Layer 0 (Background)
//Storyboard Layer 1 (Fail)
//Storyboard Layer 2 (Pass)
//Storyboard Layer 3 (Foreground)
//Storyboard Sound Samples

[TimingPoints]
888,352.941176470588,4,1,0,70,1,0
2299,-100,4,1,0,70,0,1
2321,-100,4,1,0,70,0,0
2652,-100,4,1,0,70,0,0
5299,-100,4,1,0,70,0,0
5476,-100,4,1,0,70,0,0
5652,-100,4,1,0,70,0,0
5829,-100,4,1,0,70,0,0
6005,-100,4,1,0,70,0,0
6535,-100,4,1,0,70,0,0
6711,-100,4,1,0,70,0,0
6887,-100,4,1,0,70,0,0
7064,-100,4,1,0,70,0,0
7240,-100,4,1,0,70,0,0
7329,-100,4,1,0,70,0,0
7417,-100,4,1,0,70,0,0
7505,-100,4,1,0,70,0,0
7593,-100,4,1,0,70,0,0
7770,-100,4,1,0,70,0,0
7858,-100,4,1,0,70,0,0
7946,-100,4,1,0,70,0,1
7968,-100,4,1,0,70,0,0
8299,-100,4,1,0,70,0,0
10946,-100,4,1,0,70,0,0
11123,-100,4,1,0,70,0,0
11476,-100,4,1,0,70,0,0
11652,-100,4,1,0,70,0,0
11829,-100,4,1,0,70,0,0
12005,-100,4,1,0,70,0,0
12182,-100,4,1,0,70,0,0
12270,-100,4,1,0,70,0,0
12358,-100,4,1,0,70,0,0
12446,-100,4,1,0,70,0,0
12535,-100,4,1,0,70,0,0
12623,-100,4,1,0,70,0,0
12711,-100,4,1,0,70,0,0
12887,-100,4,1,0,70,0,0
13005,-100,4,1,0,70,0,0
13123,-100,4,1,0,70,0,0
13240,-100,4,1,0,70,0,0
13417,-100,4,1,0,70,0,0
13476,-100,4,1,0,70,0,0
13535,-100,4,1,0,70,0,0
13593,-100,4,1,0,70,0,1
13615,-100,4,1,0,70,0,0
13946,-100,4,1,0,70,0,0
16593,-100,4,1,0,70,0,0
16770,-100,4,1,0,70,0,0
17123,-100,4,1,0,70,0,0
17299,-100,4,1,0,70,0,0
17476,-100,4,1,0,70,0,0
17652,-100,4,1,0,70,0,0
17829,-100,4,1,0,70,0,0
17917,-100,4,1,0,70,0,0
18005,-100,4,1,0,70,0,0
18182,-100,4,1,0,70,0,0
18299,-100,4,1,0,70,0,0
18417,-100,4,1,0,70,0,0
18535,-100,4,1,0,70,0,0
19240,-100,4,1,0,70,0,0
19329,-100,4,1,0,70,0,0
19417,-100,4,1,0,70,0,0
19505,-100,4,1,0,70,0,0
19593,-100,4,1,0,70,0,0
19682,-100,4,1,0,70,0,0
19770,-100,4,1,0,70,0,0
19858,-100,4,1,0,70,0,0
19946,-100,4,1,0,70,0,0
20035,-100,4,1,0,70,0,0
20123,-100,4,1,0,70,0,0
20211,-100,4,1,0,70,0,0
20299,-100,4,1,0,70,0,0
20476,-100,4,1,0,70,0,0
20652,-100,4,1,0,70,0,0
20740,-100,4,1,0,70,0,0
20829,-100,4,1,0,70,0,0
20917,-100,4,1,0,70,0,0
21005,-100,4,1,0,70,0,0
21093,-100,4,1,0,70,0,0
21182,-100,4,1,0,70,0,0
21270,-100,4,1,0,70,0,0
21358,-100,4,1,0,70,0,0
21446,-100,4,1,0,70,0,0
21535,-100,4,1,0,70,0,0
21623,-100,4,1,0,70,0,0
21711,-100,4,1,0,70,0,0
21887,-100,4,1,0,70,0,0
22064,-100,4,1,0,70,0,0
22152,-100,4,1,0,70,0,0
22240,-100,4,1,0,70,0,0
22329,-100,4,1,0,70,0,0
22417,-100,4,1,0,70,0,0
22505,-100,4,1,0,70,0,0
22593,-100,4,1,0,70,0,0
22682,-100,4,1,0,70,0,0
22770,-100,4,1,0,70,0,0
22858,-100,4,1,0,70,0,0
22946,-100,4,1,0,70,0,0
23035,-100,4,1,0,70,0,0
23123,-100,4,1,0,70,0,0
23211,-100,4,1,0,70,0,0
23299,-100,4,1,0,70,0,0
23387,-100,4,1,0,70,0,0
23476,-100,4,1,0,70,0,1
23535,-100,4,1,0,70,0,0
23740,-100,4,1,0,70,0,1
23829,-100,4,1,0,70,0,0
24005,-100,4,1,0,70,0,1
24064,-100,4,1,0,70,0,0
24270,-100,4,1,0,70,0,1
24358,-100,4,1,0,70,0,0
24535,-100,4,1,0,70,0,1
24593,-100,4,1,0,70,0,0
24711,-100,4,1,0,70,0,0
24770,-100,4,1,0,70,0,1
24887,-100,4,1,0,70,0,1
24910,-100,4,1,0,70,0,0
29299,-100,4,1,0,70,0,0
29387,-100,4,1,0,70,0,0
29476,-100,4,1,0,70,0,0
29652,-100,4,1,0,70,0,0
29740,-100,4,1,0,70,0,0
29829,-100,4,1,0,70,0,0
30093,-100,4,1,0,70,0,0
30182,-100,4,1,0,70,0,0
30358,-100,4,1,0,70,0,0
30446,-100,4,1,0,70,0,0
30535,-100,4,1,0,70,0,0
30711,-100,4,1,0,70,0,0
34829,-100,4,1,0,70,0,0
34887,-100,4,1,0,70,0,0
34946,-100,4,1,0,70,0,0
35123,-100,4,1,0,70,0,0
35240,-100,4,1,0,70,0,0
35358,-100,4,1,0,70,0,0
35476,-100,4,1,0,70,0,1
36182,-100,4,1,0,70,0,0
36887,-100,4,1,0,70,0,0
37593,-100,4,1,0,70,0,0
38299,-100,4,1,0,70,0,0
39005,-100,4,1,0,70,0,0
39711,-100,4,1,0,70,0,0
40417,-100,4,1,0,70,0,0
40505,-100,4,1,0,70,0,0
40593,-100,4,1,0,70,0,0
40682,-100,4,1,0,70,0,0
40770,-100,4,1,0,70,0,0
40946,-100,4,1,0,70,0,0
41035,-100,4,1,0,70,0,0
41123,-100,4,1,0,70,0,0
41299,-100,4,1,0,70,0,0
41387,-100,4,1,0,70,0,0
41476,-100,4,1,0,70,0,0
41652,-100,4,1,0,70,0,0
41740,-100,4,1,0,70,0,0
41829,-100,4,1,0,70,0,0
42005,-100,4,1,0,70,0,0
42535,-100,4,1,0,70,0,0
43240,-100,4,1,0,70,0,0
43946,-100,4,1,0,70,0,0
44652,-100,4,1,0,70,0,0
45358,-100,4,1,0,70,0,0
46064,-100,4,1,0,70,0,0
46887,-100,4,1,0,70,0,0
47005,-100,4,1,0,70,0,0
47123,-100,4,1,0,70,0,0
47240,-100,4,1,0,70,0,0
47358,-100,4,1,0,70,0,0
47476,-100,4,1,0,70,0,0
47564,-100,4,1,0,70,0,0
47652,-100,4,1,0,70,0,0
47740,-100,4,1,0,70,0,0
47829,-100,4,1,0,70,0,0
47917,-100,4,1,0,70,0,0
48005,-100,4,1,0,70,0,0
48093,-100,4,1,0,70,0,0
48182,-100,4,1,0,70,0,0
48270,-100,4,1,0,70,0,0
48358,-100,4,1,0,70,0,0
48446,-100,4,1,0,70,0,0
48535,-100,4,1,0,70,0,0
48887,-100,4,1,0,70,0,0
49152,-100,4,1,0,70,0,0
49417,-100,4,1,0,70,0,0
49682,-100,4,1,0,70,0,0
49946,-100,4,1,0,70,0,0
50035,-100,4,1,0,70,0,0
50123,-100,4,1,0,70,0,0
50211,-100,4,1,0,70,0,0
50299,-100,4,1,0,70,0,0
50358,-100,4,1,0,70,0,0
50417,-100,4,1,0,70,0,0
50476,-100,4,1,0,70,0,0
50535,-100,4,1,0,70,0,0
50593,-100,4,1,0,70,0,0
50652,-100,4,1,0,70,0,0
50740,-100,4,1,0,70,0,0
50829,-100,4,1,0,70,0,0
50917,-100,4,1,0,70,0,0
51005,-100,4,1,0,70,0,0
51711,-100,4,1,0,70,0,0
51976,-100,4,1,0,70,0,0
52417,-100,4,1,0,70,0,0
52505,-100,4,1,0,70,0,0
52593,-100,4,1,0,70,0,0
52682,-100,4,1,0,70,0,0
52770,-100,4,1,0,70,0,0
52858,-100,4,1,0,70,0,0
52946,-100,4,1,0,70,0,0
53035,-100,4,1,0,70,0,0
53123,-100,4,1,0,70,0,0
54535,-100,4,1,0,70,0,0
55946,-100,4,1,0,70,0,0
56299,-100,4,1,0,70,0,0
56476,-100,4,1,0,70,0,0
56652,-100,4,1,0,70,0,0
56740,-100,4,1,0,70,0,0
56829,-100,4,1,0,70,0,0
56917,-100,4,1,0,70,0,0
57005,-100,4,1,0,70,0,0
57093,-100,4,1,0,70,0,0
57182,-100,4,1,0,70,0,0
57270,-100,4,1,0,70,0,0
57711,-100,4,1,0,70,0,0
57799,-100,4,1,0,70,0,0
57887,-100,4,1,0,70,0,0
57976,-100,4,1,0,70,0,0
58064,-100,4,1,0,70,0,0
58123,-100,4,1,0,70,0,0
58182,-100,4,1,0,70,0,0
58240,-100,4,1,0,70,0,0
58299,-100,4,1,0,70,0,0
58358,-100,4,1,0,70,0,0
58417,-100,4,1,0,70,0,0
58770,352.733686067019,4,1,0,70,1,0
58770,-100,4,1,0,70,0,0
59122,-100,4,1,0,70,0,1
59144,-100,4,1,0,70,0,0
59828,-100,4,1,0,70,0,1
59850,-100,4,1,0,70,0,0
60180,352.526439482961,4,1,0,70,1,0
60532,-100,4,1,0,70,0,1
60554,-100,4,1,0,70,0,0
61237,-100,4,1,0,70,0,1
61259,-100,4,1,0,70,0,0
61590,352.319436288902,4,1,0,70,1,0
61942,-100,4,1,0,70,0,1
61964,-100,4,1,0,70,0,0
62646,-100,4,1,0,70,0,1
62668,-100,4,1,0,70,0,0
62999,352.071353127567,4,1,0,70,1,0
63351,-100,4,1,0,70,0,1
63373,-100,4,1,0,70,0,0
64055,-100,4,1,0,70,0,1
64077,-100,4,1,0,70,0,0
64407,351.802990325418,4,1,0,70,1,0
64758,-100,4,1,0,70,0,1
64780,-100,4,1,0,70,0,0
65462,-100,4,1,0,70,0,1
65484,-100,4,1,0,70,0,0
65814,351.493848857645,4,1,0,70,1,0
66165,-100,4,1,0,70,0,1
66187,-100,4,1,0,70,0,0
66868,-100,4,1,0,70,0,1
66890,-100,4,1,0,70,0,0
67219,350.877192982456,4,1,0,70,1,0
67219,-100,4,1,0,70,0,0
67394,-100,4,1,0,70,0,0
67569,-100,4,1,0,70,0,0
67745,-100,4,1,0,70,0,0
67920,-100,4,1,0,70,0,0
68096,-100,4,1,0,70,0,0
68271,-100,4,1,0,70,0,0
68447,-100,4,1,0,70,0,0
68622,350.262697022767,4,1,0,70,1,0
68709,-100,4,1,0,70,0,0
68797,-100,4,1,0,70,0,0
68884,-100,4,1,0,70,0,0
68972,-100,4,1,0,70,0,0
69059,-100,4,1,0,70,0,0
69147,-100,4,1,0,70,0,0
69234,-100,4,1,0,70,0,0
69322,-100,4,1,0,70,0,0
69410,-100,4,1,0,70,0,0
69497,-100,4,1,0,70,0,0
69585,-100,4,1,0,70,0,0
69672,-100,4,1,0,70,0,0
69760,-100,4,1,0,70,0,0
69847,-100,4,1,0,70,0,0
69935,-100,4,1,0,70,0,0
70023,349.243306169965,4,1,0,70,1,0
70023,-100,4,1,0,70,0,0
70110,-100,4,1,0,70,0,0
70197,-100,4,1,0,70,0,0
70284,-100,4,1,0,70,0,0
70372,-100,4,1,0,70,0,0
70896,-100,4,1,0,70,0,0
71419,348.027842227378,4,1,0,70,1,0
71419,-100,4,1,0,70,0,0
71680,-100,4,1,0,70,0,0
71941,-100,4,1,0,70,0,0
72202,-100,4,1,0,70,0,0
72463,-100,4,1,0,70,0,0
72637,-100,4,1,0,70,0,0
72811,346.820809248555,4,1,0,70,1,1
72811,-100,4,1,0,70,0,1
72984,-100,4,1,0,70,0,1
73071,-100,4,1,0,70,0,1
73157,-100,4,1,0,70,0,1
73244,-100,4,1,0,70,0,1
73331,-100,4,1,0,70,0,1
73417,-100,4,1,0,70,0,1
73504,-100,4,1,0,70,0,1
73678,-100,4,1,0,70,0,1
73764,-100,4,1,0,70,0,1
73851,-100,4,1,0,70,0,1
73938,-100,4,1,0,70,0,1
74024,-100,4,1,0,70,0,1
74111,-100,4,1,0,70,0,1
74198,-100,4,1,0,70,0,1
75758,-100,4,1,0,70,0,1
75845,-100,4,1,0,70,0,1
75932,-100,4,1,0,70,0,1
76019,-100,4,1,0,70,0,1
76105,-100,4,1,0,70,0,1
76192,-100,4,1,0,70,0,1
76279,-100,4,1,0,70,0,1
76452,-100,4,1,0,70,0,1
76539,-100,4,1,0,70,0,1
76626,-100,4,1,0,70,0,1
76712,-100,4,1,0,70,0,1
76799,-100,4,1,0,70,0,1
76886,-100,4,1,0,70,0,1
76972,-100,4,1,0,70,0,1
78533,-100,4,1,0,70,0,1
78620,-100,4,1,0,70,0,1
78706,-100,4,1,0,70,0,1
78793,-100,4,1,0,70,0,1
78880,-100,4,1,0,70,0,1
78967,-100,4,1,0,70,0,1
79053,-100,4,1,0,70,0,1
79227,-100,4,1,0,70,0,1
79313,-100,4,1,0,70,0,1
79400,-100,4,1,0,70,0,1
79487,-100,4,1,0,70,0,1
79574,-100,4,1,0,70,0,1
79660,-100,4,1,0,70,0,1
79747,-100,4,1,0,70,0,1
81308,-100,4,1,0,70,0,1
81394,-100,4,1,0,70,0,1
81481,-100,4,1,0,70,0,1
81568,-100,4,1,0,70,0,1
81654,-100,4,1,0,70,0,1
81741,-100,4,1,0,70,0,1
81828,-100,4,1,0,70,0,1
82001,-100,4,1,0,70,0,1
82088,-100,4,1,0,70,0,1
82175,-100,4,1,0,70,0,1
82261,-100,4,1,0,70,0,1
82348,-100,4,1,0,70,0,1
82435,-100,4,1,0,70,0,1
82521,-100,4,1,0,70,0,1
83909,-100,4,1,0,70,0,1
84082,-100,4,1,0,70,0,1
84169,-100,4,1,0,70,0,1
84256,-100,4,1,0,70,0,1
84342,-100,4,1,0,70,0,1
84429,-100,4,1,0,70,0,1
84516,-100,4,1,0,70,0,1
84602,-100,4,1,0,70,0,1
84776,-100,4,1,0,70,0,1
84863,-100,4,1,0,70,0,1
84949,-100,4,1,0,70,0,1
85036,-100,4,1,0,70,0,1
85123,-100,4,1,0,70,0,1
85209,-100,4,1,0,70,0,1
85296,-100,4,1,0,70,0,1
85643,-100,4,1,0,70,0,1
85816,-100,4,1,0,70,0,1
85990,-100,4,1,0,70,0,1
86163,-100,4,1,0,70,0,1
86337,-100,4,1,0,70,0,1
86510,-100,4,1,0,70,0,1
86683,-100,4,1,0,70,0,1
86857,-100,4,1,0,70,0,1
86943,-100,4,1,0,70,0,1
87030,-100,4,1,0,70,0,1
87117,-100,4,1,0,70,0,1
87204,-100,4,1,0,70,0,1
87290,-100,4,1,0,70,0,1
87377,-100,4,1,0,70,0,1
87550,-100,4,1,0,70,0,1
87637,-100,4,1,0,70,0,1
87724,-100,4,1,0,70,0,1
87811,-100,4,1,0,70,0,1
87897,-100,4,1,0,70,0,1
87984,-100,4,1,0,70,0,1
88071,-100,4,1,0,70,0,1
88244,-100,4,1,0,70,0,1
88417,-100,4,1,0,70,0,1
88591,-100,4,1,0,70,0,1
88764,-100,4,1,0,70,0,1
88938,-100,4,1,0,70,0,1
89111,-100,4,1,0,70,0,1
89284,-100,4,1,0,70,0,1
89458,-100,4,1,0,70,0,1
89631,-100,4,1,0,70,0,1
89718,-100,4,1,0,70,0,1
89805,-100,4,1,0,70,0,1
89891,-100,4,1,0,70,0,1
89978,-100,4,1,0,70,0,1
90065,-100,4,1,0,70,0,1
90152,-100,4,1,0,70,0,1
90325,-100,4,1,0,70,0,1
90412,-100,4,1,0,70,0,1
90498,-100,4,1,0,70,0,1
90585,-100,4,1,0,70,0,1
90672,-100,4,1,0,70,0,1
90758,-100,4,1,0,70,0,1
90845,-100,4,1,0,70,0,1
91192,-100,4,1,0,70,0,1
91365,-100,4,1,0,70,0,1
91539,-100,4,1,0,70,0,1
91712,-100,4,1,0,70,0,1
91886,-100,4,1,0,70,0,1
92059,-100,4,1,0,70,0,1
92232,-100,4,1,0,70,0,1
92406,-100,4,1,0,70,0,1
92493,-100,4,1,0,70,0,1
92579,-100,4,1,0,70,0,1
92666,-100,4,1,0,70,0,1
92753,-100,4,1,0,70,0,1
92839,-100,4,1,0,70,0,1
92926,-100,4,1,0,70,0,1
93100,-100,4,1,0,70,0,1
93186,-100,4,1,0,70,0,1
93273,-100,4,1,0,70,0,1
93360,-100,4,1,0,70,0,1
93446,-100,4,1,0,70,0,1
93533,-100,4,1,0,70,0,1
93620,-100,4,1,0,70,0,1
93967,-100,4,1,0,70,0,1
94140,-100,4,1,0,70,0,1
94313,-100,4,1,0,70,0,1
94487,-100,4,1,0,70,0,1
94660,-100,4,1,0,70,0,1
94834,-100,4,1,0,70,0,1
95007,-100,4,1,0,70,0,1
95180,-100,4,1,0,70,0,1
95267,-100,4,1,0,70,0,1
95354,-100,4,1,0,70,0,1
95441,-100,4,1,0,70,0,1
95527,-100,4,1,0,70,0,1
95614,-100,4,1,0,70,0,1
95701,-100,4,1,0,70,0,1
95874,-100,4,1,0,70,0,1
95961,-100,4,1,0,70,0,1
96047,-100,4,1,0,70,0,1
96134,-100,4,1,0,70,0,1
96221,-100,4,1,0,70,0,1
96308,-100,4,1,0,70,0,1
96394,-100,4,1,0,70,0,1
96741,-100,4,1,0,70,0,1
96915,-100,4,1,0,70,0,1
97088,-100,4,1,0,70,0,1
97261,-100,4,1,0,70,0,1
97435,-100,4,1,0,70,0,1
97608,-100,4,1,0,70,0,1
97782,-100,4,1,0,70,0,1
97955,-100,4,1,0,70,0,1
98042,-100,4,1,0,70,0,1
98128,-100,4,1,0,70,0,1
98215,-100,4,1,0,70,0,1
98302,-100,4,1,0,70,0,1
98389,-100,4,1,0,70,0,1
98475,-100,4,1,0,70,0,1
98649,-100,4,1,0,70,0,1
98735,-100,4,1,0,70,0,1
98822,-100,4,1,0,70,0,1
98909,-100,4,1,0,70,0,1
98995,-100,4,1,0,70,0,1
99082,-100,4,1,0,70,0,1
99169,-100,4,1,0,70,0,1
99342,-100,4,1,0,70,0,1
99516,-100,4,1,0,70,0,1
99689,-100,4,1,0,70,0,1
99863,-100,4,1,0,70,0,1
100036,-100,4,1,0,70,0,1
100209,-100,4,1,0,70,0,1
100383,-100,4,1,0,70,0,1
100556,-100,4,1,0,70,0,1
100730,-100,4,1,0,70,0,1
100816,-100,4,1,0,70,0,1
100903,-100,4,1,0,70,0,1
100990,-100,4,1,0,70,0,1
101076,-100,4,1,0,70,0,1
101163,-100,4,1,0,70,0,1
101250,-100,4,1,0,70,0,1
101423,-100,4,1,0,70,0,1
101510,-100,4,1,0,70,0,1
101597,-100,4,1,0,70,0,1
101683,-100,4,1,0,70,0,1
101770,-100,4,1,0,70,0,1
101857,-100,4,1,0,70,0,1
101943,-100,4,1,0,70,0,1
102290,-100,4,1,0,70,0,1
102464,-100,4,1,0,70,0,1
102637,-100,4,1,0,70,0,1
102811,-100,4,1,0,70,0,1
102984,-100,4,1,0,70,0,1
103157,-100,4,1,0,70,0,1
103331,-100,4,1,0,70,0,1
108880,-100,4,1,0,70,0,0

[HitObjects]
288,176,2299,5,4,0:0:0:0:
208,160,3005,1,0,0:0:0:0:
208,160,3358,1,8,0:0:0:0:
208,160,3711,1,0,0:0:0:0:
208,160,4064,1,8,0:0:0:0:
176,128,4417,1,0,0:0:0:0:
176,128,4770,1,8,0:0:0:0:
192,128,5123,1,0,0:0:0:0:
192,128,5299,1,8,0:0:0:0:
208,112,5652,1,8,0:0:0:0:
208,112,6005,1,8,0:0:0:0:
128,128,6358,1,8,0:0:0:0:
208,112,6535,1,8,0:0:0:0:
160,64,7240,1,0,0:0:0:0:
256,128,7593,1,8,0:0:0:0:
192,64,7770,1,8,0:0:0:0:
256,128,7946,1,12,0:0:0:0:
256,160,8652,1,0,0:0:0:0:
272,128,9005,1,8,0:0:0:0:
256,160,9358,1,0,0:0:0:0:
288,144,9711,1,8,0:0:0:0:
288,144,10064,1,0,0:0:0:0:
288,144,10417,1,8,0:0:0:0:
288,144,10770,1,0,0:0:0:0:
272,144,10946,1,8,0:0:0:0:
224,32,11299,1,8,0:0:0:0:
304,176,11652,1,8,0:0:0:0:
304,176,12005,1,8,0:0:0:0:
256,176,12182,1,8,0:0:0:0:
256,176,12535,1,0,0:0:0:0:
224,128,12887,1,0,0:0:0:0:
304,80,13593,1,4,0:0:0:0:
256,192,14299,1,0,0:0:0:0:
256,192,14652,1,8,0:0:0:0:
256,192,15005,1,0,0:0:0:0:
256,192,15358,1,8,0:0:0:0:
256,192,15711,1,0,0:0:0:0:
256,192,16064,1,8,0:0:0:0:
256,192,16417,1,0,0:0:0:0:
256,192,16593,1,8,0:0:0:0:
256,192,16946,1,8,0:0:0:0:
256,160,17299,1,8,0:0:0:0:
256,160,17652,1,0,0:0:0:0:
160,96,18005,1,8,0:0:0:0:
192,160,18182,1,0,0:0:0:0:
224,160,18535,1,0,0:0:0:0:
192,128,18887,1,8,0:0:0:0:
384,128,19240,1,0,0:0:0:0:
224,192,19593,1,8,0:0:0:0:
224,192,19770,1,8,0:0:0:0:
256,192,20123,1,0,0:0:0:0:
192,128,20299,1,8,0:0:0:0:
192,128,20652,1,0,0:0:0:0:
224,160,21005,1,8,0:0:0:0:
224,160,21182,1,8,0:0:0:0:
224,160,21535,1,0,0:0:0:0:
320,128,21711,1,8,0:0:0:0:
320,128,22064,1,8,0:0:0:0:
352,128,22417,1,8,0:0:0:0:
352,128,22770,1,8,0:0:0:0:
352,128,23123,1,8,0:0:0:0:
352,128,23476,1,12,0:0:0:0:
416,64,23740,1,12,0:0:0:0:
352,96,24005,1,12,0:0:0:0:
352,96,24270,1,12,0:0:0:0:
352,96,24535,1,12,0:0:0:0:
352,96,24711,1,12,0:0:0:0:
352,96,24887,1,12,0:0:0:0:
224,96,25240,1,8,0:0:0:0:
192,32,25593,1,0,0:0:0:0:
224,192,25946,1,8,0:0:0:0:
256,96,26299,1,0,0:0:0:0:
256,96,26652,1,8,0:0:0:0:
256,96,26829,1,0,0:0:0:0:
256,96,27182,1,0,0:0:0:0:
352,128,27358,1,8,0:0:0:0:
256,96,27711,1,8,0:0:0:0:
128,160,28064,1,8,0:0:0:0:
128,160,28417,1,0,0:0:0:0:
128,160,28770,1,8,0:0:0:0:
224,96,29123,1,0,0:0:0:0:
224,128,29299,1,0,0:0:0:0:
224,32,29652,1,0,0:0:0:0:
224,128,30005,1,0,0:0:0:0:
192,32,30358,1,0,0:0:0:0:
256,160,30535,1,8,0:0:0:0:
256,192,30887,1,8,0:0:0:0:
256,192,31240,1,0,0:0:0:0:
256,192,31593,1,8,0:0:0:0:
256,192,31946,1,0,0:0:0:0:
256,192,32299,1,8,0:0:0:0:
256,192,32476,1,0,0:0:0:0:
256,192,32829,1,0,0:0:0:0:
256,192,33005,1,8,0:0:0:0:
256,192,33358,1,8,0:0:0:0:
256,192,33711,1,8,0:0:0:0:
224,160,34064,1,0,0:0:0:0:
224,160,34417,1,8,0:0:0:0:
224,64,34770,1,0,0:0:0:0:
224,128,35476,1,12,0:0:0:0:
320,128,35829,1,12,0:0:0:0:
320,128,36182,1,0,0:0:0:0:
256,160,36887,1,0,0:0:0:0:
256,160,37064,1,0,0:0:0:0:
256,160,37240,1,8,0:0:0:0:
256,160,37593,1,8,0:0:0:0:
256,128,38299,1,0,0:0:0:0:
256,128,38476,1,8,0:0:0:0:
224,160,38652,1,8,0:0:0:0:
256,128,39005,1,0,0:0:0:0:
256,128,39711,1,0,0:0:0:0:
256,128,40064,1,8,0:0:0:0:
256,96,40417,1,0,0:0:0:0:
256,96,40593,1,0,0:0:0:0:
224,128,40946,1,0,0:0:0:0:
224,128,41299,1,0,0:0:0:0:
224,128,41652,1,0,0:0:0:0:
192,32,41829,1,8,0:0:0:0:
224,128,42535,1,0,0:0:0:0:
224,128,42711,1,0,0:0:0:0:
224,128,42887,1,8,0:0:0:0:
320,160,43240,1,0,0:0:0:0:
224,160,43946,1,0,0:0:0:0:
224,160,44123,1,8,0:0:0:0:
224,160,44299,1,8,0:0:0:0:
224,160,44652,1,0,0:0:0:0:
224,160,45358,1,8,0:0:0:0:
224,160,45535,1,8,0:0:0:0:
224,160,45711,1,8,0:0:0:0:
192,64,46064,1,0,0:0:0:0:
192,96,46240,1,8,0:0:0:0:
192,96,46593,1,8,0:0:0:0:
256,128,46770,1,8,0:0:0:0:
448,64,47123,1,8,0:0:0:0:
416,64,47476,1,12,0:0:0:0:
448,64,48182,1,8,0:0:0:0:
448,64,48535,1,8,0:0:0:0:
384,128,48887,1,0,0:0:0:0:
384,128,49417,1,8,0:0:0:0:
288,96,49593,1,0,0:0:0:0:
288,160,50123,1,0,0:0:0:0:
288,160,50300,1,8,0:0:0:0:
384,96,50829,1,0,0:0:0:0:
384,96,51005,1,8,0:0:0:0:
224,32,51358,1,8,0:0:0:0:
320,96,51711,1,0,0:0:0:0:
320,96,52417,1,8,0:0:0:0:
320,96,52770,1,8,0:0:0:0:
320,96,52946,1,8,0:0:0:0:
320,96,53123,1,0,0:0:0:0:
224,64,53652,1,0,0:0:0:0:
224,96,53829,1,8,0:0:0:0:
256,64,54182,1,8,0:0:0:0:
480,96,54535,1,0,0:0:0:0:
288,160,55064,1,8,0:0:0:0:
288,160,55240,1,0,0:0:0:0:
256,128,55593,1,8,0:0:0:0:
224,32,55946,1,0,0:0:0:0:
256,288,56652,1,8,0:0:0:0:
256,128,56829,1,8,0:0:0:0:
416,64,57005,1,0,0:0:0:0:
224,96,57358,1,0,0:0:0:0:
416,64,58064,1,8,0:0:0:0:
224,160,58417,1,0,0:0:0:0:
384,96,58770,1,4,0:0:0:0:
416,64,59122,1,12,0:0:0:0:
416,64,59828,1,12,0:0:0:0:
416,64,60180,1,0,0:0:0:0:
416,64,60532,1,12,0:0:0:0:
416,64,61237,1,12,0:0:0:0:
256,96,61590,1,0,0:0:0:0:
416,64,61942,1,12,0:0:0:0:
416,64,62646,1,12,0:0:0:0:
256,128,62999,1,0,0:0:0:0:
256,128,63351,1,12,0:0:0:0:
256,128,64055,1,12,0:0:0:0:
256,96,64407,1,0,0:0:0:0:
256,96,64758,1,12,0:0:0:0:
256,96,65462,1,12,0:0:0:0:
224,64,65814,1,0,0:0:0:0:
256,96,66165,1,12,0:0:0:0:
256,96,66868,1,12,0:0:0:0:
352,96,67219,1,0,0:0:0:0:
352,96,67394,1,8,0:0:0:0:
352,96,67745,1,8,0:0:0:0:
352,96,68096,1,8,0:0:0:0:
352,96,68447,1,8,0:0:0:0:
352,96,68797,1,8,0:0:0:0:
352,96,69147,1,8,0:0:0:0:
352,96,69497,1,8,0:0:0:0:
352,96,69847,1,8,0:0:0:0:
352,96,70023,1,0,0:0:0:0:
384,64,70372,1,8,0:0:0:0:
384,64,70721,1,0,0:0:0:0:
352,96,71419,1,12,0:0:0:0:
192,128,71680,1,12,0:0:0:0:
192,128,71941,1,12,0:0:0:0:
224,128,72202,1,12,0:0:0:0:
192,128,72463,1,12,0:0:0:0:
192,128,72637,1,12,0:0:0:0:
192,128,72811,1,12,0:0:0:0:
416,96,73504,1,12,0:0:0:0:
416,96,74198,1,12,0:0:0:0:
256,96,74545,1,0,0:0:0:0:
224,96,74718,1,0,0:0:0:0:
256,128,74891,1,0,0:0:0:0:
256,96,75238,1,8,0:0:0:0:
224,96,75412,1,8,0:0:0:0:
416,96,75585,1,12,0:0:0:0:
416,96,76279,1,12,0:0:0:0:
416,96,76972,1,12,0:0:0:0:
320,128,77319,1,0,0:0:0:0:
192,96,77493,1,8,0:0:0:0:
320,128,77666,1,8,0:0:0:0:
192,96,78013,1,8,0:0:0:0:
192,96,78186,1,8,0:0:0:0:
256,64,78360,1,12,0:0:0:0:
192,96,79053,1,12,0:0:0:0:
192,96,79747,1,12,0:0:0:0:
256,128,80093,1,0,0:0:0:0:
256,128,80267,1,8,0:0:0:0:
192,128,80441,1,0,0:0:0:0:
192,128,80787,1,8,0:0:0:0:
192,128,80961,1,8,0:0:0:0:
192,96,81134,1,12,0:0:0:0:
192,96,81828,1,12,0:0:0:0:
160,32,82521,1,12,0:0:0:0:
128,128,82868,1,0,0:0:0:0:
128,128,83042,1,8,0:0:0:0:
256,96,83215,1,8,0:0:0:0:
128,128,83562,1,8,0:0:0:0:
128,128,83735,1,8,0:0:0:0:
128,128,83909,1,12,0:0:0:0:
128,128,84602,1,12,0:0:0:0:
128,128,85296,1,12,0:0:0:0:
128,128,85643,1,8,0:0:0:0:
160,96,85816,1,8,0:0:0:0:
224,96,85990,1,8,0:0:0:0:
96,96,86163,1,0,0:0:0:0:
160,96,86337,1,8,0:0:0:0:
160,96,86683,1,12,0:0:0:0:
128,128,87377,1,12,0:0:0:0:
128,128,88071,1,12,0:0:0:0:
224,32,88417,1,8,0:0:0:0:
224,0,88591,1,0,0:0:0:0:
224,128,88764,1,0,0:0:0:0:
224,128,88938,1,8,0:0:0:0:
224,128,89111,1,8,0:0:0:0:
256,128,89458,1,12,0:0:0:0:
128,128,90152,1,12,0:0:0:0:
128,128,90845,1,12,0:0:0:0:
288,96,91192,1,0,0:0:0:0:
160,96,91365,1,8,0:0:0:0:
288,128,91539,1,0,0:0:0:0:
160,96,91712,1,8,0:0:0:0:
160,96,91886,1,8,0:0:0:0:
160,96,92232,1,12,0:0:0:0:
128,128,92926,1,12,0:0:0:0:
128,128,93620,1,12,0:0:0:0:
128,128,93967,1,0,0:0:0:0:
160,96,94140,1,8,0:0:0:0:
160,128,94313,1,0,0:0:0:0:
160,128,94487,1,0,0:0:0:0:
160,128,94660,1,8,0:0:0:0:
160,96,95007,1,12,0:0:0:0:
128,128,95701,1,12,0:0:0:0:
128,128,96394,1,12,0:0:0:0:
128,128,96741,1,0,0:0:0:0:
160,96,96914,1,8,0:0:0:0:
192,96,97088,1,0,0:0:0:0:
160,96,97261,1,8,0:0:0:0:
192,96,97435,1,8,0:0:0:0:
160,96,97782,1,12,0:0:0:0:
128,128,98475,1,12,0:0:0:0:
128,128,99169,1,12,0:0:0:0:
128,128,99516,1,8,0:0:0:0:
160,96,99689,1,0,0:0:0:0:
160,96,99863,1,8,0:0:0:0:
160,96,100036,1,0,0:0:0:0:
160,96,100209,1,0,0:0:0:0:
160,96,100556,1,12,0:0:0:0:
128,128,101250,1,12,0:0:0:0:
128,128,101944,1,12,0:0:0:0:
128,128,102291,1,0,0:0:0:0:
160,96,102464,1,8,0:0:0:0:
160,96,102638,1,0,0:0:0:0:
160,96,102811,1,0,0:0:0:0:
160,96,102985,1,8,0:0:0:0:
160,96,103331,1,12,0:0:0:0:
192,160,103678,1,0,0:0:0:0:
128,128,104024,1,12,0:0:0:0:
192,160,104371,1,0,0:0:0:0:
128,128,104718,1,12,0:0:0:0:
128,128,105065,1,8,0:0:0:0:
224,96,105238,1,8,0:0:0:0:
160,96,105412,1,0,0:0:0:0:
224,32,105585,1,0,0:0:0:0:
224,32,105758,1,8,0:0:0:0:
384,96,106105,1,12,0:0:0:0:
256,192,106279,12,0,108880,0:0:0:0:
