osu file format v14

[General]
AudioFilename: audio.mp3
AudioLeadIn: 0
PreviewTime: 70888
Countdown: 0
SampleSet: Soft
StackLeniency: 0.7
Mode: 0
LetterboxInBreaks: 0
WidescreenStoryboard: 1

[Editor]
Bookmarks: 111563
DistanceSpacing: 0.2
BeatDivisor: 4
GridSize: 32
TimelineZoom: 2.899999

[Metadata]
Title:Brain Power
TitleUnicode:Brain Power
Artist:NOMA
ArtistUnicode:ノマ
Creator:Monstrata
Version:Pentori's Another
Source:SOUND VOLTEX II -infinite infection-
Tags:rizen a q p w nhawak kuron-kun gero doormat dailycare rohit6 haruto haruto_aizawa pentori snownino_ sdvx museca
BeatmapID:1183811
BeatmapSetID:546384

[Difficulty]
HPDrainRate:6
CircleSize:4
OverallDifficulty:8.2
ApproachRate:9.2
SliderMultiplier:1.75999990463257
SliderTickRate:1

[Events]
//Background and Video events
0,0,"Brain Power.png",0,0
//Break Periods
//Storyboard Layer 0 (Background)
//Storyboard Layer 1 (Fail)
//Storyboard Layer 2 (Pass)
//Storyboard Layer 3 (Foreground)
//Storyboard Sound Samples

[TimingPoints]
2207,352.941176470588,4,2,3,70,1,0
12618,-50,4,2,3,70,0,0
13501,-100,4,2,3,70,0,0
19324,-100,4,2,3,40,0,0
19501,-100,4,2,3,70,0,0
19677,-100,4,2,3,40,0,0
19854,-100,4,2,3,70,0,0
22677,-50,4,2,3,80,0,0
23383,-50,4,2,3,70,0,0
23559,-50,4,2,3,5,0,0
23648,-50,4,2,3,70,0,0
23824,-50,4,2,3,5,0,0
23912,-50,4,2,3,70,0,0
24089,-50,4,2,3,5,0,0
24177,-50,4,2,3,70,0,0
24354,-50,4,2,3,5,0,0
24442,-50,4,2,3,70,0,0
24530,-50,4,2,3,5,0,0
24618,-50,4,2,3,70,0,0
24706,-50,4,2,3,5,0,0
24795,-100,4,2,3,70,0,0
35030,-50,4,2,3,70,0,0
35383,-100,4,2,3,70,0,0
47383,-125,4,2,3,70,0,0
48089,-83.3333333333333,4,2,3,70,0,0
49501,-125,4,2,3,70,0,0
50912,-83.3333333333333,4,2,3,70,0,0
51618,-125,4,2,3,70,0,0
53736,-83.3333333333333,4,2,3,70,0,0
54442,-125,4,2,3,70,0,0
55148,-83.3333333333333,4,2,3,70,0,0
55854,-100,4,2,3,70,0,0
58324,-166.666666666667,4,2,3,70,0,0
58677,-100,4,2,3,70,0,0
64324,350.877192982456,4,2,3,70,1,0
68534,348.837209302326,4,2,3,70,1,0
70627,-50,4,2,3,70,0,0
71324,-62.5,4,2,3,60,0,0
71499,-62.5,4,2,3,5,0,0
71586,-62.5,4,2,3,60,0,0
71760,-62.5,4,2,3,5,0,0
71847,-52.6315789473684,4,2,3,70,0,0
72022,-52.6315789473684,4,2,3,5,0,0
72109,-52.6315789473684,4,2,3,80,0,0
72284,-52.6315789473684,4,2,3,5,0,0
72371,-71.4285714285714,4,2,3,80,0,0
72458,-71.4285714285714,4,2,3,5,0,0
72545,-71.4285714285714,4,2,3,80,0,0
72632,-71.4285714285714,4,2,3,5,0,0
72720,346.820809248555,4,2,3,80,1,1
72720,-83.3333333333333,4,2,3,80,0,1
105321,-41.6666666666667,4,2,3,80,0,1
106014,-83.3333333333333,4,2,3,80,0,0
111563,-83.3333333333333,4,2,3,5,0,0

[Colours]
Combo1 : 0,128,192
Combo2 : 128,0,255
Combo3 : 187,119,255
Combo4 : 128,255,255

[HitObjects]
215,14,2207,6,0,P|185:54|186:108,1,87.9999952316285,4|0,3:2|0:0,0:0:0:0:
290,103,2471,1,0,0:0:0:0:
269,82,2559,2,0,B|172:56|203:121|89:98,1,175.999990463257,8|0,3:2|3:0,0:0:0:0:
208,310,3089,2,0,L|217:254,1,43.9999976158143,0|0,0:0|0:0,0:0:0:0:
233,166,3265,1,8,3:2:0:0:
43,277,3442,2,0,L|36:233,1,43.9999976158143,0|0,0:0|0:0,0:0:0:0:
18,133,3618,6,0,P|12:89|34:40,1,87.9999952316285,0|0,3:0|0:0,0:0:0:0:
187,108,3971,2,0,L|90:99,1,87.9999952316285,8|0,3:2|0:0,0:0:0:0:
259,56,4236,1,0,0:0:0:0:
259,56,4324,2,0,P|272:93|267:132,1,43.9999976158143,0|0,3:0|0:0,0:0:0:0:
231,183,4501,2,0,P|193:193|154:184,1,43.9999976158143,0|0,0:0|0:0,0:0:0:0:
325,176,4677,2,0,P|352:220|346:266,1,87.9999952316285,8|0,3:2|0:0,0:0:0:0:
231,318,4942,1,0,0:0:0:0:
254,338,5030,6,0,B|306:333|306:333|336:343|336:343|408:337,1,131.999992847443,0|0,3:0|0:0,0:0:0:0:
410,354,5383,1,8,3:2:0:0:
472,153,5559,1,2,0:0:0:0:
472,153,5648,1,0,0:0:0:0:
472,153,5736,2,0,B|485:196|485:196|475:237,1,87.9999952316285,0|2,3:0|0:0,0:0:0:0:
261,97,6089,2,0,B|250:55|250:55|264:12,1,87.9999952316285,8|2,3:2|0:0,0:0:0:0:
398,197,6442,6,0,L|282:183,1,87.9999952316285,0|2,3:0|0:0,0:0:0:0:
241,305,6706,1,0,0:0:0:0:
241,305,6795,2,0,L|328:294,1,87.9999952316285,8|2,3:2|0:0,0:0:0:0:
143,264,7059,1,0,0:0:0:0:
143,264,7148,2,0,L|134:327,1,43.9999976158143,0|0,3:0|0:0,0:0:0:0:
228,200,7324,2,0,L|221:156,1,43.9999976158143,2|0,0:0|0:0,0:0:0:0:
241,305,7501,5,8,3:2:0:0:
208,51,7677,1,2,3:2:0:0:
39,120,7854,6,0,P|87:106|143:128,1,87.9999952316285,0|2,3:0|0:0,0:0:0:0:
292,57,8206,2,0,P|249:65|208:51,1,87.9999952316285,8|2,0:0|0:0,0:0:0:0:
187,27,8471,1,0,0:0:0:0:
187,27,8559,1,0,3:0:0:0:
298,198,8736,1,2,0:0:0:0:
392,16,8912,2,0,P|416:72|403:118,1,87.9999952316285,8|2,0:0|0:0,0:0:0:0:
324,182,9177,1,0,0:0:0:0:
298,198,9265,6,0,B|251:194|224:159|224:159|182:186|125:172,1,175.999990463257,0|8,3:0|0:0,0:0:0:0:
157,46,9795,2,0,L|167:101,1,43.9999976158143,2|0,0:0|0:0,0:0:0:0:
207,251,9971,1,0,3:0:0:0:
307,67,10148,2,0,L|297:122,1,43.9999976158143,2|0,0:0|0:0,0:0:0:0:
214,271,10324,1,8,0:0:0:0:
66,120,10501,1,0,0:0:0:0:
66,120,10589,1,0,0:0:0:0:
66,120,10677,6,0,P|23:178|45:254,1,131.999992847443,0|0,3:0|0:0,0:0:0:0:
55,252,11030,1,8,0:0:0:0:
235,89,11206,1,2,0:0:0:0:
238,101,11295,1,0,0:0:0:0:
241,113,11383,1,0,3:0:0:0:
104,195,11559,1,2,0:0:0:0:
295,247,11736,2,0,L|393:234,1,87.9999952316285,8|2,0:0|0:0,0:0:0:0:
180,367,12089,6,0,B|189:267,1,87.9999952316285,0|2,3:0|0:0,0:0:0:0:
139,101,12442,1,8,0:0:0:0:
324,183,12618,2,0,B|293:177|293:177|267:185|267:185|219:176,1,87.9999952316285,2|2,0:3|0:3,0:0:0:0:
382,235,12795,6,0,B|362:211|356:184|356:184|363:149|395:125,2,117.333326975505,0|2|2,3:0|0:0|0:0,0:0:0:0:
479,55,13148,1,8,3:2:0:0:
509,218,13324,2,0,L|465:211,2,43.9999976158143,2|0|2,0:3|0:0|0:3,0:0:0:0:
443,188,13501,6,0,B|409:155|362:161|362:161|321:191|256:172,1,175.999990463257,0|8,3:0|0:0,0:0:0:0:
272,15,14030,1,2,0:0:0:0:
272,15,14118,1,0,0:0:0:0:
272,15,14206,2,0,P|305:66|299:109,1,87.9999952316285,0|2,3:0|0:0,0:0:0:0:
105,139,14559,2,0,P|152:126|208:147,1,87.9999952316285,8|2,0:0|0:0,0:0:0:0:
139,306,14912,6,0,L|153:210,1,87.9999952316285,0|2,3:0|0:0,0:0:0:0:
92,52,15265,2,0,L|104:139,1,87.9999952316285,8|2,0:0|0:0,0:0:0:0:
40,189,15530,1,0,0:0:0:0:
40,189,15618,2,0,L|-26:178,1,43.9999976158143,0|0,3:0|0:0,0:0:0:0:
152,219,15795,2,0,L|218:208,1,43.9999976158143,2|0,0:0|0:0,0:0:0:0:
70,300,15971,1,8,0:0:0:0:
199,123,16148,1,2,0:0:0:0:
287,323,16324,6,0,L|188:308,1,87.9999952316285,0|2,3:0|0:0,0:0:0:0:
364,270,16589,1,0,0:0:0:0:
364,270,16677,2,0,P|383:325|370:367,1,87.9999952316285,8|2,0:0|0:0,0:0:0:0:
280,230,16942,1,0,0:0:0:0:
280,230,17030,2,0,L|289:130,1,87.9999952316285,0|2,3:0|0:0,0:0:0:0:
479,24,17383,2,0,L|470:124,1,87.9999952316285,8|2,0:0|0:0,0:0:0:0:
391,220,17648,1,0,0:0:0:0:
374,193,17736,6,0,L|385:61,1,131.999992847443,0|0,3:0|0:0,0:0:0:0:
368,34,18089,1,8,0:0:0:0:
486,194,18265,1,2,0:0:0:0:
287,142,18442,2,0,P|243:132|185:158,1,87.9999952316285,0|2,3:0|0:0,0:0:0:0:
116,247,18795,5,8,3:2:0:0:
368,312,18971,1,2,3:2:0:0:
206,356,19148,6,0,L|212:301,3,43.9999976158143,4|0|2|0,3:2|3:0|3:2|3:0,0:0:0:0:
272,245,19501,2,0,L|266:190,3,43.9999976158143,8|0|2|0,3:2|3:0|3:2|3:0,0:0:0:0:
205,133,19854,2,0,P|180:126|146:134,3,43.9999976158143,0|0|2|0,3:0|3:0|3:2|3:0,0:0:0:0:
330,132,20206,2,0,P|355:125|389:133,3,43.9999976158143,8|0|0|0,3:2|3:0|3:0|3:0,0:0:0:0:
439,185,20559,5,4,3:2:0:0:
436,202,20647,1,0,3:0:0:0:
433,219,20735,1,2,3:2:0:0:
431,237,20823,1,0,3:0:0:0:
428,254,20911,1,0,0:0:0:0:
426,272,21000,1,0,3:0:0:0:
423,289,21088,1,2,3:2:0:0:
421,306,21176,1,0,3:0:0:0:
419,323,21265,5,4,3:2:0:0:
395,302,21353,1,0,3:0:0:0:
367,291,21441,1,2,3:2:0:0:
336,289,21529,1,0,3:0:0:0:
307,298,21617,1,8,3:2:0:0:
283,318,21706,1,0,3:0:0:0:
255,329,21794,1,0,3:0:0:0:
224,331,21882,1,0,3:0:0:0:
195,322,21971,6,0,L|189:260,1,43.9999976158143,4|0,3:2|3:0,0:0:0:0:
273,188,22148,1,2,3:2:0:0:
273,188,22236,1,0,3:0:0:0:
273,188,22324,2,0,L|216:162,1,43.9999976158143,12|0,3:2|3:0,0:0:0:0:
195,53,22501,1,0,3:0:0:0:
195,53,22589,1,0,3:0:0:0:
195,53,22677,2,0,L|144:89,6,43.9999976158143,12|0|0|0|0|0|0,3:2|0:0|3:2|0:0|3:2|0:0|3:2,0:0:0:0:
266,13,23030,5,12,3:2:0:0:
309,20,23118,1,0,3:0:0:0:
352,27,23206,1,0,3:0:0:0:
396,34,23294,1,0,3:0:0:0:
439,42,23383,5,2,3:0:0:0:
186,166,23648,5,2,3:0:0:0:
420,324,23912,5,2,3:0:0:0:
276,31,24177,5,6,3:0:0:0:
257,312,24442,5,2,3:2:0:0:
510,188,24618,1,2,3:2:0:0:
387,110,24795,6,0,L|394:210,1,87.9999952316285,4|2,3:2|0:0,0:0:0:0:
501,278,25148,1,8,0:0:0:0:
451,45,25324,1,2,0:0:0:0:
451,45,25412,1,0,0:0:0:0:
451,45,25501,2,0,P|410:20|364:21,1,87.9999952316285,0|2,3:0|0:0,0:0:0:0:
196,148,25854,2,0,P|241:131|285:141,1,87.9999952316285,8|2,0:0|0:0,0:0:0:0:
167,271,26118,1,0,0:0:0:0:
149,246,26206,6,0,B|172:142|172:142|141:70,1,175.999990463257,0|8,3:0|0:0,0:0:0:0:
246,219,26736,1,2,0:0:0:0:
0,164,26912,2,0,L|94:152,1,87.9999952316285,0|2,3:0|0:0,0:0:0:0:
232,89,27177,1,0,0:0:0:0:
232,89,27265,2,0,L|138:77,1,87.9999952316285,8|2,0:0|0:0,0:0:0:0:
364,16,27618,6,0,P|341:65|359:128,1,87.9999952316285,0|2,3:0|0:0,0:0:0:0:
420,267,27971,1,8,0:0:0:0:
467,186,28148,1,2,0:0:0:0:
467,186,28236,1,0,0:0:0:0:
467,186,28324,2,0,B|405:176|405:176|359:190|359:190|258:173,1,175.999990463257,0|8,3:0|0:0,0:0:0:0:
144,77,28854,1,2,0:0:0:0:
144,77,28942,1,0,0:0:0:0:
144,77,29030,6,0,L|151:171,1,87.9999952316285,0|2,3:0|0:0,0:0:0:0:
0,298,29383,2,0,L|6:210,1,87.9999952316285,8|2,0:0|0:0,0:0:0:0:
151,254,29648,1,0,0:0:0:0:
151,254,29736,2,0,L|107:261,1,43.9999976158143,0|0,3:0|0:0,0:0:0:0:
5,120,29912,2,0,L|48:127,1,43.9999976158143,2|0,0:0|0:0,0:0:0:0:
144,77,30089,5,8,3:2:0:0:
0,298,30265,1,2,3:2:0:0:
234,288,30442,6,0,P|241:239|214:189,1,87.9999952316285,0|0,3:0|0:0,0:0:0:0:
330,370,30795,1,8,0:0:0:0:
151,254,30971,1,2,0:0:0:0:
363,145,31148,2,0,L|295:132,1,43.9999976158143,0|0,3:0|0:0,0:0:0:0:
229,111,31324,1,2,0:0:0:0:
451,200,31501,2,0,L|444:104,1,87.9999952316285,8|2,0:0|0:0,0:0:0:0:
511,17,31765,1,0,0:0:0:0:
496,44,31854,6,0,P|439:68|332:-3,1,175.999990463257,0|8,3:0|0:0,0:0:0:0:
194,122,32383,1,2,0:0:0:0:
194,122,32471,1,0,0:0:0:0:
194,122,32559,2,0,P|239:104|290:117,1,87.9999952316285,0|2,3:0|0:0,0:0:0:0:
346,189,32824,1,0,0:0:0:0:
346,189,32912,2,0,L|339:276,1,87.9999952316285,8|2,0:0|0:0,0:0:0:0:
474,364,33265,6,0,P|519:307|494:226,1,131.999992847443,0|0,3:0|0:0,0:0:0:0:
497,224,33618,1,8,0:0:0:0:
327,288,33795,1,2,0:0:0:0:
428,65,33971,2,0,L|435:152,1,87.9999952316285,0|2,3:0|0:0,0:0:0:0:
242,301,34324,2,0,P|240:279|246:257,1,43.9999976158143,8|0,0:0|0:0,0:0:0:0:
320,204,34501,2,0,P|341:204|363:211,1,43.9999976158143,2|0,0:0|0:0,0:0:0:0:
324,373,34677,2,0,B|337:332|337:332|325:278,1,87.9999952316285,2|0,0:3|0:0,0:0:0:0:
201,135,35030,6,0,B|162:129|162:129|126:142|126:142|56:134,2,117.333326975505,2|2|2,0:0|0:0|0:0,0:0:0:0:
92,15,35383,6,0,B|65:75|65:75|91:149,1,131.999992847443,2|0,3:0|0:0,0:0:0:0:
196,257,35736,2,0,B|223:197|223:197|197:123,1,131.999992847443,2|0,3:0|0:0,0:0:0:0:
142,194,36089,6,0,L|154:327,1,131.999992847443,0|0,3:0|0:0,0:0:0:0:
139,353,36442,1,8,0:0:0:0:
353,236,36618,1,2,0:0:0:0:
353,236,36706,1,0,0:0:0:0:
353,236,36795,2,0,L|265:224,1,87.9999952316285,0|2,3:0|0:0,0:0:0:0:
93,127,37148,2,0,P|148:111|202:137,1,87.9999952316285,8|2,0:0|0:0,0:0:0:0:
241,244,37412,1,0,0:0:0:0:
265,224,37501,6,0,L|285:26,1,175.999990463257,0|8,3:0|0:0,0:0:0:0:
142,194,38030,1,2,0:0:0:0:
380,140,38206,1,0,3:0:0:0:
155,15,38383,1,2,0:0:0:0:
159,26,38472,1,0,0:0:0:0:
164,37,38560,1,8,0:0:0:0:
241,244,38736,1,2,0:0:0:0:
473,107,38912,6,0,P|430:55|311:69,1,175.999990463257,0|8,3:0|0:0,0:0:0:0:
434,212,39442,1,2,0:0:0:0:
434,212,39530,1,0,0:0:0:0:
434,212,39618,2,0,L|524:203,1,87.9999952316285,0|2,3:0|0:0,0:0:0:0:
380,140,39883,1,0,0:0:0:0:
380,140,39971,2,0,P|348:187|352:238,1,87.9999952316285,8|2,0:0|0:0,0:0:0:0:
465,360,40324,5,0,3:0:0:0:
207,284,40501,1,2,0:0:0:0:
380,318,40677,2,0,L|292:326,1,87.9999952316285,8|2,0:0|0:0,0:0:0:0:
211,288,40942,1,0,0:0:0:0:
211,288,41030,2,0,P|195:233|221:179,1,87.9999952316285,0|2,3:0|0:0,0:0:0:0:
447,217,41383,5,8,3:2:0:0:
212,112,41559,1,2,3:2:0:0:
311,334,41736,6,0,L|305:233,1,87.9999952316285,0|2,3:0|0:0,0:0:0:0:
375,177,42001,1,0,0:0:0:0:
375,177,42089,2,0,L|381:76,1,87.9999952316285,8|2,0:0|0:0,0:0:0:0:
157,19,42442,2,0,P|206:0|250:8,1,87.9999952316285,0|2,3:0|0:0,0:0:0:0:
122,105,42706,1,0,0:0:0:0:
122,105,42795,2,0,P|78:108|38:90,1,87.9999952316285,8|2,0:0|0:0,0:0:0:0:
215,92,43148,6,0,P|253:157|222:232,1,131.999992847443,0|0,3:0|0:0,0:0:0:0:
215,225,43501,1,8,0:0:0:0:
395,141,43677,1,2,0:0:0:0:
316,367,43854,2,0,P|299:313|313:265,1,87.9999952316285,0|2,3:0|0:0,0:0:0:0:
476,261,44206,2,0,P|493:315|479:363,1,87.9999952316285,8|2,0:0|0:0,0:0:0:0:
396,314,44471,1,0,0:0:0:0:
396,314,44559,6,0,B|388:248|388:248|402:211|402:211|394:136,1,175.999990463257,0|8,3:0|0:0,0:0:0:0:
476,261,45089,1,0,0:0:0:0:
314,194,45265,2,0,L|201:204,1,87.9999952316285,0|2,3:0|0:0,0:0:0:0:
367,54,45618,2,0,L|480:64,1,87.9999952316285,8|2,0:0|0:0,0:0:0:0:
250,18,45971,6,0,L|257:105,1,87.9999952316285,0|2,3:0|0:0,0:0:0:0:
230,205,46236,1,0,0:0:0:0:
230,205,46324,2,0,P|168:188|125:205,1,87.9999952316285,8|2,0:0|0:0,0:0:0:0:
39,354,46677,6,0,L|51:220,1,117.333326975505,2|0,3:3|3:0,0:0:0:0:
138,294,47030,2,0,P|166:298|195:292,2,58.6666634877523,2|2|2,3:0|3:0|3:0,0:0:0:0:
146,193,47383,6,0,B|132:53|132:53|152:97|198:101,1,211.199988555908,4|0,3:2|0:0,0:0:0:0:
282,22,48089,6,0,P|246:13|187:33,2,70.3999940368655,8|2|2,0:0|0:3|0:3,0:0:0:0:
365,158,48442,6,0,L|392:105,1,52.7999955276491,2|0,0:3|0:0,0:0:0:0:
325,237,48618,2,0,L|357:286,1,52.7999955276491,2|0,0:3|0:0,0:0:0:0:
277,163,48795,6,0,B|249:171|217:158|217:158|185:172|185:172|154:159|112:166,2,158.399986582947,2|2|2,3:1|0:1|0:1,0:0:0:0:
414,233,49501,6,0,P|453:174|432:98,1,140.799992370606,8|0,0:0|0:0,0:0:0:0:
317,242,50030,1,2,0:0:0:0:
317,242,50118,1,0,0:0:0:0:
317,242,50206,2,0,L|323:339,1,70.3999961853028,0|2,3:2|0:0,0:0:0:0:
365,158,50559,2,0,P|329:143|281:149,1,70.3999961853028,2|2,0:1|0:0,0:0:0:0:
190,196,50912,6,0,L|194:131,1,52.7999955276491,8|0,0:0|0:0,0:0:0:0:
91,252,51089,2,0,L|95:187,1,52.7999955276491,2|0,0:3|0:0,0:0:0:0:
11,145,51265,2,0,L|15:80,1,52.7999955276491,2|0,0:3|0:0,0:0:0:0:
111,26,51442,5,2,0:3:0:0:
111,26,51530,1,0,0:0:0:0:
111,26,51618,2,0,P|147:11|195:17,1,70.3999961853028,2|0,3:1|0:0,0:0:0:0:
390,87,51971,1,2,0:3:0:0:
190,196,52148,1,2,0:3:0:0:
309,23,52324,5,8,3:2:0:0:
305,54,52412,1,0,3:0:0:0:
302,86,52500,1,0,3:0:0:0:
299,117,52588,1,2,0:3:0:0:
273,149,52677,5,2,0:0:0:0:
275,171,52765,1,2,0:0:0:0:
277,193,52853,1,2,0:0:0:0:
280,216,52941,1,2,0:0:0:0:
283,239,53030,6,0,B|339:253|384:218|384:218|418:274|493:277,1,211.199988555908,2|0,3:0|0:0,0:0:0:0:
458,35,53736,6,0,B|502:102|502:102|473:182,2,158.399986582947,8|2|2,0:0|0:1|0:1,0:0:0:0:
315,151,54442,6,0,B|252:175|198:129|198:129|150:155|151:208,1,211.199988555908,4|0,3:0|0:0,0:0:0:0:
270,69,55148,6,0,L|260:-21,2,70.3999940368655,2|2|2,0:3|0:3|0:3,0:0:0:0:
344,230,55501,2,0,P|392:182|379:97,1,158.399986582947,2|0,0:3|0:0,0:0:0:0:
389,68,55854,5,2,3:1:0:0:
190,234,56030,1,2,0:0:0:0:
190,234,56118,1,0,0:0:0:0:
190,234,56206,2,0,L|252:241,1,43.9999976158143,2|0,0:1|0:0,0:0:0:0:
315,151,56383,2,0,L|271:146,1,43.9999976158143,2|0,0:1|0:0,0:0:0:0:
119,167,56559,2,0,B|161:233|161:233|144:341,1,175.999990463257,8|2,0:0|0:3,0:0:0:0:
328,237,57089,1,2,0:3:0:0:
328,237,57177,1,0,0:0:0:0:
328,237,57265,6,0,L|312:134,1,87.9999952316285,0|2,3:0|0:0,0:0:0:0:
419,56,57618,2,0,L|505:69,2,58.6666634877523,2|2|2,0:1|0:1|0:1,0:0:0:0:
336,13,57971,5,8,0:0:0:0:
309,17,58059,1,2,0:3:0:0:
283,21,58147,1,2,0:3:0:0:
257,25,58235,1,2,0:3:0:0:
231,29,58324,2,0,L|137:14,1,79.1999932914737,2|2,0:1|0:0,0:0:0:0:
98,97,58677,6,0,P|173:52|262:89,1,175.999990463257,4|8,3:2|0:0,0:0:0:0:
173,241,59206,1,2,0:0:0:0:
173,241,59295,1,0,0:0:0:0:
173,241,59383,2,0,L|183:143,1,87.9999952316285,0|2,3:0|0:0,0:0:0:0:
321,3,59736,1,8,0:0:0:0:
194,30,59912,1,2,0:0:0:0:
391,156,60089,6,0,L|492:144,1,87.9999952316285,0|2,3:0|0:0,0:0:0:0:
364,238,60354,1,0,0:0:0:0:
364,238,60442,2,0,P|329:218|312:190,1,43.9999976158143,8|0,0:0|0:0,0:0:0:0:
312,120,60618,2,0,P|335:87|365:73,1,43.9999976158143,2|0,0:0|0:0,0:0:0:0:
247,179,60795,2,0,L|146:167,1,87.9999952316285,0|2,3:0|0:0,0:0:0:0:
6,254,61148,1,8,0:0:0:0:
92,313,61324,1,2,0:0:0:0:
88,305,61412,1,0,0:0:0:0:
84,297,61501,6,0,B|114:212|50:212|85:115,1,175.999990463257,0|8,3:0|0:0,0:0:0:0:
182,26,62030,2,0,L|175:79,1,43.9999976158143,2|0,0:0|0:0,0:0:0:0:
159,168,62206,1,0,3:0:0:0:
309,257,62383,2,0,L|302:204,1,43.9999976158143,2|0,0:0|0:0,0:0:0:0:
286,115,62559,1,8,0:0:0:0:
211,292,62736,1,2,0:0:0:0:
462,167,62912,6,0,L|366:155,1,87.9999952316285,0|2,3:0|0:0,0:0:0:0:
290,119,63177,1,0,0:0:0:0:
290,119,63265,2,0,B|275:78|275:78|285:34,1,87.9999952316285,8|2,0:0|0:0,0:0:0:0:
189,157,63618,2,0,P|163:169|131:168,1,43.9999976158143,0|0,3:0|0:0,0:0:0:0:
58,139,63795,2,0,P|40:116|33:85,1,43.9999976158143,2|0,0:0|0:0,0:0:0:0:
133,68,63971,5,8,3:2:0:0:
56,299,64148,1,2,3:2:0:0:
243,230,64324,6,0,P|271:275|264:327,1,87.9999952316285,0|2,3:0|0:0,0:0:0:0:
174,376,64587,1,0,0:0:0:0:
196,355,64674,2,0,L|387:331,1,175.999990463257,8|0,0:0|3:0,0:0:0:0:
499,367,65201,1,2,0:0:0:0:
426,155,65376,2,0,P|398:200|405:252,1,87.9999952316285,8|2,0:0|0:0,0:0:0:0:
464,74,65727,6,0,B|374:47|389:109|270:75,1,175.999990463257,0|8,3:0|0:0,0:0:0:0:
127,31,66253,1,2,0:0:0:0:
205,188,66429,2,0,L|198:86,1,87.9999952316285,0|2,3:0|0:0,0:0:0:0:
131,35,66692,1,0,0:0:0:0:
131,35,66780,2,0,P|87:18|29:36,1,87.9999952316285,8|2,0:0|0:0,0:0:0:0:
220,2,67131,5,0,3:0:0:0:
81,102,67306,1,2,0:0:0:0:
296,155,67481,2,0,L|393:141,1,87.9999952316285,8|2,0:0|0:0,0:0:0:0:
237,81,67745,1,0,0:0:0:0:
237,81,67832,2,0,P|207:115|200:162,1,87.9999952316285,0|2,3:0|0:0,0:0:0:0:
307,267,68183,1,8,0:0:0:0:
424,56,68359,1,2,0:0:0:0:
490,246,68534,6,0,L|393:232,1,87.9999952316285,2|2,3:0|0:0,0:0:0:0:
311,271,68795,1,0,0:0:0:0:
311,271,68882,2,0,B|296:312|296:312|306:356,1,87.9999952316285,8|2,0:0|0:0,0:0:0:0:
418,140,69231,2,0,B|433:99|433:99|423:55,1,87.9999952316285,0|2,3:0|0:0,0:0:0:0:
474,349,69580,5,8,0:0:0:0:
346,93,69754,1,2,3:2:0:0:
189,332,69929,5,0,3:0:0:0:
394,265,70103,1,2,3:2:0:0:
120,220,70278,5,8,3:2:0:0:
345,362,70452,1,2,3:2:0:0:
346,93,70627,6,0,L|352:45,2,43.9999976158143,8|8|8,3:2|3:2|3:2,0:0:0:0:
390,178,70801,5,8,3:2:0:0:
364,182,70888,1,8,3:2:0:0:
338,186,70975,1,8,3:2:0:0:
312,190,71062,1,8,3:2:0:0:
286,194,71150,1,8,3:2:0:0:
260,198,71237,1,8,3:2:0:0:
234,202,71324,6,0,B|240:150|240:150|229:121|229:121|235:63,1,140.799992370606,8|0,3:2|0:0,0:0:0:0:
152,167,71586,2,0,P|199:223|181:303,1,140.799992370606,8|0,3:2|0:0,0:0:0:0:
1,260,71847,6,0,B|119:245|119:245|77:281,1,167.199986475373,8|0,3:2|0:0,0:0:0:0:
273,303,72109,2,0,B|155:318|155:318|197:282,1,167.199986475373,8|0,3:2|0:0,0:0:0:0:
69,102,72371,6,0,L|59:182,1,61.5999947822573,8|0,3:2|0:0,0:0:0:0:
184,348,72545,2,0,L|191:286,1,61.5999947822573,8|0,2:3|0:0,0:0:0:0:
263,122,72720,6,0,B|355:101|330:160|433:138,1,158.399986582947,6|0,3:2|0:0,0:0:0:0:
409,11,73066,2,0,P|393:52|400:82,1,52.7999955276491,8|0,0:0|0:0,0:0:0:0:
487,191,73240,2,0,P|500:168|502:142,1,52.7999955276491,2|2,0:0|0:0,0:0:0:0:
416,141,73413,1,2,3:0:0:0:
372,158,73499,1,2,0:3:0:0:
347,198,73586,1,2,0:0:0:0:
351,244,73673,1,2,0:0:0:0:
381,280,73760,1,8,3:2:0:0:
341,256,73846,1,2,0:3:0:0:
294,253,73933,1,2,0:0:0:0:
251,273,74020,1,2,0:0:0:0:
222,310,74107,6,0,P|168:318|144:303,1,52.7999955276491,2|0,3:0|0:0,0:0:0:0:
18,248,74280,2,0,P|44:246|68:257,1,52.7999955276491,2|0,0:0|0:0,0:0:0:0:
184,206,74454,1,10,3:2:0:0:
27,338,74627,1,2,0:0:0:0:
9,117,74800,1,2,3:0:0:0:
172,319,74974,5,2,0:0:0:0:
128,70,75147,1,8,3:2:0:0:
18,248,75321,1,2,0:0:0:0:
260,192,75494,6,0,B|219:181|184:206|184:206|149:173|95:182,1,158.399986582947,2|2,3:0|0:0,0:0:0:0:
238,273,75841,2,0,P|252:305|247:337,1,52.7999955276491,8|0,0:0|0:0,0:0:0:0:
332,372,76014,1,2,0:0:0:0:
377,382,76100,1,2,0:0:0:0:
419,361,76187,1,2,3:3:0:0:
437,319,76274,1,2,0:3:0:0:
425,274,76361,1,2,0:0:0:0:
392,240,76447,1,2,0:0:0:0:
377,195,76534,1,8,3:2:0:0:
385,148,76621,1,2,0:3:0:0:
412,110,76708,2,0,P|442:99|476:101,1,52.7999955276491,2|2,0:0|0:0,0:0:0:0:
318,79,76881,6,0,P|288:68|254:70,2,52.7999955276491,2|0|2,3:0|0:0|0:0,0:0:0:0:
476,191,77228,1,8,3:2:0:0:
272,227,77402,1,2,0:0:0:0:
412,110,77575,1,2,3:0:0:0:
362,303,77749,1,2,0:0:0:0:
220,164,77922,6,0,P|250:147|296:152,1,52.7999955276491,8|0,0:0|0:0,0:0:0:0:
267,309,78095,2,0,P|241:304|220:290,1,52.7999955276491,0|2,3:0|0:2,0:0:0:0:
123,132,78269,6,0,B|149:231|149:231|117:300,1,158.399986582947,0|0,3:0|0:0,0:0:0:0:
10,229,78615,2,0,L|87:222,1,52.7999955276491,8|0,0:0|0:0,0:0:0:0:
160,375,78789,1,2,0:0:0:0:
160,375,78876,1,0,0:0:0:0:
160,375,78962,2,0,L|83:368,1,52.7999955276491,2|2,3:0|0:3,0:0:0:0:
221,248,79136,1,2,0:0:0:0:
247,247,79222,2,0,L|324:240,1,52.7999955276491,2|8,0:0|3:2,0:0:0:0:
391,371,79396,1,2,0:3:0:0:
365,370,79482,2,0,L|288:363,1,52.7999955276491,2|2,0:0|0:0,0:0:0:0:
431,223,79656,6,0,L|422:305,3,52.7999955276491,2|0|2|0,3:0|0:0|0:0|0:0,0:0:0:0:
454,320,80003,1,8,0:0:0:0:
299,242,80176,1,2,0:0:0:0:
512,152,80350,1,2,3:0:0:0:
374,349,80523,5,2,0:0:0:0:
349,112,80696,1,8,0:0:0:0:
512,264,80870,1,2,0:0:0:0:
299,242,81043,6,0,B|241:232|241:232|204:248|204:248|139:238,1,158.399986582947,4|0,3:2|0:0,0:0:0:0:
176,107,81390,2,0,B|187:133|187:133|187:178,1,52.7999955276491,8|0,3:2|0:0,0:0:0:0:
60,197,81563,2,0,B|77:172|77:172|115:150,1,52.7999955276491,2|2,0:0|0:0,0:0:0:0:
155,321,81737,1,2,3:0:0:0:
150,291,81824,2,0,L|144:221,1,52.7999955276491,2|2,0:3|0:0,0:0:0:0:
306,159,81997,1,2,0:0:0:0:
303,189,82084,2,0,L|297:258,1,52.7999955276491,8|2,0:0|0:3,0:0:0:0:
435,315,82257,1,2,0:0:0:0:
438,305,82344,1,2,0:0:0:0:
441,295,82430,6,0,P|422:264|390:252,1,52.7999955276491,2|0,3:0|0:0,0:0:0:0:
291,354,82604,2,0,P|327:353|353:331,1,52.7999955276491,2|2,0:3|0:0,0:0:0:0:
402,117,82777,1,8,0:0:0:0:
298,241,82951,1,2,0:0:0:0:
221,69,83124,2,0,L|227:7,2,52.7999955276491,0|2|2,3:0|0:0|0:0,0:0:0:0:
327,159,83471,6,0,P|297:154|252:172,1,52.7999955276491,8|2,0:0|0:0,0:0:0:0:
70,273,83644,2,0,P|100:268|145:286,1,52.7999955276491,2|2,3:2|0:0,0:0:0:0:
209,324,83818,6,0,B|188:176|188:176|244:250,1,211.199982110596,4|8,3:2|0:0,0:0:0:0:
236,91,84338,1,2,0:0:0:0:
190,79,84424,1,2,0:0:0:0:
144,90,84511,1,2,3:3:0:0:
109,121,84598,1,2,0:3:0:0:
92,165,84685,2,0,P|59:168|26:152,1,52.7999955276491,2|2,0:0|0:0,0:0:0:0:
188,176,84858,2,0,P|207:203|209:239,1,52.7999955276491,8|2,3:2|0:3,0:0:0:0:
94,321,85032,1,2,0:0:0:0:
114,325,85118,1,2,0:0:0:0:
134,329,85205,6,0,L|185:318,3,52.7999955276491,2|0|2|0,3:0|0:0|0:0|0:0,0:0:0:0:
234,342,85552,1,8,0:0:0:0:
271,118,85725,1,2,0:0:0:0:
376,258,85899,1,2,3:0:0:0:
389,57,86072,5,2,0:0:0:0:
290,221,86246,1,8,0:0:0:0:
213,8,86419,1,2,0:0:0:0:
372,160,86592,6,0,B|468:135|468:135|529:155,1,158.399986582947,2|0,3:0|0:0,0:0:0:0:
459,277,86939,2,0,L|466:223,1,52.7999955276491,8|0,0:0|0:0,0:0:0:0:
376,258,87113,1,2,0:0:0:0:
331,273,87199,1,2,0:0:0:0:
284,266,87286,1,2,3:0:0:0:
246,239,87373,1,2,0:3:0:0:
201,223,87459,1,2,0:0:0:0:
154,230,87546,1,2,0:0:0:0:
116,257,87633,1,8,3:2:0:0:
142,217,87719,1,2,0:3:0:0:
148,171,87806,1,2,0:0:0:0:
134,126,87893,1,2,0:0:0:0:
101,92,87980,6,0,P|65:82|27:95,1,52.7999955276491,2|2,3:0|0:3,0:0:0:0:
222,140,88153,2,0,P|248:140|272:131,1,52.7999955276491,2|0,0:0|0:0,0:0:0:0:
351,7,88326,2,0,P|337:29|332:55,1,52.7999955276491,8|0,0:0|0:0,0:0:0:0:
401,185,88500,2,0,P|388:161|368:145,1,52.7999955276491,2|0,0:0|0:0,0:0:0:0:
237,41,88673,5,2,3:0:0:0:
308,220,88847,1,2,0:0:0:0:
428,70,89020,1,8,0:0:0:0:
222,140,89193,1,2,3:0:0:0:
439,289,89367,6,0,B|347:268|372:327|269:305,1,158.399986582947,2|0,3:2|0:0,0:0:0:0:
193,268,89714,2,0,L|199:337,1,52.7999955276491,8|0,0:0|0:0,0:0:0:0:
312,167,89887,1,2,0:0:0:0:
312,167,89974,1,0,0:0:0:0:
312,167,90061,2,0,L|306:236,1,52.7999955276491,2|2,3:0|0:3,0:0:0:0:
236,83,90234,1,2,0:0:0:0:
261,64,90321,2,0,P|293:53|334:61,1,52.7999955276491,2|8,0:0|0:0,0:0:0:0:
205,185,90494,1,2,0:3:0:0:
176,172,90581,2,0,P|150:149|136:110,1,52.7999955276491,2|2,0:0|0:0,0:0:0:0:
29,13,90754,5,2,3:0:0:0:
27,49,90840,1,0,0:0:0:0:
26,86,90927,1,2,0:0:0:0:
24,123,91014,1,0,0:0:0:0:
23,160,91100,1,8,0:0:0:0:
236,83,91274,1,2,0:0:0:0:
143,253,91448,1,2,3:0:0:0:
141,25,91621,5,2,0:0:0:0:
234,195,91795,1,8,0:0:0:0:
335,30,91968,1,2,0:0:0:0:
441,168,92141,6,0,P|384:122|289:144,1,158.399986582947,2|0,3:0|0:0,0:0:0:0:
226,247,92488,1,8,0:0:0:0:
226,247,92575,1,0,0:0:0:0:
226,247,92662,2,0,L|235:181,1,52.7999955276491,2|2,0:0|0:0,0:0:0:0:
130,66,92835,1,2,3:3:0:0:
135,97,92922,2,0,L|142:149,1,52.7999955276491,2|2,0:3|0:0,0:0:0:0:
25,259,93095,1,2,0:0:0:0:
30,228,93182,2,0,L|37:175,1,52.7999955276491,8|2,0:0|0:3,0:0:0:0:
192,332,93355,1,2,0:0:0:0:
172,336,93441,1,2,0:0:0:0:
152,340,93528,6,0,L|101:329,3,52.7999955276491,2|0|2|2,3:0|0:0|0:0|0:0,0:0:0:0:
52,356,93876,1,8,0:0:0:0:
142,149,94049,1,2,0:0:0:0:
278,261,94222,2,0,L|329:250,2,52.7999955276491,2|2|2,3:0|0:3|0:0,0:0:0:0:
71,100,94569,6,0,P|43:89|6:93,1,52.7999955276491,8|2,0:0|0:3,0:0:0:0:
213,100,94743,2,0,P|241:89|278:93,1,52.7999955276491,2|0,3:0|0:0,0:0:0:0:
143,304,94916,6,0,B|135:245|135:245|148:212|148:212|141:146,1,158.399986582947,4|0,3:2|0:0,0:0:0:0:
147,0,95263,2,0,L|140:52,1,52.7999955276491,8|0,0:0|0:0,0:0:0:0:
213,100,95436,1,2,0:0:0:0:
255,120,95522,1,2,0:0:0:0:
302,121,95609,1,2,3:3:0:0:
345,100,95696,1,2,0:3:0:0:
374,64,95782,1,2,0:0:0:0:
415,41,95869,1,2,0:0:0:0:
462,45,95956,1,8,0:0:0:0:
498,74,96043,1,2,0:3:0:0:
512,118,96129,1,2,0:0:0:0:
499,163,96216,1,2,0:0:0:0:
463,193,96303,6,0,P|452:222|456:261,1,52.7999955276491,2|0,3:0|0:0,0:0:0:0:
343,349,96477,2,0,P|341:322|331:298,1,52.7999955276491,2|0,0:0|0:0,0:0:0:0:
235,216,96650,1,8,0:0:0:0:
445,327,96824,1,2,0:0:0:0:
256,346,96997,1,2,3:0:0:0:
463,193,97170,5,2,0:0:0:0:
343,349,97344,1,8,0:0:0:0:
245,121,97517,1,2,0:0:0:0:
381,213,97691,6,0,B|350:188|310:190|310:190|270:226|204:212,1,158.399986582947,2|0,3:0|0:0,0:0:0:0:
223,74,98037,2,0,P|243:110|243:148,1,52.7999955276491,8|0,0:0|0:0,0:0:0:0:
157,159,98211,1,2,0:0:0:0:
132,155,98298,1,2,0:0:0:0:
107,151,98384,2,0,L|42:141,1,52.7999955276491,2|2,3:3|0:3,0:0:0:0:
0,281,98558,2,0,L|65:271,1,52.7999955276491,2|2,0:0|0:0,0:0:0:0:
134,323,98731,1,8,0:0:0:0:
174,299,98817,1,2,0:3:0:0:
221,297,98904,1,2,0:0:0:0:
264,318,98991,1,2,0:0:0:0:
291,356,99078,6,0,P|330:367|367:359,2,52.7999955276491,2|2|2,3:0|0:3|0:0,0:0:0:0:
424,210,99425,1,8,0:0:0:0:
457,320,99598,1,2,0:0:0:0:
312,184,99772,1,2,3:0:0:0:
502,126,99945,1,2,0:0:0:0:
366,330,100118,6,0,L|358:259,1,52.7999955276491,8|0,0:0|0:0,0:0:0:0:
413,67,100292,2,0,L|418:119,1,52.7999955276491,2|0,3:0|0:0,0:0:0:0:
424,210,100465,5,4,3:2:0:0:
406,198,100551,1,2,0:0:0:0:
387,190,100638,1,0,3:0:0:0:
366,186,100725,1,0,3:0:0:0:
345,187,100811,1,8,0:0:0:0:
325,193,100898,1,2,0:0:0:0:
306,202,100985,1,0,3:0:0:0:
290,216,101071,1,0,3:0:0:0:
277,233,101159,2,0,P|266:275|277:305,7,52.7999955276491,0|2|2|2|8|2|2|2,3:0|0:0|0:0|0:0|0:0|0:0|0:0|0:0,0:0:0:0:
192,343,101852,5,12,0:0:0:0:
174,355,101938,1,2,0:0:0:0:
155,363,102025,1,0,3:0:0:0:
134,367,102112,1,0,3:0:0:0:
113,366,102198,1,8,0:0:0:0:
93,360,102285,1,0,0:0:0:0:
74,351,102372,1,2,0:0:0:0:
58,337,102458,1,0,0:0:0:0:
45,320,102546,2,0,P|34:278|45:248,7,52.7999955276491,2|0|2|0|8|0|2|0,3:0|0:0|0:0|0:0|0:0|0:0|3:0|0:0,0:0:0:0:
129,268,103240,6,0,L|138:208,3,52.7999955276491,4|0|2|0,3:2|3:0|3:0|3:0,0:0:0:0:
230,131,103587,2,0,L|222:78,3,52.7999955276491,8|0|2|2,3:2|3:0|3:0|3:0,0:0:0:0:
88,133,103933,6,0,L|140:125,3,52.7999955276491,4|0|0|0,3:2|3:0|3:0|3:0,0:0:0:0:
224,219,104280,2,0,L|277:227,3,52.7999955276491,8|2|0|2,3:2|3:0|3:0|3:0,0:0:0:0:
381,300,104627,5,4,3:2:0:0:
377,263,104713,1,0,3:0:0:0:
374,226,104800,1,0,3:0:0:0:
371,189,104887,1,0,3:0:0:0:
368,152,104974,2,0,P|370:117|391:87,1,52.7999955276491,14|0,3:2|3:0,0:0:0:0:
512,129,105147,2,0,P|480:144|444:141,1,52.7999955276491,2|0,3:2|3:0,0:0:0:0:
421,16,105321,2,0,P|450:35|465:68,6,52.7999955276491,6|0|0|0|2|0|0,3:2|3:0|3:0|3:0|3:2|3:0|3:0,0:0:0:0:
325,22,105667,5,10,3:2:0:0:
277,27,105753,1,8,3:2:0:0:
230,32,105840,1,10,3:2:0:0:
183,38,105927,1,8,3:2:0:0:
136,43,106013,5,6,3:2:0:0:
256,192,106101,12,0,110176,0:0:0:0:
