osu file format v14

[General]
AudioFilename: audio.mp3
AudioLeadIn: 0
PreviewTime: 70888
Countdown: 0
SampleSet: Soft
StackLeniency: 0.2
Mode: 0
LetterboxInBreaks: 0
WidescreenStoryboard: 1

[Editor]
Bookmarks: 111563
DistanceSpacing: 1.2
BeatDivisor: 6
GridSize: 8
TimelineZoom: 4.699997

[Metadata]
Title:Brain Power
TitleUnicode:Brain Power
Artist:NOMA
ArtistUnicode:ノマ
Creator:Monstrata
Version:NiNo's Extra
Source:SOUND VOLTEX II -infinite infection-
Tags:rizen a q p w nhawak kuron-kun gero doormat dailycare rohit6 haruto haruto_aizawa pentori snownino_ sdvx museca
BeatmapID:1183809
BeatmapSetID:546384

[Difficulty]
HPDrainRate:4
CircleSize:4.2
OverallDifficulty:8
ApproachRate:9.3
SliderMultiplier:2.69999990463257
SliderTickRate:1

[Events]
//Background and Video events
0,0,"Brain Power.png",0,0
//Break Periods
//Storyboard Layer 0 (Background)
//Storyboard Layer 1 (Fail)
//Storyboard Layer 2 (Pass)
//Storyboard Layer 3 (Foreground)
//Storyboard Sound Samples

[TimingPoints]
2207,352.941176470588,4,2,3,70,1,0
2207,-100,4,2,3,70,0,0
12618,-71.4285714285714,4,2,3,70,0,0
13324,-66.6666666666667,4,2,3,70,0,0
13501,-111.111111111111,4,2,3,70,0,0
19324,-111.111111111111,4,2,3,40,0,0
19501,-111.111111111111,4,2,3,70,0,0
19677,-111.111111111111,4,2,3,40,0,0
19854,-111.111111111111,4,2,3,70,0,0
22677,-111.111111111111,4,2,3,80,0,0
23383,-71.4285714285714,4,2,3,70,0,0
23559,-71.4285714285714,4,2,3,5,0,0
23648,-71.4285714285714,4,2,3,70,0,0
23824,-71.4285714285714,4,2,3,5,0,0
23912,-71.4285714285714,4,2,3,70,0,0
24089,-71.4285714285714,4,2,3,5,0,0
24177,-71.4285714285714,4,2,3,70,0,0
24354,-71.4285714285714,4,2,3,5,0,0
24442,-55.5555555555556,4,2,3,70,0,0
24530,-55.5555555555556,4,2,3,5,0,0
24618,-55.5555555555556,4,2,3,70,0,0
24706,-55.5555555555556,4,2,3,5,0,0
24795,-100,4,2,3,70,0,0
30089,-83.3333333333333,4,2,3,70,0,0
30442,-100,4,2,3,70,0,0
35383,-83.3333333333333,4,2,3,70,0,0
36089,-100,4,2,3,70,0,0
38912,-83.3333333333333,4,2,3,70,0,0
39177,-100,4,2,3,70,0,0
41030,-104.166666666667,4,2,3,70,0,0
41383,-71.4285714285714,4,2,3,70,0,0
41736,-100,4,2,3,70,0,0
46148,-117.647058823529,4,2,3,70,0,0
46324,-133.333333333333,4,2,3,70,0,0
46501,-153.846153846154,4,2,3,70,0,0
46677,-150.00015000015,4,2,3,70,0,0
47383,-333.333333333333,4,2,3,70,0,0
48089,-83.3333333333333,4,2,3,70,0,0
48442,-100,4,2,3,70,0,0
48795,-66.6666666666667,4,2,3,70,0,0
50206,-333.333333333333,4,2,3,70,0,0
50912,-83.3333333333333,4,2,3,70,0,0
51618,-66.6666666666667,4,2,3,70,0,0
53030,-333.333333333333,4,2,3,70,0,0
53736,-66.6666666666667,4,2,3,70,0,0
54442,-333.333333333333,4,2,3,70,0,0
54795,-163.934426229508,4,2,3,70,0,0
55148,-66.6666666666667,4,2,3,70,0,0
55501,-133.333333333333,4,2,3,70,0,0
55854,-100,4,2,3,70,0,0
56559,-83.3333333333333,4,2,3,70,0,0
57442,-133.333333333333,4,2,3,70,0,0
57618,-100,4,2,3,70,0,0
58589,-100,4,2,3,70,0,0
63971,-71.4285714285714,4,2,3,70,0,0
64324,350.877192982456,4,2,3,70,1,0
67131,-90.9090909090909,4,2,3,70,0,0
68534,348.837209302326,4,2,3,70,1,0
68534,-76.9230769230769,4,2,3,70,0,0
69580,-71.4285714285714,4,2,3,70,0,0
69929,-71.4285714285714,4,2,3,70,0,0
70627,-55.5555555555556,4,2,3,70,0,0
71324,-71.4285714285714,4,2,3,60,0,0
71499,-71.4285714285714,4,2,3,5,0,0
71586,-71.4285714285714,4,2,3,60,0,0
71760,-71.4285714285714,4,2,3,5,0,0
71847,-71.4285714285714,4,2,3,70,0,0
72022,-71.4285714285714,4,2,3,5,0,0
72109,-71.4285714285714,4,2,3,80,0,0
72284,-71.4285714285714,4,2,3,5,0,0
72371,-71.4285714285714,4,2,3,80,0,0
72458,-71.4285714285714,4,2,3,5,0,0
72545,-71.4285714285714,4,2,3,80,0,0
72632,-71.4285714285714,4,2,3,5,0,0
72720,346.820809248555,4,2,3,80,1,1
72720,-76.9230769230769,4,2,3,80,0,1
77748,-90.9090909090909,4,2,3,80,0,1
77922,-111.111111111111,4,2,3,80,0,1
78095,-142.857142857143,4,2,3,80,0,1
78269,-74.0740740740741,4,2,3,80,0,1
83818,-62.5,4,2,3,80,0,1
88326,-58.8235294117647,4,2,3,80,0,1
88673,-55.5555555555556,4,2,3,80,0,1
89020,-66.6666666666667,4,2,3,80,0,1
89367,-58.8235294117647,4,2,3,80,0,1
92141,-57.4712643678161,4,2,3,80,0,1
92402,-55.5555555555556,4,2,3,80,0,1
94222,-50,4,2,3,80,0,1
94916,-50,4,2,3,80,0,1
100118,-55.5555555555556,4,2,3,80,0,1
100465,-66.6666666666667,4,2,3,80,0,1
101159,-57.1428571428571,4,2,3,80,0,1
101852,-50,4,2,3,80,0,1
106014,-189.854191980559,4,2,3,80,0,0
106058,-189.854191980559,4,2,3,30,0,0
110176,-189.854191980559,4,2,3,5,0,0

[Colours]
Combo1 : 0,128,192
Combo2 : 128,0,255
Combo3 : 187,119,255
Combo4 : 128,255,255

[HitObjects]
427,177,2207,6,0,L|405:38,1,134.999995231628,4|0,3:2|0:0,0:0:0:0:
411,190,2471,1,0,0:0:0:0:
395,205,2559,2,0,L|373:67,1,134.999995231628,8|0,3:2|0:0,0:0:0:0:
209,13,2912,2,0,L|186:151,1,134.999995231628,0|0,3:0|0:0,0:0:0:0:
226,299,3265,2,0,L|214:224,1,67.4999976158142,8|0,3:2|0:0,0:0:0:0:
73,72,3442,2,0,L|61:147,1,67.4999976158142,0|0,0:0|0:0,0:0:0:0:
41,272,3618,6,0,L|63:133,1,134.999995231628,0|0,3:0|0:0,0:0:0:0:
57,285,3882,1,0,0:0:0:0:
71,300,3971,2,0,L|93:161,1,134.999995231628,8|0,3:2|0:0,0:0:0:0:
167,77,4236,1,0,0:0:0:0:
167,77,4324,2,0,B|187:120|187:120|283:143,1,134.999995231628,0|0,3:0|0:0,0:0:0:0:
317,37,4677,2,0,L|251:51,1,67.4999976158142,8|0,3:2|0:0,0:0:0:0:
167,209,4854,2,0,L|232:223,1,67.4999976158142,0|0,0:0|0:0,0:0:0:0:
404,111,5030,6,0,L|238:146,1,134.999995231628,0|2,3:0|0:0,0:0:0:0:
296,265,5295,1,0,0:0:0:0:
296,265,5383,2,0,B|264:210|264:210|272:138,1,134.999995231628,8|2,3:2|0:0,0:0:0:0:
400,225,5736,2,0,L|392:298,1,67.4999976158142,0|0,3:0|0:0,0:0:0:0:
197,281,5912,2,0,L|189:208,1,67.4999976158142,2|0,0:0|0:0,0:0:0:0:
228,70,6089,2,0,P|173:123|101:129,1,134.999995231628,8|2,3:2|0:0,0:0:0:0:
17,235,6354,1,0,0:0:0:0:
17,235,6442,6,0,P|82:248|127:296,1,134.999995231628,0|2,3:0|0:0,0:0:0:0:
25,254,6706,1,0,0:0:0:0:
35,275,6795,2,0,P|84:319|99:383,1,134.999995231628,8|2,3:2|0:0,0:0:0:0:
194,245,7148,2,0,L|206:104,1,134.999995231628,0|2,3:0|0:0,0:0:0:0:
299,176,7412,1,0,0:0:0:0:
299,176,7501,2,0,L|305:246,1,67.4999976158142,8|0,3:2|0:0,0:0:0:0:
211,43,7677,2,0,L|205:113,1,67.4999976158142,2|0,3:2|0:0,0:0:0:0:
194,245,7854,6,0,B|132:216|132:216|57:225,1,134.999995231628,0|2,3:0|0:0,0:0:0:0:
186,263,8118,1,0,0:0:0:0:
179,280,8206,2,0,B|110:285|110:285|50:331,1,134.999995231628,8|2,0:0|0:0,0:0:0:0:
278,350,8559,2,0,L|266:270,1,67.4999976158142,0|0,3:0|0:0,0:0:0:0:
341,158,8736,2,0,L|329:238,1,67.4999976158142,2|0,0:0|0:0,0:0:0:0:
218,179,8912,2,0,P|276:146|354:166,1,134.999995231628,8|2,0:0|0:0,0:0:0:0:
396,118,9177,1,0,0:0:0:0:
352,67,9265,6,0,P|294:34|216:54,1,134.999995231628,0|2,3:0|0:0,0:0:0:0:
341,88,9530,1,0,0:0:0:0:
330,108,9618,2,0,P|263:108|205:164,1,134.999995231628,8|2,0:0|0:0,0:0:0:0:
415,245,9971,2,0,P|348:244|297:202,1,134.999995231628,0|2,3:0|0:0,0:0:0:0:
212,150,10236,1,0,0:0:0:0:
212,150,10324,2,0,L|206:227,1,67.4999976158142,8|0,0:0|0:0,0:0:0:0:
122,265,10501,2,0,L|128:342,1,67.4999976158142,0|0,0:0|0:0,0:0:0:0:
249,375,10677,6,0,B|300:332|300:332|389:334,1,134.999995231628,0|2,3:0|0:0,0:0:0:0:
236,359,10942,1,0,0:0:0:0:
223,344,11030,2,0,B|245:281|245:281|323:238,1,134.999995231628,8|2,0:0|0:0,0:0:0:0:
416,235,11295,1,0,0:0:0:0:
416,235,11383,2,0,B|393:172|393:172|315:129,1,134.999995231628,0|2,3:0|0:0,0:0:0:0:
165,146,11736,2,0,L|249:131,1,67.4999976158142,8|0,0:0|0:0,0:0:0:0:
305,248,11912,2,0,L|238:236,1,67.4999976158142,2|0,0:0|0:0,0:0:0:0:
107,222,12089,6,0,P|152:272|166:356,1,134.999995231628,0|2,3:0|0:0,0:0:0:0:
86,233,12354,1,0,0:0:0:0:
66,246,12442,2,0,P|79:311|50:391,1,134.999995231628,8|2,0:0|0:3,0:0:0:0:
167,336,12795,6,0,L|249:324,1,62.9999958521527,0|0,3:0|0:0,0:0:0:0:
272,264,12912,2,0,L|354:276,1,62.9999958521527,2|0,0:0|0:0,0:0:0:0:
383,332,13030,1,2,0:0:0:0:
457,238,13148,2,0,L|448:130,1,94.499993778229,8|0,3:2|0:0,0:0:0:0:
505,70,13280,6,0,B|472:49|472:49|408:53|408:53|379:84,1,141.749990667343,0|2,0:0|0:3,0:0:0:0:
333,145,13501,6,0,P|242:124|211:86,1,121.49999200058,0|2,3:0|0:0,0:0:0:0:
336,164,13765,1,0,0:0:0:0:
338,184,13854,2,0,P|248:211|202:193,1,121.49999200058,8|2,0:0|0:0,0:0:0:0:
123,111,14206,2,0,L|112:188,1,60.7499960002901,0|0,3:0|0:0,0:0:0:0:
156,315,14383,2,0,L|145:238,1,60.7499960002901,2|0,0:0|0:0,0:0:0:0:
40,234,14559,2,0,L|21:366,1,121.49999200058,8|2,0:0|0:0,0:0:0:0:
239,276,14912,6,0,L|220:143,1,121.49999200058,0|2,3:0|0:0,0:0:0:0:
258,283,15177,1,0,0:0:0:0:
279,289,15265,2,0,L|260:156,1,121.49999200058,8|2,0:0|0:0,0:0:0:0:
303,38,15618,2,0,P|338:99|390:123,1,121.49999200058,0|2,3:0|0:0,0:0:0:0:
481,134,15883,1,0,0:0:0:0:
481,134,15971,2,0,P|463:172|462:199,1,60.7499960002901,8|0,0:0|0:0,0:0:0:0:
367,223,16148,2,0,P|385:261|386:288,1,60.7499960002901,2|0,0:0|0:0,0:0:0:0:
480,358,16324,6,0,P|424:320|354:323,1,121.49999200058,0|2,3:0|0:0,0:0:0:0:
484,340,16589,1,0,0:0:0:0:
489,322,16677,2,0,P|459:261|397:228,1,121.49999200058,8|2,0:0|0:0,0:0:0:0:
229,280,17030,2,0,P|278:246|302:191,1,121.49999200058,0|2,3:0|0:0,0:0:0:0:
412,172,17295,1,0,0:0:0:0:
412,172,17383,2,0,L|417:263,1,60.7499960002901,8|0,0:0|0:0,0:0:0:0:
368,378,17559,2,0,L|371:317,1,60.7499960002901,2|0,0:0|0:0,0:0:0:0:
299,117,17736,6,0,L|306:260,1,121.49999200058,0|2,3:0|0:0,0:0:0:0:
282,106,18001,1,0,0:0:0:0:
263,92,18089,2,0,L|270:235,1,121.49999200058,8|2,0:0|0:0,0:0:0:0:
202,295,18354,1,0,0:0:0:0:
202,295,18442,2,0,P|167:245|176:175,1,121.49999200058,0|2,3:0|0:0,0:0:0:0:
172,71,18795,2,0,L|100:63,1,60.7499960002901,8|0,3:2|0:0,0:0:0:0:
330,206,18971,2,0,L|258:214,1,60.7499960002901,2|0,3:2|0:0,0:0:0:0:
96,183,19148,5,4,3:2:0:0:
96,183,19236,1,0,3:0:0:0:
96,183,19324,2,0,P|138:161|151:143,1,60.7499960002901,2|0,3:2|3:0,0:0:0:0:
269,212,19501,1,8,3:2:0:0:
269,212,19589,1,0,3:0:0:0:
269,212,19677,2,0,P|227:190|214:172,1,60.7499960002901,2|0,3:2|3:0,0:0:0:0:
79,261,19854,5,0,3:0:0:0:
79,261,19942,1,0,3:0:0:0:
79,261,20030,2,0,P|103:297|108:332,1,60.7499960002901,2|0,3:2|3:0,0:0:0:0:
313,298,20206,1,8,3:2:0:0:
313,298,20294,1,0,0:0:0:0:
313,298,20382,2,0,P|289:334|284:369,1,60.7499960002901,0|0,3:0|3:0,0:0:0:0:
219,180,20559,5,4,3:2:0:0:
219,180,20648,1,0,3:0:0:0:
219,180,20736,2,0,L|225:106,1,60.7499960002901,2|0,3:2|3:0,0:0:0:0:
436,214,20912,1,8,3:2:0:0:
436,214,21001,1,0,3:0:0:0:
436,214,21089,2,0,L|442:288,1,60.7499960002901,2|0,3:2|3:0,0:0:0:0:
319,64,21265,5,4,3:2:0:0:
319,64,21354,1,0,3:0:0:0:
319,64,21442,2,0,P|357:43|383:42,1,60.7499960002901,2|0,3:2|3:0,0:0:0:0:
221,279,21618,1,8,3:2:0:0:
221,279,21706,1,0,3:0:0:0:
221,279,21794,2,0,P|191:273|166:256,1,60.7499960002901,0|0,3:0|3:0,0:0:0:0:
319,187,21971,6,0,L|329:266,1,60.7499960002901,4|0,3:2|3:0,0:0:0:0:
180,71,22148,2,0,L|170:150,1,60.7499960002901,2|0,3:2|3:0,0:0:0:0:
221,279,22324,2,0,L|152:293,1,60.7499960002901,12|0,3:2|3:0,0:0:0:0:
280,86,22501,2,0,L|339:98,1,60.7499960002901,0|0,3:0|3:0,0:0:0:0:
160,209,22677,6,0,L|189:202,6,30.374998000145,12|0|0|0|0|0|0,3:2|0:0|3:2|0:0|3:2|0:0|3:2,0:0:0:0:
94,195,23030,1,12,3:2:0:0:
47,156,23118,1,0,3:0:0:0:
23,100,23206,1,0,3:0:0:0:
20,38,23295,1,0,3:0:0:0:
102,25,23383,6,0,L|318:40,1,188.999987556458,2|0,3:0|0:0,0:0:0:0:
171,178,23648,2,0,P|118:141|107:13,1,188.999987556458,2|0,3:0|0:0,0:0:0:0:
268,139,23912,2,0,P|276:190|170:287,1,188.999987556458,2|0,3:0|0:0,0:0:0:0:
6,184,24177,2,0,P|46:151|183:194,1,188.999987556458,6|0,3:0|0:0,0:0:0:0:
80,357,24442,6,0,L|90:227,1,121.49999200058,2|0,3:2|0:0,0:0:0:0:
258,17,24618,2,0,L|268:147,1,121.49999200058,2|0,3:2|0:0,0:0:0:0:
300,319,24795,5,4,3:2:0:0:
370,215,24971,1,2,0:0:0:0:
145,179,25148,2,0,B|220:175|220:175|282:128,1,134.999995231628,8|2,0:0|0:0,0:0:0:0:
90,95,25501,2,0,B|55:161|55:161|65:239,1,134.999995231628,0|2,3:0|0:0,0:0:0:0:
117,314,25854,2,0,B|191:310|191:310|254:263,1,134.999995231628,8|2,0:0|0:0,0:0:0:0:
145,179,26206,5,0,3:0:0:0:
235,341,26383,2,0,L|240:267,1,67.4999976158142,2|0,0:0|0:0,0:0:0:0:
278,137,26559,1,8,0:0:0:0:
311,346,26736,2,0,L|316:272,1,67.4999976158142,2|0,0:0|0:0,0:0:0:0:
354,142,26912,1,0,3:0:0:0:
385,351,27089,2,0,L|390:277,1,67.4999976158142,2|0,0:0|0:0,0:0:0:0:
428,147,27265,1,8,0:0:0:0:
459,356,27442,2,0,L|464:282,1,67.4999976158142,2|0,0:0|0:0,0:0:0:0:
502,152,27618,5,0,3:0:0:0:
390,284,27795,1,2,0:0:0:0:
369,84,27971,2,0,B|440:73|440:73|494:25,1,134.999995231628,8|2,0:0|0:0,0:0:0:0:
288,9,28324,2,0,B|262:75|262:75|276:146,1,134.999995231628,0|2,3:0|0:0,0:0:0:0:
441,236,28677,2,0,B|453:174|453:174|427:107,1,134.999995231628,8|2,0:0|0:0,0:0:0:0:
288,9,29030,5,0,3:0:0:0:
495,112,29206,2,0,L|414:106,1,67.4999976158142,2|0,0:0|0:0,0:0:0:0:
269,121,29383,1,8,0:0:0:0:
487,184,29559,2,0,L|406:178,1,67.4999976158142,2|0,0:0|0:0,0:0:0:0:
261,193,29736,1,0,3:0:0:0:
479,256,29912,2,0,L|398:250,1,67.4999976158142,2|0,0:0|0:0,0:0:0:0:
253,265,30089,6,0,L|172:271,1,80.9999946670534,8|0,3:2|0:0,0:0:0:0:
471,328,30265,2,0,L|390:322,1,80.9999946670534,2|0,3:2|0:0,0:0:0:0:
261,193,30442,5,0,3:0:0:0:
411,251,30618,1,0,0:0:0:0:
171,337,30795,2,0,L|175:190,1,134.999995231628,8|2,0:0|0:0,0:0:0:0:
264,300,31148,2,0,P|303:239|296:163,1,134.999995231628,0|2,3:0|0:0,0:0:0:0:
54,257,31501,2,0,P|38:186|70:117,1,134.999995231628,8|2,0:0|0:0,0:0:0:0:
139,33,31854,5,0,3:0:0:0:
171,269,32030,2,0,L|176:188,1,67.4999976158142,2|0,0:0|0:0,0:0:0:0:
225,85,32206,1,8,0:0:0:0:
244,279,32383,2,0,L|249:198,1,67.4999976158142,2|0,0:0|0:0,0:0:0:0:
298,95,32559,1,0,3:0:0:0:
318,289,32736,2,0,L|323:208,1,67.4999976158142,2|0,0:0|0:0,0:0:0:0:
372,105,32912,1,8,0:0:0:0:
391,299,33089,2,0,L|396:218,1,67.4999976158142,2|0,0:0|0:0,0:0:0:0:
445,115,33265,6,0,P|369:103|327:42,1,134.999995231628,0|2,3:0|0:0,0:0:0:0:
469,17,33618,1,8,0:0:0:0:
466,193,33795,1,2,0:0:0:0:
333,61,33971,1,0,3:0:0:0:
355,278,34148,2,0,L|341:201,1,67.4999976158142,2|0,0:0|0:0,0:0:0:0:
217,62,34324,1,8,0:0:0:0:
162,238,34501,2,0,L|240:246,1,67.4999976158142,2|0,0:0|0:0,0:0:0:0:
126,130,34677,6,0,P|65:171|48:244,1,134.999995231628,2|0,0:3|0:0,0:0:0:0:
102,354,35030,2,0,L|163:342,1,44.9999984105428,2|0,0:0|0:0,0:0:0:0:
191,349,35148,2,0,L|252:337,1,44.9999984105428,2|0,0:0|0:0,0:0:0:0:
280,340,35265,1,2,0:0:0:0:
434,283,35383,6,0,B|341:263|341:263|306:218|306:218|206:194,1,242.99998400116,2|0,3:0|0:0,0:0:0:0:
44,189,35736,2,0,B|137:169|137:169|172:124|172:124|272:100,1,242.99998400116,2|0,3:0|0:0,0:0:0:0:
417,127,36089,6,0,P|348:83|343:18,1,134.999995231628,0|2,3:0|0:0,0:0:0:0:
331,193,36442,1,8,0:0:0:0:
423,42,36618,1,2,0:0:0:0:
455,237,36795,2,0,B|481:300|481:300|477:368,1,134.999995231628,0|2,3:0|0:0,0:0:0:0:
243,243,37148,2,0,B|239:176|239:176|265:113,1,134.999995231628,8|2,0:0|0:0,0:0:0:0:
327,285,37501,5,0,3:0:0:0:
145,207,37677,1,2,0:0:0:0:
336,184,37854,2,0,B|423:175|423:175|369:144,1,134.999995231628,8|2,0:0|0:0,0:0:0:0:
222,125,38206,2,0,B|309:116|309:116|255:85,1,134.999995231628,0|2,3:0|0:0,0:0:0:0:
109,69,38559,2,0,B|196:60|196:60|142:29,1,134.999995231628,8|2,0:0|0:0,0:0:0:0:
31,149,38912,6,0,B|154:151|91:312|245:281,1,242.99998400116,0|0,3:0|0:0,0:0:0:0:
211,195,39265,2,0,L|201:117,1,67.4999976158142,8|0,0:0|0:0,0:0:0:0:
293,325,39442,2,0,L|303:247,1,67.4999976158142,2|0,0:0|0:0,0:0:0:0:
295,155,39618,1,0,3:0:0:0:
212,284,39795,1,2,0:0:0:0:
260,78,39971,1,8,0:0:0:0:
372,203,40148,1,2,0:0:0:0:
175,175,40324,5,0,3:0:0:0:
327,80,40501,2,0,L|233:76,1,67.4999976158142,2|0,0:0|0:0,0:0:0:0:
147,103,40677,1,8,0:0:0:0:
355,152,40854,2,0,L|261:148,1,67.4999976158142,2|0,0:0|0:0,0:0:0:0:
175,175,41030,6,0,P|243:212|176:282,1,194.399997879639,0|0,3:0|0:0,0:0:0:0:
147,103,41383,6,0,P|202:95|248:108,1,94.499993778229,8|0,3:2|0:0,0:0:0:0:
301,295,41559,2,0,P|263:339|208:355,1,94.499993778229,2|0,3:2|0:0,0:0:0:0:
65,261,41736,6,0,L|75:118,1,134.999995231628,0|2,3:0|0:0,0:0:0:0:
204,264,42089,1,8,0:0:0:0:
123,323,42265,1,2,0:0:0:0:
146,202,42442,2,0,L|156:59,1,134.999995231628,0|2,3:0|0:0,0:0:0:0:
295,355,42795,2,0,L|285:212,1,134.999995231628,8|2,0:0|0:0,0:0:0:0:
259,90,43148,5,0,3:0:0:0:
353,224,43324,2,0,L|277:220,1,67.4999976158142,2|0,0:0|0:0,0:0:0:0:
146,202,43501,1,8,0:0:0:0:
323,293,43677,2,0,L|247:289,1,67.4999976158142,2|0,0:0|0:0,0:0:0:0:
116,271,43854,1,0,3:0:0:0:
293,362,44030,2,0,L|217:358,1,67.4999976158142,2|0,0:0|0:0,0:0:0:0:
86,340,44207,1,8,0:0:0:0:
71,175,44383,1,2,0:0:0:0:
225,358,44559,6,0,B|253:295|253:295|246:215,1,134.999995231628,0|2,3:0|0:0,0:0:0:0:
188,95,44912,1,8,0:0:0:0:
325,172,45089,1,0,0:0:0:0:
139,250,45265,2,0,B|111:187|111:187|118:107,1,134.999995231628,0|2,3:0|0:0,0:0:0:0:
303,301,45618,2,0,B|331:238|331:238|324:158,1,134.999995231628,8|2,0:0|0:0,0:0:0:0:
216,107,45971,5,0,3:0:0:0:
142,255,46148,2,0,L|148:177,1,57.3749990677834,2|0,0:0|0:0,0:0:0:0:
216,107,46324,1,8,0:0:0:0:
290,255,46501,2,0,L|284:177,1,43.8749964418413,2|0,0:0|0:0,0:0:0:0:
216,107,46677,1,2,3:3:0:0:
372,120,46912,5,0,3:0:0:0:
414,192,47030,1,2,3:0:0:0:
350,247,47148,1,2,3:0:0:0:
393,318,47265,1,2,3:0:0:0:
314,332,47383,6,0,B|271:326|271:326|232:353|232:353|180:345,1,141.749990667343,4|0,3:2|0:0,0:0:0:0:
223,221,48089,6,0,L|213:275,1,53.9999964447023,8|0,0:0|0:0,0:0:0:0:
132,281,48206,2,0,L|90:245,1,53.9999964447023,2|0,0:3|0:0,0:0:0:0:
121,168,48324,2,0,L|172:149,1,53.9999964447023,2|0,0:3|0:0,0:0:0:0:
223,221,48442,6,0,L|193:395,1,134.999995231628,2|2,0:3|0:3,0:0:0:0:
312,225,48795,6,0,P|297:168|160:160,1,202.500000572205,2|0,3:1|0:0,0:0:0:0:
88,306,49059,2,0,P|144:321|220:206,1,202.500000572205,2|0,0:1|0:0,0:0:0:0:
90,118,49324,2,0,L|82:228,1,101.250000286102,2|0,0:1|0:0,0:0:0:0:
224,221,49501,6,0,B|202:142|202:142|306:184|306:184|269:321,1,303.750000858307,8|0,0:0|0:0,0:0:0:0:
357,271,49854,2,0,L|386:166,1,101.250000286102,0|0,0:0|0:0,0:0:0:0:
162,285,50030,2,0,L|133:180,1,101.250000286102,2|0,0:0|0:0,0:0:0:0:
202,142,50206,6,0,B|231:118|231:83|231:83|254:110|299:109,1,141.749990667343,0|0,3:2|0:0,0:0:0:0:
151,80,50912,6,0,P|122:116|122:162,1,80.9999946670534,8|0,0:0|0:0,0:0:0:0:
290,29,51089,2,0,P|335:39|364:74,1,80.9999946670534,2|0,0:3|0:0,0:0:0:0:
308,295,51265,6,0,B|326:228|271:197|271:197|218:165|231:84,1,242.99998400116,2|0,0:3|0:0,0:0:0:0:
225,266,51618,6,0,B|197:326|197:326|114:291|114:291|145:249|140:169|104:131,1,303.750000858307,2|0,3:1|0:0,0:0:0:0:
237,174,51971,2,0,P|215:129|245:71,1,101.250000286102,2|0,0:3|0:0,0:0:0:0:
41,266,52148,2,0,P|63:221|33:163,1,101.250000286102,2|0,0:3|0:0,0:0:0:0:
57,31,52324,5,8,3:2:0:0:
79,82,52412,1,0,3:0:0:0:
91,29,52501,1,0,3:0:0:0:
113,74,52589,1,2,0:3:0:0:
127,31,52677,1,2,0:0:0:0:
146,67,52765,1,2,0:0:0:0:
162,31,52854,1,2,0:0:0:0:
180,61,52942,1,2,0:0:0:0:
242,21,53030,6,0,P|246:99|193:135,1,141.749990667343,2|0,3:0|0:0,0:0:0:0:
78,215,53736,6,0,B|143:199|143:199|192:222|192:222|272:200,1,202.500000572205,8|0,0:0|0:0,0:0:0:0:
430,315,54001,2,0,B|365:299|365:299|316:322|316:322|236:300,1,202.500000572205,2|0,0:1|0:0,0:0:0:0:
22,329,54265,2,0,L|125:300,1,101.250000286102,2|0,0:1|0:0,0:0:0:0:
271,200,54442,6,0,L|123:158,1,141.749990667343,4|0,3:0|0:0,0:0:0:0:
267,68,55148,6,0,L|197:87,1,67.5000001907349,2|0,0:3|0:0,0:0:0:0:
134,161,55265,2,0,L|185:212,1,67.5000001907349,2|0,0:3|0:0,0:0:0:0:
281,237,55383,2,0,L|299:166,1,67.5000001907349,2|0,0:3|0:0,0:0:0:0:
267,68,55501,6,0,L|109:110,1,151.875000429154,2|0,0:3|0:0,0:0:0:0:
40,233,55854,6,0,B|117:254|117:254|58:306|58:306|15:249,1,202.499992847443,2|0,3:1|0:0,0:0:0:0:
181,208,56206,2,0,P|195:244|193:288,1,67.4999976158142,2|0,0:1|0:0,0:0:0:0:
44,125,56383,2,0,P|45:91|58:60,1,67.4999976158142,2|0,0:1|0:0,0:0:0:0:
240,95,56559,6,0,B|181:130|120:108|120:108|164:161|184:215,1,242.99998400116,8|0,0:0|0:0,0:0:0:0:
306,142,56912,2,0,P|320:94|301:46,1,80.9999946670534,2|0,0:3|0:0,0:0:0:0:
268,220,57089,2,0,L|279:274,1,40.4999973335267,2|0,0:3|0:0,0:0:0:0:
304,238,57177,2,0,L|315:292,1,40.4999973335267,0|0,0:0|0:0,0:0:0:0:
385,283,57265,6,0,P|367:326|259:326,1,161.999989334107,0|2,3:0|0:0,0:0:0:0:
149,342,57618,1,2,0:1:0:0:
196,287,57736,1,2,0:1:0:0:
141,239,57854,1,2,0:1:0:0:
188,184,57971,5,8,0:0:0:0:
135,172,58059,1,2,0:3:0:0:
182,150,58148,1,2,0:3:0:0:
140,138,58236,1,2,0:3:0:0:
177,117,58324,1,2,0:1:0:0:
145,105,58412,1,2,0:0:0:0:
172,83,58501,1,2,0:0:0:0:
150,71,58589,1,2,0:0:0:0:
198,21,58677,6,0,P|260:60|331:61,1,134.999995231628,4|2,3:2|0:0,0:0:0:0:
464,33,59030,2,0,L|462:120,1,67.4999976158142,8|0,0:0|0:0,0:0:0:0:
433,244,59206,1,2,0:0:0:0:
392,47,59383,2,0,L|390:134,1,67.4999976158142,0|0,3:0|0:0,0:0:0:0:
361,258,59559,1,2,0:0:0:0:
320,63,59736,2,0,L|318:150,1,67.4999976158142,8|0,0:0|0:0,0:0:0:0:
289,274,59912,1,2,0:0:0:0:
249,78,60089,6,0,L|172:68,1,67.4999976158142,0|0,3:0|0:0,0:0:0:0:
146,200,60265,1,2,0:0:0:0:
318,130,60442,2,0,L|395:120,1,67.4999976158142,8|0,0:0|0:0,0:0:0:0:
445,240,60618,1,2,0:0:0:0:
239,272,60795,2,0,L|245:191,1,67.4999976158142,0|0,3:0|0:0,0:0:0:0:
249,78,60971,1,2,0:0:0:0:
384,121,61148,2,0,L|390:202,1,67.4999976158142,8|0,0:0|0:0,0:0:0:0:
432,335,61324,1,2,0:0:0:0:
243,204,61501,6,0,P|177:197|138:139,1,134.999995231628,0|2,3:0|0:0,0:0:0:0:
217,60,61854,2,0,L|218:129,1,67.4999976158142,8|0,0:0|0:0,0:0:0:0:
297,141,62030,1,2,0:0:0:0:
377,60,62206,2,0,L|376:129,1,67.4999976158142,0|0,3:0|0:0,0:0:0:0:
297,141,62382,1,2,0:0:0:0:
203,54,62559,2,0,L|204:123,1,67.4999976158142,8|0,0:0|0:0,0:0:0:0:
297,141,62735,1,2,0:0:0:0:
389,54,62912,6,0,L|388:123,1,67.4999976158142,0|0,3:0|0:0,0:0:0:0:
396,248,63089,1,2,0:0:0:0:
298,74,63265,2,0,L|297:143,1,67.4999976158142,8|0,0:0|0:0,0:0:0:0:
304,267,63442,1,2,0:0:0:0:
208,94,63618,6,0,L|204:302,1,202.499992847443,0|0,3:0|0:0,0:0:0:0:
135,50,63971,6,0,P|176:14|221:9,1,94.499993778229,8|0,3:2|0:0,0:0:0:0:
282,137,64148,2,0,P|241:173|196:178,1,94.499993778229,2|0,3:2|0:0,0:0:0:0:
91,147,64324,6,0,L|111:287,1,134.999995231628,0|2,3:0|0:0,0:0:0:0:
195,363,64674,2,0,L|205:293,1,67.4999976158142,8|0,0:0|0:0,0:0:0:0:
202,178,64850,1,2,0:0:0:0:
270,353,65025,2,0,L|280:283,1,67.4999976158142,0|0,3:0|0:0,0:0:0:0:
277,168,65201,1,2,0:0:0:0:
345,343,65376,2,0,L|355:273,1,67.4999976158142,8|0,0:0|0:0,0:0:0:0:
352,158,65552,1,2,0:0:0:0:
279,286,65727,5,0,3:0:0:0:
448,216,65902,1,2,0:0:0:0:
277,168,66078,1,8,0:0:0:0:
354,276,66253,1,2,0:0:0:0:
376,84,66429,2,0,B|318:50|318:50|241:54,1,134.999995231628,0|2,3:0|0:0,0:0:0:0:
164,240,66780,2,0,B|231:243|231:243|289:209,1,134.999995231628,8|2,0:0|0:0,0:0:0:0:
151,60,67131,6,0,P|144:137|81:116,1,148.499999286652,0|2,3:0|0:0,0:0:0:0:
84,274,67481,2,0,L|74:179,1,74.2499996433258,8|0,0:0|0:0,0:0:0:0:
75,56,67657,1,2,0:0:0:0:
160,278,67832,2,0,L|150:183,1,74.2499996433258,0|0,3:0|0:0,0:0:0:0:
151,60,68008,1,2,0:0:0:0:
237,282,68183,2,0,L|227:187,1,74.2499996433258,8|0,0:0|0:0,0:0:0:0:
228,64,68359,1,2,0:0:0:0:
301,179,68534,5,2,3:0:0:0:
151,60,68708,1,2,0:0:0:0:
307,61,68882,1,8,0:0:0:0:
152,204,69057,1,2,0:0:0:0:
329,279,69231,2,0,P|288:192|417:193,1,263.249978651048,0|0,3:0|0:0,0:0:0:0:
235,303,69580,6,0,P|210:251|209:199,1,94.499993778229,8|0,0:0|0:0,0:0:0:0:
395,355,69754,2,0,P|420:303|421:251,1,94.499993778229,2|0,3:2|0:0,0:0:0:0:
256,109,69929,5,0,3:0:0:0:
329,279,70103,1,2,3:2:0:0:
416,109,70278,1,8,3:2:0:0:
329,279,70452,1,2,3:2:0:0:
241,91,70627,2,0,L|310:83,3,60.7499960002901,8|8|8|8,3:2|3:2|3:2|3:2,0:0:0:0:
176,110,70801,5,8,3:2:0:0:
132,152,70888,1,8,3:2:0:0:
121,211,70975,1,8,3:2:0:0:
134,270,71063,1,8,3:2:0:0:
172,316,71150,1,8,3:2:0:0:
228,338,71237,1,8,3:2:0:0:
290,335,71324,6,0,P|352:289|350:178,1,188.999987556458,8|0,3:2|0:0,0:0:0:0:
176,110,71586,2,0,P|184:186|281:240,1,188.999987556458,8|0,3:2|0:0,0:0:0:0:
428,115,71847,2,0,P|357:84|262:141,1,188.999987556458,8|0,3:2|0:0,0:0:0:0:
415,303,72109,2,0,L|429:96,1,188.999987556458,8|0,3:2|0:0,0:0:0:0:
337,194,72371,6,0,L|329:297,1,94.499993778229,8|0,3:2|0:0,0:0:0:0:
501,307,72545,2,0,L|508:203,1,94.499993778229,8|0,2:3|0:0,0:0:0:0:
488,31,72720,6,0,B|438:89|438:89|390:58|390:58|366:99|317:121|251:91,1,263.249978651048,6|0,3:2|0:0,0:0:0:0:
137,22,73067,1,8,0:0:0:0:
137,22,73153,1,0,0:0:0:0:
137,22,73240,2,0,P|158:74|158:109,1,87.7499928836826,2|2,0:0|0:0,0:0:0:0:
278,100,73414,1,2,3:0:0:0:
278,100,73500,1,2,0:3:0:0:
278,100,73587,2,0,P|257:152|257:187,1,87.7499928836826,2|2,0:0|0:0,0:0:0:0:
27,54,73760,1,8,3:2:0:0:
27,54,73846,1,2,0:3:0:0:
27,54,73933,2,0,P|48:106|48:141,1,87.7499928836826,2|2,0:0|0:0,0:0:0:0:
49,246,74107,5,2,3:0:0:0:
92,240,74193,1,0,0:0:0:0:
123,270,74280,1,2,0:0:0:0:
166,272,74367,1,0,0:0:0:0:
193,306,74454,6,0,P|233:341|277:350,1,87.7499928836826,10|0,3:2|0:0,0:0:0:0:
339,215,74627,2,0,P|297:228|266:258,1,87.7499928836826,2|0,0:0|0:0,0:0:0:0:
380,367,74800,6,0,L|378:268,1,87.7499928836826,2|0,3:0|0:0,0:0:0:0:
269,171,74974,2,0,L|267:270,1,87.7499928836826,2|0,0:0|0:0,0:0:0:0:
343,131,75147,6,0,P|306:95|258:88,1,87.7499928836826,8|0,3:2|0:0,0:0:0:0:
196,215,75321,2,0,P|233:251|281:258,1,87.7499928836826,2|0,0:0|0:0,0:0:0:0:
178,122,75494,6,0,B|114:134|87:202|109:252|109:252|49:246|16:289,1,263.249978651048,2|2,3:0|0:0,0:0:0:0:
196,215,75841,1,8,0:0:0:0:
196,215,75928,1,0,0:0:0:0:
196,215,76014,2,0,P|241:195|266:156,1,87.7499928836826,2|2,0:0|0:0,0:0:0:0:
90,332,76188,1,2,3:3:0:0:
90,332,76275,1,2,0:3:0:0:
90,332,76361,2,0,P|45:312|20:273,1,87.7499928836826,2|2,0:0|0:0,0:0:0:0:
247,356,76535,1,8,3:2:0:0:
247,356,76622,1,2,0:3:0:0:
247,356,76708,2,0,P|292:336|317:297,1,87.7499928836826,2|2,0:0|0:0,0:0:0:0:
383,163,76881,5,2,3:0:0:0:
417,190,76968,1,0,0:0:0:0:
412,233,77055,1,2,0:0:0:0:
442,264,77141,1,0,0:0:0:0:
442,308,77228,6,0,P|430:359|405:397,1,87.7499928836826,8|0,3:2|0:0,0:0:0:0:
283,224,77402,2,0,P|295:275|320:313,1,87.7499928836826,2|0,0:0|0:0,0:0:0:0:
496,157,77575,6,0,P|454:182|404:189,1,87.7499928836826,2|0,3:0|0:0,0:0:0:0:
254,71,77748,2,0,P|296:80|333:103,1,74.2499996433258,2|0,0:0|0:0,0:0:0:0:
499,173,77922,6,0,P|462:194|420:200,1,60.7499960002901,8|0,0:0|0:0,0:0:0:0:
270,60,78095,2,0,P|298:69|323:86,1,47.2499968891145,0|2,3:0|0:2,0:0:0:0:
305,243,78269,6,0,B|328:190|328:190|284:195|242:176|242:176|271:238|249:324,1,273.37499138689,0|0,3:0|0:0,0:0:0:0:
138,283,78615,2,0,L|152:90,1,182.249994257927,8|2,0:0|0:0,0:0:0:0:
110,291,78876,1,0,0:0:0:0:
82,300,78962,2,0,L|88:203,1,91.1249971289635,2|2,3:0|0:3,0:0:0:0:
151,101,79136,1,2,0:0:0:0:
179,92,79222,2,0,L|185:182,1,91.1249971289635,2|8,0:0|3:2,0:0:0:0:
108,306,79396,1,2,0:3:0:0:
80,315,79483,1,2,0:0:0:0:
54,323,79569,1,2,0:0:0:0:
28,332,79656,5,2,3:0:0:0:
73,337,79743,1,0,0:0:0:0:
117,342,79829,1,2,0:0:0:0:
162,347,79916,1,0,0:0:0:0:
207,353,80003,6,0,B|253:334|253:334|310:342,1,91.1249971289635,8|0,0:0|0:0,0:0:0:0:
380,243,80176,2,0,B|339:248|339:248|293:229,1,91.1249971289635,2|0,0:0|0:0,0:0:0:0:
170,219,80350,6,0,P|192:175|193:122,1,91.1249971289635,2|0,3:0|0:0,0:0:0:0:
318,315,80523,2,0,P|296:271|295:218,1,91.1249971289635,2|0,0:0|0:0,0:0:0:0:
341,36,80696,6,0,P|363:80|364:133,1,91.1249971289635,8|0,0:0|0:0,0:0:0:0:
147,304,80870,2,0,P|150:258|171:218,1,91.1249971289635,2|0,0:0|0:0,0:0:0:0:
217,58,81043,6,0,B|27:69|27:69|103:111,1,273.37499138689,4|0,3:2|0:0,0:0:0:0:
271,149,81390,1,8,3:2:0:0:
271,149,81477,1,0,0:0:0:0:
271,149,81563,2,0,L|171:143,1,91.1249971289635,2|2,0:0|0:0,0:0:0:0:
395,54,81737,1,2,3:0:0:0:
395,54,81823,2,0,L|295:60,1,91.1249971289635,2|2,0:3|0:0,0:0:0:0:
471,215,81997,1,2,0:0:0:0:
471,215,82083,2,0,L|371:209,1,91.1249971289635,8|2,0:0|0:3,0:0:0:0:
271,149,82257,1,2,0:0:0:0:
271,149,82344,1,2,0:0:0:0:
271,149,82430,5,2,3:0:0:0:
294,188,82517,1,0,0:0:0:0:
273,228,82604,1,2,0:3:0:0:
296,267,82691,1,2,0:0:0:0:
275,307,82777,6,0,P|240:338|189:352,1,91.1249971289635,8|0,0:0|0:0,0:0:0:0:
270,63,82951,2,0,P|312:77|346:107,1,91.1249971289635,2|0,0:0|0:0,0:0:0:0:
179,204,83124,1,0,3:0:0:0:
179,204,83211,1,2,0:0:0:0:
179,204,83298,2,0,L|70:194,1,91.1249971289635,2|0,0:0|0:0,0:0:0:0:
334,249,83471,1,8,0:0:0:0:
334,249,83558,1,2,0:0:0:0:
334,249,83644,2,0,L|424:240,1,91.1249971289635,2|2,3:2|0:0,0:0:0:0:
359,51,83818,6,0,B|266:81|264:179|264:179|245:125|190:98|141:119,1,323.999988555908,4|0,3:2|0:0,0:0:0:0:
372,159,84165,1,8,0:0:0:0:
372,159,84251,1,0,0:0:0:0:
372,159,84338,2,0,P|429:144|459:101,1,107.999996185303,2|2,0:0|0:0,0:0:0:0:
276,262,84511,1,2,3:3:0:0:
276,262,84597,1,2,0:3:0:0:
276,262,84685,2,0,P|219:247|189:204,1,107.999996185303,2|2,0:0|0:0,0:0:0:0:
400,352,84858,1,8,3:2:0:0:
400,352,84944,1,2,0:3:0:0:
400,352,85031,2,0,P|457:337|487:294,1,107.999996185303,2|2,0:0|0:0,0:0:0:0:
372,159,85205,5,2,3:0:0:0:
353,185,85292,1,0,0:0:0:0:
361,215,85378,1,2,0:0:0:0:
339,239,85465,1,0,0:0:0:0:
345,270,85552,6,0,P|361:328|351:380,1,107.999996185303,8|0,0:0|0:0,0:0:0:0:
265,192,85725,2,0,P|206:176|166:142,1,107.999996185303,2|0,0:0|0:0,0:0:0:0:
372,159,85899,2,0,P|414:116|464:98,1,107.999996185303,2|0,3:0|0:0,0:0:0:0:
431,329,86072,6,0,P|381:308|344:269,1,107.999996185303,2|0,0:0|0:0,0:0:0:0:
171,238,86246,2,0,P|213:205|265:192,1,107.999996185303,8|0,0:0|0:0,0:0:0:0:
381,54,86419,2,0,P|388:107|372:158,1,107.999996185303,2|2,0:0|0:0,0:0:0:0:
254,279,86592,6,0,P|185:233|319:121,1,323.999988555908,2|0,3:0|0:0,0:0:0:0:
339,254,86939,1,8,0:0:0:0:
339,254,87026,1,0,0:0:0:0:
339,254,87113,2,0,L|326:371,1,107.999996185303,2|2,0:0|0:0,0:0:0:0:
444,132,87286,1,2,3:0:0:0:
444,132,87373,1,2,0:3:0:0:
444,132,87460,2,0,L|457:249,1,107.999996185303,2|2,0:0|0:0,0:0:0:0:
325,9,87633,1,8,3:2:0:0:
325,9,87720,1,2,0:3:0:0:
325,9,87807,2,0,L|312:126,1,107.999996185303,2|2,0:0|0:0,0:0:0:0:
277,234,87980,5,2,3:0:0:0:
245,190,88066,1,2,0:3:0:0:
198,161,88153,1,2,0:0:0:0:
145,149,88240,1,0,0:0:0:0:
94,151,88326,6,0,P|45:170|6:227,1,114.749998135567,8|0,0:0|0:0,0:0:0:0:
232,308,88500,2,0,P|179:286|146:240,1,114.749998135567,2|0,0:0|0:0,0:0:0:0:
235,73,88673,6,0,P|254:146|239:202,1,121.49999200058,2|2,3:0|0:3,0:0:0:0:
137,357,88847,2,0,P|128:297|146:240,1,121.49999200058,2|0,0:0|0:0,0:0:0:0:
264,93,89020,6,0,P|256:168|223:215,1,101.250000286102,8|0,0:0|0:0,0:0:0:0:
165,337,89193,2,0,P|146:290|146:240,1,101.250000286102,2|0,3:0|0:0,0:0:0:0:
87,68,89367,6,0,B|122:148|122:148|207:50|207:50|73:23,1,344.2499944067,2|0,3:2|0:0,0:0:0:0:
43,144,89714,2,0,B|72:211|72:211|151:225|151:225|210:153,1,229.499996271133,8|2,0:0|0:0,0:0:0:0:
292,107,89974,1,0,0:0:0:0:
292,107,90061,2,0,L|305:251,1,114.749998135567,2|2,3:0|0:3,0:0:0:0:
384,72,90234,1,2,0:0:0:0:
384,72,90321,2,0,L|371:216,1,114.749998135567,2|8,0:0|0:0,0:0:0:0:
462,31,90494,1,2,0:3:0:0:
462,31,90581,1,2,0:0:0:0:
462,31,90667,1,2,0:0:0:0:
462,31,90754,5,2,3:0:0:0:
487,82,90841,1,0,0:0:0:0:
460,133,90928,1,2,0:0:0:0:
485,184,91015,1,0,0:0:0:0:
466,237,91101,6,0,P|441:295|447:351,1,114.749998135567,8|0,0:0|0:0,0:0:0:0:
342,200,91274,2,0,L|333:66,1,114.749998135567,2|0,0:0|0:0,0:0:0:0:
252,284,91448,6,0,P|302:327|357:328,1,114.749998135567,2|2,3:0|0:3,0:0:0:0:
431,132,91621,2,0,P|381:89|326:88,1,114.749998135567,2|0,0:0|0:0,0:0:0:0:
246,248,91795,6,0,P|301:241|342:201,1,114.749998135567,8|0,0:0|0:0,0:0:0:0:
251,55,91968,2,0,P|195:61|154:101,1,114.749998135567,2|2,0:0|0:0,0:0:0:0:
43,198,92141,6,0,B|157:221|157:221|207:298|207:298|359:332,1,352.349990511589,2|0,3:0|0:0,0:0:0:0:
396,204,92488,1,8,0:0:0:0:
396,204,92575,1,0,0:0:0:0:
396,204,92662,2,0,L|254:219,1,121.49999200058,2|2,0:0|0:0,0:0:0:0:
124,120,92835,1,2,3:3:0:0:
124,120,92922,2,0,L|260:148,1,121.49999200058,2|2,0:3|0:0,0:0:0:0:
36,303,93095,1,2,0:0:0:0:
36,303,93182,2,0,L|172:275,1,121.49999200058,8|2,0:0|0:3,0:0:0:0:
275,216,93355,1,2,0:0:0:0:
275,216,93442,1,2,0:0:0:0:
275,216,93529,5,2,3:0:0:0:
334,206,93615,1,0,0:0:0:0:
391,185,93702,1,2,0:0:0:0:
433,141,93789,1,2,0:0:0:0:
464,88,93876,6,0,B|447:29|447:29|380:19,1,121.49999200058,8|0,0:0|0:0,0:0:0:0:
199,148,94049,2,0,B|216:207|216:207|283:217,1,121.49999200058,2|0,0:0|0:0,0:0:0:0:
466,294,94222,5,2,3:0:0:0:
466,294,94309,1,2,0:3:0:0:
466,294,94396,2,0,B|439:226|439:226|458:155,1,134.999995231628,2|0,0:0|0:0,0:0:0:0:
266,9,94569,1,8,0:0:0:0:
266,9,94656,1,2,0:3:0:0:
266,9,94743,2,0,B|293:77|293:77|274:148,1,134.999995231628,2|0,3:0|0:0,0:0:0:0:
130,257,94916,6,0,P|199:221|122:321,1,404.999985694885,4|0,3:2|0:0,0:0:0:0:
155,148,95263,5,8,0:0:0:0:
155,148,95350,1,0,0:0:0:0:
155,148,95436,2,0,P|237:147|301:186,1,134.999995231628,2|2,0:0|0:0,0:0:0:0:
344,82,95610,1,2,3:3:0:0:
344,82,95697,1,2,0:3:0:0:
344,82,95783,2,0,P|385:152|384:227,1,134.999995231628,2|2,0:0|0:0,0:0:0:0:
501,214,95956,1,8,0:0:0:0:
501,214,96043,1,2,0:3:0:0:
501,214,96130,2,0,P|460:285|395:321,1,134.999995231628,2|2,0:0|0:0,0:0:0:0:
252,369,96303,5,2,3:0:0:0:
291,314,96390,1,0,0:0:0:0:
251,259,96477,1,2,0:0:0:0:
290,204,96564,1,0,0:0:0:0:
253,147,96650,6,0,P|174:125|131:76,1,134.999995231628,8|0,0:0|0:0,0:0:0:0:
368,88,96824,2,0,P|289:110|246:159,1,134.999995231628,2|0,0:0|0:0,0:0:0:0:
483,146,96997,2,0,P|404:124|361:75,1,134.999995231628,2|2,3:0|0:3,0:0:0:0:
471,11,97170,6,0,L|483:151,1,134.999995231628,2|0,0:0|0:0,0:0:0:0:
357,222,97344,2,0,L|369:82,1,134.999995231628,8|0,0:0|0:0,0:0:0:0:
242,12,97517,2,0,L|254:152,1,134.999995231628,2|0,0:0|0:0,0:0:0:0:
271,306,97691,6,0,B|236:240|236:240|148:232|148:232|189:307|189:307|102:305|102:305|69:242,1,404.999985694885,2|0,3:0|0:0,0:0:0:0:
119,134,98037,1,8,0:0:0:0:
119,134,98124,1,0,0:0:0:0:
119,134,98211,2,0,L|286:149,1,134.999995231628,2|2,0:0|0:0,0:0:0:0:
405,293,98384,1,2,3:3:0:0:
405,293,98471,1,2,0:3:0:0:
405,293,98558,2,0,L|238:308,1,134.999995231628,2|2,0:0|0:0,0:0:0:0:
69,243,98731,1,8,0:0:0:0:
69,243,98818,1,2,0:3:0:0:
69,243,98905,2,0,L|236:258,1,134.999995231628,2|2,0:0|0:0,0:0:0:0:
359,204,99078,5,2,3:0:0:0:
298,172,99165,1,2,0:3:0:0:
267,112,99251,1,2,0:0:0:0:
480,60,99425,2,0,P|412:50|354:13,1,134.999995231628,8|0,0:0|0:0,0:0:0:0:
144,157,99598,2,0,P|201:121|267:112,1,134.999995231628,2|0,0:0|0:0,0:0:0:0:
389,230,99772,6,0,L|379:79,1,134.999995231628,2|0,0:0|0:0,0:0:0:0:
215,337,99945,2,0,L|225:186,1,134.999995231628,2|0,3:0|0:0,0:0:0:0:
380,259,100118,6,0,L|370:108,1,121.49999200058,8|0,0:0|0:0,0:0:0:0:
237,321,100292,2,0,L|247:170,1,121.49999200058,2|0,3:0|0:0,0:0:0:0:
278,48,100465,6,0,P|221:71|167:72,1,101.250000286102,4|2,3:2|0:0,0:0:0:0:
37,40,100639,1,0,3:0:0:0:
37,40,100725,1,0,3:0:0:0:
37,40,100812,2,0,P|58:91|58:150,1,101.250000286102,8|2,0:0|0:0,0:0:0:0:
181,73,100985,1,0,3:0:0:0:
181,73,101071,1,0,3:0:0:0:
181,73,101159,2,0,P|160:124|161:189,1,118.124996954203,0|2,3:0|0:0,0:0:0:0:
43,211,101332,1,2,0:0:0:0:
43,211,101419,2,0,P|66:267|66:333,1,118.124996954203,2|8,0:0|0:0,0:0:0:0:
180,264,101592,1,2,0:0:0:0:
180,264,101679,2,0,P|158:316|158:378,1,118.124996954203,2|2,0:0|0:0,0:0:0:0:
314,336,101852,5,12,0:0:0:0:
337,273,101938,1,2,0:0:0:0:
290,223,102025,1,0,3:0:0:0:
313,160,102112,1,0,3:0:0:0:
270,107,102199,6,0,P|198:102|144:63,1,134.999995231628,2|0,3:0|0:0,0:0:0:0:
25,188,102373,2,0,P|97:193|151:232,1,134.999995231628,2|0,0:0|0:0,0:0:0:0:
277,242,102546,2,0,L|270:99,1,134.999995231628,8|0,0:0|0:0,0:0:0:0:
147,227,102720,2,0,L|140:370,1,134.999995231628,2|0,0:0|0:0,0:0:0:0:
301,225,102893,2,0,L|294:82,1,134.999995231628,8|0,0:0|0:0,0:0:0:0:
115,246,103066,2,0,L|108:389,1,134.999995231628,2|0,3:0|0:0,0:0:0:0:
196,138,103240,5,2,3:0:0:0:
196,138,103326,1,0,3:0:0:0:
196,138,103413,2,0,L|57:152,1,134.999995231628,8|0,3:2|3:0,0:0:0:0:
301,225,103587,1,2,3:0:0:0:
301,225,103673,1,2,3:0:0:0:
301,225,103760,2,0,L|435:238,1,134.999995231628,4|0,3:2|3:0,0:0:0:0:
151,41,103933,1,0,3:0:0:0:
151,41,104020,1,0,3:0:0:0:
151,41,104107,2,0,L|12:55,1,134.999995231628,8|2,3:2|3:0,0:0:0:0:
212,309,104280,1,0,3:0:0:0:
212,309,104367,1,2,3:0:0:0:
212,309,104454,2,0,L|351:323,1,134.999995231628,0|2,3:0|3:0,0:0:0:0:
456,98,104627,5,2,3:0:0:0:
415,152,104714,1,0,3:0:0:0:
358,188,104800,1,0,3:0:0:0:
291,198,104887,1,0,3:0:0:0:
225,179,104974,1,2,3:0:0:0:
178,129,105061,1,0,3:0:0:0:
111,118,105147,1,0,3:0:0:0:
47,141,105234,1,0,3:0:0:0:
16,201,105321,2,0,L|7:276,7,67.4999976158142,2|0|0|0|0|0|0|0,3:0|3:0|3:0|3:0|3:0|3:0|3:0|3:0,0:0:0:0:
85,235,105667,5,2,3:0:0:0:
152,243,105754,1,0,3:0:0:0:
219,251,105841,1,0,3:0:0:0:
286,259,105928,1,0,3:0:0:0:
344,192,106014,5,6,3:2:0:0:
