osu file format v14

[General]
AudioFilename: audio.mp3
AudioLeadIn: 0
PreviewTime: 70888
Countdown: 0
SampleSet: Soft
StackLeniency: 0.5
Mode: 0
LetterboxInBreaks: 0
WidescreenStoryboard: 1

[Editor]
Bookmarks: 2207,13501,24795,36089,47383,58677,71324,83818,94916,106014
DistanceSpacing: 1.1
BeatDivisor: 2
GridSize: 4
TimelineZoom: 1.799999

[Metadata]
Title:Brain Power
TitleUnicode:Brain Power
Artist:NOMA
ArtistUnicode:ノマ
Creator:Monstrata
Version:Nhawakuron's Normal
Source:SOUND VOLTEX II -infinite infection-
Tags:rizen a q p w nhawak kuron-kun gero doormat dailycare rohit6 haruto haruto_aizawa pentori snownino_ sdvx museca
BeatmapID:1179346
BeatmapSetID:546384

[Difficulty]
HPDrainRate:4
CircleSize:3.5
OverallDifficulty:4
ApproachRate:5.5
SliderMultiplier:1.09999990463257
SliderTickRate:1

[Events]
//Background and Video events
0,0,"Brain Power.png",0,0
//Break Periods
//Storyboard Layer 0 (Background)
//Storyboard Layer 1 (Fail)
//Storyboard Layer 2 (Pass)
//Storyboard Layer 3 (Foreground)
//Storyboard Sound Samples

[TimingPoints]
2207,352.941176470588,4,2,3,70,1,0
19324,-100,4,2,3,40,0,0
19501,-100,4,2,3,70,0,0
19677,-100,4,2,3,40,0,0
19854,-100,4,2,3,70,0,0
22677,-100,4,2,3,80,0,0
23383,-100,4,2,3,70,0,0
23559,-100,4,2,3,5,0,0
23648,-100,4,2,3,70,0,0
23824,-100,4,2,3,5,0,0
23912,-100,4,2,3,70,0,0
24089,-100,4,2,3,5,0,0
24177,-100,4,2,3,70,0,0
24354,-100,4,2,3,5,0,0
24442,-100,4,2,3,70,0,0
24530,-100,4,2,3,5,0,0
24618,-100,4,2,3,70,0,0
24706,-100,4,2,3,5,0,0
24795,-100,4,2,3,70,0,0
64324,350.877192982456,4,2,3,70,1,0
68534,348.837209302326,4,2,3,70,1,0
71324,-100,4,2,3,60,0,0
71499,-100,4,2,3,5,0,0
71586,-100,4,2,3,60,0,0
71760,-100,4,2,3,5,0,0
71847,-100,4,2,3,70,0,0
72022,-100,4,2,3,5,0,0
72109,-100,4,2,3,80,0,0
72284,-100,4,2,3,5,0,0
72371,-100,4,2,3,80,0,0
72458,-100,4,2,3,5,0,0
72545,-100,4,2,3,80,0,0
72632,-100,4,2,3,5,0,0
72720,346.820809248555,4,2,3,80,1,1
106014,-100,4,2,3,80,0,0
106058,-100,4,2,3,30,0,0
110176,-100,4,2,3,5,0,0

[Colours]
Combo1 : 0,128,192
Combo2 : 128,0,255
Combo3 : 187,119,255
Combo4 : 128,255,255

[HitObjects]
16,36,1854,6,0,L|30:89,1,54.9999952316285,0|0,0:0|0:0,0:0:0:0:
48,140,2207,6,0,B|144:96|144:192|264:132,1,219.999980926514,4|0,3:2|3:0,0:0:0:0:
328,48,3265,1,8,3:2:0:0:
416,112,3618,2,0,P|436:162|427:215,1,109.999990463257,0|8,3:0|3:2,0:0:0:0:
364,303,4324,2,0,P|414:324|467:315,1,109.999990463257,0|8,3:0|3:2,0:0:0:0:
427,215,5030,5,0,3:0:0:0:
316,208,5383,1,8,3:2:0:0:
364,303,5736,1,0,3:0:0:0:
427,215,6089,1,8,3:2:0:0:
316,208,6442,6,0,P|265:187|212:196,1,109.999990463257,0|8,3:0|3:2,0:0:0:0:
104,224,7148,2,0,L|80:104,1,109.999990463257,0|8,3:0|3:2,0:0:0:0:
72,64,7677,1,2,3:2:0:0:
72,64,7854,6,0,P|122:43|175:52,1,109.999990463257,0|8,3:0|0:0,0:0:0:0:
268,116,8559,2,0,P|288:65|279:12,1,109.999990463257,0|8,3:0|0:0,0:0:0:0:
175,52,9265,5,0,3:0:0:0:
168,160,9618,1,8,0:0:0:0:
268,116,9971,1,0,3:0:0:0:
252,224,10324,1,8,0:0:0:0:
356,184,10677,6,0,L|464:165,1,109.999990463257,0|8,3:0|0:0,0:0:0:0:
448,276,11383,2,0,L|339:294,1,109.999990463257,0|8,3:0|0:0,0:0:0:0:
252,224,12089,6,0,P|231:173|240:120,1,109.999990463257,0|8,3:0|0:0,0:0:0:0:
276,76,12618,1,2,0:3:0:0:
276,76,12795,2,0,B|243:79|229:68|229:68|213:76|213:76|197:68|197:68|179:75|179:75|162:69|162:69|126:102|64:80,1,219.999980926514,0|0,3:0|3:0,0:0:0:0:
20,180,13854,6,0,B|16:208|16:208|24:248,1,54.9999952316285,8|2,0:0|0:0,0:0:0:0:
60,272,14206,2,0,B|116:260|116:260|160:288,1,109.999990463257,0|8,3:0|0:0,0:0:0:0:
200,324,14736,1,2,0:0:0:0:
200,324,14912,6,0,L|316:316,1,109.999990463257,0|8,3:0|0:0,0:0:0:0:
364,332,15442,1,2,0:0:0:0:
364,332,15618,2,0,B|420:344|420:344|464:316,1,109.999990463257,0|8,3:0|0:0,0:0:0:0:
452,204,16324,6,0,B|396:192|396:192|352:220,1,109.999990463257,0|8,3:0|0:0,0:0:0:0:
256,164,17030,1,0,3:0:0:0:
160,220,17383,2,0,P|136:224|84:212,1,54.9999952316285,8|2,0:0|0:0,0:0:0:0:
56,196,17736,6,0,L|36:64,1,109.999990463257,0|8,3:0|0:0,0:0:0:0:
76,44,18265,1,2,0:0:0:0:
76,44,18442,2,0,P|120:32|184:60,1,109.999990463257,0|8,3:0|3:2,0:0:0:0:
228,80,18971,1,2,3:2:0:0:
260,124,19148,6,0,P|320:152|276:20,1,329.999971389771,4|8,3:2|3:2,0:0:0:0:
180,56,20559,6,0,P|156:124|160:180,1,109.999990463257,4|8,3:2|3:2,0:0:0:0:
48,168,21265,2,0,P|79:233|121:269,1,109.999990463257,4|8,3:2|3:2,0:0:0:0:
196,320,21971,5,4,3:2:0:0:
304,328,22324,1,12,3:2:0:0:
404,280,22677,1,12,3:2:0:0:
428,172,23030,2,0,P|380:172|352:184,1,54.9999952316285,12|0,3:2|3:0,0:0:0:0:
320,188,23383,6,0,P|276:172|248:130,2,82.4999928474427,2|2|2,3:0|3:0|3:0,0:0:0:0:
328,104,24177,1,6,3:0:0:0:
368,32,24442,2,0,P|316:24|292:36,1,54.9999952316285,2|2,3:2|3:2,0:0:0:0:
264,48,24795,6,0,P|209:45|158:24,1,109.999990463257,4|8,3:2|0:0,0:0:0:0:
56,64,25501,2,0,P|34:114|32:169,1,109.999990463257,0|8,3:0|0:0,0:0:0:0:
56,220,26030,1,2,0:0:0:0:
56,220,26206,2,0,B|112:208|112:208|156:236,1,109.999990463257,0|8,3:0|0:0,0:0:0:0:
232,316,26912,1,0,3:0:0:0:
312,240,27265,2,0,P|339:235|366:238,1,54.9999952316285,8|2,0:0|0:0,0:0:0:0:
420,240,27618,6,0,P|441:189|443:134,1,109.999990463257,0|8,3:0|0:0,0:0:0:0:
372,52,28324,2,0,P|317:54|266:75,1,109.999990463257,0|8,3:0|0:0,0:0:0:0:
228,116,28854,1,2,0:0:0:0:
228,116,29030,2,0,L|208:-16,1,109.999990463257,0|8,3:0|0:0,0:0:0:0:
120,68,29736,1,0,3:0:0:0:
128,176,30089,2,0,P|100:175|74:168,1,54.9999952316285,8|2,3:2|3:2,0:0:0:0:
35,128,30442,6,0,B|16:183|58:183|29:247,1,109.999990463257,0|8,3:0|0:0,0:0:0:0:
25,290,30971,1,2,0:0:0:0:
25,290,31148,2,0,B|63:279|63:279|144:302,1,109.999990463257,0|8,3:0|0:0,0:0:0:0:
235,333,31854,1,0,3:0:0:0:
216,224,32206,1,8,0:0:0:0:
317,267,32559,6,0,P|345:268|371:275,1,54.9999952316285,0|2,3:0|0:0,0:0:0:0:
416,305,32912,2,0,P|417:277|424:251,1,54.9999952316285,8|2,0:0|0:0,0:0:0:0:
464,213,33265,2,0,L|444:81,1,109.999990463257,0|8,3:0|0:0,0:0:0:0:
366,28,33971,2,0,L|346:160,1,109.999990463257,0|8,3:0|0:0,0:0:0:0:
340,191,34501,1,2,0:0:0:0:
340,191,34677,5,2,0:3:0:0:
265,272,35030,2,0,B|224:232|232:170|232:170|182:221|182:221|154:212|154:212|131:222|131:222|70:200,1,274.999976158142,2|0,0:0|0:0,0:0:0:0:
44,188,36089,5,0,3:0:0:0:
68,80,36442,2,0,L|180:92,1,109.999990463257,8|0,0:0|3:0,0:0:0:0:
228,68,36971,1,2,0:0:0:0:
228,68,37148,2,0,B|256:60|256:60|284:68,1,54.9999952316285,8|2,0:0|0:0,0:0:0:0:
334,91,37501,6,0,L|444:80,1,109.999990463257,0|8,3:0|0:0,0:0:0:0:
504,172,38206,1,0,3:0:0:0:
484,280,38559,2,0,P|456:280|416:264,1,54.9999952316285,8|2,0:0|0:0,0:0:0:0:
384,240,38912,6,0,P|336:248|276:360,1,164.999985694885,0|2,3:0|0:0,0:0:0:0:
324,360,39618,2,0,B|240:344|244:392|144:372,1,164.999985694885,0|2,3:0|0:0,0:0:0:0:
112,352,40324,5,0,3:0:0:0:
24,288,40677,2,0,L|36:208,1,54.9999952316285,8|2,0:0|0:0,0:0:0:0:
44,180,41030,2,0,P|112:184|168:244,1,109.999990463257,0|8,3:0|3:2,0:0:0:0:
196,228,41559,1,2,3:2:0:0:
232,272,41736,6,0,P|300:268|356:208,1,109.999990463257,0|8,3:0|0:0,0:0:0:0:
408,164,42442,2,0,L|412:40,1,109.999990463257,0|8,3:0|0:0,0:0:0:0:
304,36,43148,6,0,B|260:32|260:32|239:42|239:42|183:37,1,109.999990463257,0|8,3:0|0:0,0:0:0:0:
144,136,43854,2,0,B|186:139|186:139|207:129|207:129|251:133,1,109.999990463257,0|8,3:0|0:0,0:0:0:0:
300,160,44383,1,2,0:0:0:0:
300,160,44559,6,0,L|292:228,1,54.9999952316285,0|2,3:0|0:0,0:0:0:0:
284,268,44912,2,0,B|205:263|205:263|156:296|156:296|56:288,1,219.999980926514,8|8,0:0|0:0,0:0:0:0:
24,192,45971,5,0,3:0:0:0:
132,176,46324,1,8,0:0:0:0:
240,160,46677,6,0,B|244:136|244:136|236:112|236:112|240:72,2,73.3333269755047,2|0|2,3:3|3:0|3:0,0:0:0:0:
244,232,47383,6,0,B|281:183|337:187|337:187|321:251|369:287,1,219.999980926514,4|8,3:2|0:0,0:0:0:0:
444,368,48442,2,0,P|463:349|472:323,1,54.9999952316285,2|2,0:3|0:3,0:0:0:0:
456,272,48795,6,0,B|460:248|460:248|452:224|452:224|456:184,2,73.3333269755047,2|0|0,3:1|0:0|0:0,0:0:0:0:
392,312,49501,2,0,B|300:284|332:340|228:312,1,164.999985694885,8|2,0:0|0:0,0:0:0:0:
184,284,50206,2,0,B|168:144|168:144|172:188|216:212,1,219.999980926514,0|8,3:2|0:0,0:0:0:0:
264,212,51089,1,2,0:3:0:0:
264,212,51265,1,2,0:3:0:0:
348,144,51618,6,0,P|357:90|336:40,1,109.999990463257,2|2,3:1|0:3,0:0:0:0:
280,32,52148,1,2,0:3:0:0:
280,32,52324,2,0,B|224:68|176:40|176:40|152:68|108:76,1,164.999985694885,8|2,3:2|0:0,0:0:0:0:
92,108,53030,6,0,B|152:116|177:166|177:166|113:185|106:244,2,219.999980926514,2|8|4,3:0|0:0|3:0,0:0:0:0:
164,24,54795,2,0,P|190:28|212:44,1,54.9999952316285,2|0,0:0|0:0,0:0:0:0:
252,84,55148,2,0,B|300:103|300:103|353:82,1,109.999990463257,2|2,0:3|0:3,0:0:0:0:
396,48,55677,1,0,0:0:0:0:
396,48,55854,6,0,B|384:126|384:126|412:177|412:177|396:276,1,219.999980926514,2|8,3:1|0:0,0:0:0:0:
372,364,56912,2,0,P|346:355|327:335,1,54.9999952316285,2|2,0:3|0:3,0:0:0:0:
292,292,57265,6,0,B|237:273|237:315|173:286,1,109.999990463257,0|2,3:0|0:1,0:0:0:0:
132,272,57795,1,0,0:0:0:0:
132,272,57971,2,0,B|104:208|104:208|136:68,1,164.999985694885,8|2,0:0|0:0,0:0:0:0:
140,64,58677,6,0,P|188:56|252:92,1,109.999990463257,4|8,3:2|0:0,0:0:0:0:
284,120,59206,1,2,0:0:0:0:
284,120,59383,2,0,L|408:104,1,109.999990463257,0|8,3:0|0:0,0:0:0:0:
504,88,60089,6,0,B|509:149|478:144|483:202,1,109.999990463257,0|8,3:0|0:0,0:0:0:0:
408,276,60795,2,0,P|352:288|296:316,1,109.999990463257,0|8,3:0|0:0,0:0:0:0:
256,340,61324,1,2,0:0:0:0:
256,340,61501,6,0,P|208:344|72:244,1,219.999980926514,0|0,3:0|3:0,0:0:0:0:
96,140,62559,1,8,0:0:0:0:
192,84,62912,6,0,P|299:96|373:174,1,219.999980926514,0|0,3:0|3:0,0:0:0:0:
408,280,63971,2,0,L|396:356,1,54.9999952316285,8|2,3:2|3:2,0:0:0:0:
352,364,64324,6,0,P|320:368|288:364,1,54.9999952316285,0|2,3:0|0:0,0:0:0:0:
264,320,64674,2,0,P|224:300|144:304,1,109.999990463257,8|0,0:0|3:0,0:0:0:0:
52,324,65376,2,0,L|48:248,1,54.9999952316285,8|2,0:0|0:0,0:0:0:0:
80,224,65727,6,0,B|77:178|77:178|84:160|84:160|80:112,1,109.999990463257,0|8,3:0|0:0,0:0:0:0:
188,92,66429,2,0,B|235:118|235:118|296:108,1,109.999990463257,0|8,3:0|0:0,0:0:0:0:
344,92,66955,1,2,0:0:0:0:
344,92,67131,6,0,L|420:104,1,54.9999952316285,0|2,3:0|0:0,0:0:0:0:
452,112,67481,2,0,P|464:184|448:220,1,109.999990463257,8|0,0:0|3:0,0:0:0:0:
372,292,68183,1,8,0:0:0:0:
264,264,68534,6,0,B|164:232|148:308|44:264,1,219.999980926514,2|0,3:0|3:0,0:0:0:0:
104,172,69580,1,8,0:0:0:0:
104,172,69754,1,2,3:2:0:0:
104,172,69929,6,0,L|112:88,1,54.9999952316285,0|2,3:0|3:2,0:0:0:0:
148,76,70278,2,0,B|177:69|177:69|212:73,1,54.9999952316285,8|2,3:2|3:2,0:0:0:0:
244,108,70627,6,0,B|280:124|280:124|312:124|312:124|336:116|336:116|364:96|364:96|372:56,1,164.999985694885,8|8,3:2|3:2,0:0:0:0:
415,31,71324,6,0,B|374:21|374:21|331:22,2,82.4999928474427,8|8|8,3:2|3:2|3:2,0:0:0:0:
468,92,72109,1,8,3:2:0:0:
464,176,72371,2,0,L|456:252,1,54.9999952316285,8|8,3:2|2:3,0:0:0:0:
452,285,72720,6,0,B|417:360|308:360|276:285|276:285|207:328|207:328|125:298,1,384.999966621399,6|2,3:2|0:0,0:0:0:0:
87,262,74107,2,0,P|72:238|71:210,1,54.9999952316285,2|2,3:0|0:0,0:0:0:0:
107,170,74454,2,0,B|104:124|104:124|111:106|111:106|107:58,1,109.999990463257,10|2,3:2|3:0,0:0:0:0:
216,51,75147,2,0,L|217:108,1,54.9999952316285,8|2,3:2|0:0,0:0:0:0:
219,161,75494,6,0,B|281:183|326:156|326:156|382:174|406:227|406:227|301:248|301:248|337:284|321:343,1,384.999966621399,2|2,3:0|0:0,0:0:0:0:
328,353,76881,2,0,P|300:350|275:359,1,54.9999952316285,2|2,3:0|0:0,0:0:0:0:
222,374,77228,2,0,L|75:364,1,109.999990463257,8|2,3:2|3:0,0:0:0:0:
120,256,77922,1,8,0:0:0:0:
120,256,78095,1,0,3:0:0:0:
120,256,78269,6,0,B|84:153|84:153|232:72|191:205|365:132,1,384.999966621399,0|2,3:0|0:0,0:0:0:0:
401,128,79656,2,0,P|410:153|407:180,1,54.9999952316285,2|2,3:0|0:0,0:0:0:0:
377,227,80003,2,0,P|377:299|399:332,1,109.999990463257,8|2,0:0|3:0,0:0:0:0:
286,322,80696,2,0,P|275:297|276:270,1,54.9999952316285,8|2,0:0|0:0,0:0:0:0:
278,214,81043,6,0,B|223:180|169:210|169:210|240:136|240:136|186:119|183:49|183:49|168:90|124:105,1,384.999966621399,4|2,3:2|0:0,0:0:0:0:
115,135,82430,2,0,P|89:144|62:140,1,54.9999952316285,2|2,3:0|0:3,0:0:0:0:
11,120,82777,2,0,B|14:166|14:166|7:184|7:184|11:232,1,109.999990463257,8|0,0:0|3:0,0:0:0:0:
12,338,83471,1,8,0:0:0:0:
12,338,83644,1,2,3:2:0:0:
12,338,83818,6,0,B|108:336|136:236|136:236|172:272|172:272|228:280|228:280|236:348|316:372,1,384.999966621399,4|2,3:2|0:0,0:0:0:0:
340,364,85205,2,0,P|360:344|376:296,1,54.9999952316285,2|2,3:0|0:0,0:0:0:0:
376,264,85552,2,0,L|360:148,1,109.999990463257,8|2,0:0|3:0,0:0:0:0:
332,108,86072,1,2,0:0:0:0:
332,108,86246,2,0,B|308:100|308:100|272:100,1,54.9999952316285,8|2,0:0|0:0,0:0:0:0:
224,116,86592,6,0,B|196:92|184:40|184:40|128:88|128:88|44:76|44:76|84:168|48:216,1,384.999966621399,2|2,3:0|0:0,0:0:0:0:
36,264,87980,2,0,P|64:272|160:348,1,109.999990463257,2|8,3:0|0:0,0:0:0:0:
188,308,88500,1,2,0:0:0:0:
188,308,88673,2,0,P|224:308|272:292,1,54.9999952316285,2|2,3:0|0:0,0:0:0:0:
296,292,89020,2,0,P|320:296|356:316,1,54.9999952316285,8|2,0:0|3:0,0:0:0:0:
392,340,89367,6,0,B|372:316|351:306|351:306|382:257|382:257|296:189|296:189|404:184|404:184|460:160,1,384.999966621399,2|2,3:2|0:0,0:0:0:0:
455,162,90754,1,2,3:0:0:0:
392,72,91101,1,8,0:0:0:0:
392,72,91274,1,2,0:0:0:0:
392,72,91448,2,0,L|316:76,1,54.9999952316285,2|2,3:0|0:0,0:0:0:0:
288,48,91795,2,0,L|233:45,1,54.9999952316285,8|2,0:0|0:0,0:0:0:0:
180,44,92141,6,0,B|130:59|95:122|132:199|203:204|203:204|272:280|208:368,1,384.999966621399,2|2,3:0|0:0,0:0:0:0:
220,349,93529,1,2,3:0:0:0:
328,320,93876,2,0,P|360:320|400:332,1,54.9999952316285,8|2,0:0|0:0,0:0:0:0:
428,296,94222,2,0,P|428:264|440:224,1,54.9999952316285,2|2,3:0|0:0,0:0:0:0:
400,196,94569,2,0,P|368:196|328:184,1,54.9999952316285,8|2,0:0|3:0,0:0:0:0:
302,157,94916,6,0,B|248:136|206:159|206:159|234:232|183:273|183:273|143:221|143:221|86:253|33:213,1,384.999966621399,4|2,3:2|0:0,0:0:0:0:
26,176,96303,2,0,P|11:152|10:124,1,54.9999952316285,2|2,3:0|0:0,0:0:0:0:
38,78,96650,2,0,P|86:53|140:58,1,109.999990463257,8|2,0:0|3:0,0:0:0:0:
230,122,97344,1,8,0:0:0:0:
230,122,97517,1,2,0:0:0:0:
230,122,97691,6,0,B|258:199|258:199|335:224|335:224|298:297|368:381|448:359,1,384.999966621399,2|2,3:0|0:0,0:0:0:0:
476,311,99078,2,0,L|491:238,1,54.9999952316285,2|2,3:0|0:0,0:0:0:0:
496,202,99425,2,0,B|501:141|470:146|475:88,1,109.999990463257,8|2,0:0|0:0,0:0:0:0:
375,47,100118,2,0,L|363:100,1,54.9999952316285,8|2,0:0|3:0,0:0:0:0:
351,160,100465,6,0,B|332:104|276:77|276:77|204:171|284:278|284:278|221:266|179:323,2,439.999961853028,4|12|2,3:2|0:0|3:0,0:0:0:0:
399,271,103587,2,0,P|389:329|328:379,2,109.999990463257,2|0|0,3:0|3:0|3:0,0:0:0:0:
314,183,104627,6,0,P|307:214|319:255,2,54.9999952316285,2|0|2,3:0|3:0|3:0,0:0:0:0:
360,143,105147,1,0,3:0:0:0:
360,143,105321,2,0,B|299:148|304:117|246:122,1,109.999990463257,2|2,3:0|3:0,0:0:0:0:
193,131,105841,1,0,3:0:0:0:
193,131,106014,5,6,3:2:0:0:
256,192,106188,12,0,110176,0:0:0:0:
