osu file format v14

[General]
AudioFilename: audio.mp3
AudioLeadIn: 0
PreviewTime: 70888
Countdown: 0
SampleSet: Normal
StackLeniency: 0.3
Mode: 0
LetterboxInBreaks: 0
WidescreenStoryboard: 0

[Editor]
Bookmarks: 89,112951
DistanceSpacing: 1.1
BeatDivisor: 4
GridSize: 4
TimelineZoom: 1.1

[Metadata]
Title:Brain Power
TitleUnicode:Brain Power
Artist:NOMA
ArtistUnicode:ノマ
Creator:Monstrata
Version:Gero's Hard
Source:SOUND VOLTEX II -infinite infection-
Tags:rizen a q p w nhawak kuron-kun gero doormat dailycare rohit6 haruto haruto_aizawa pentori snownino_ sdvx museca
BeatmapID:1216901
BeatmapSetID:546384

[Difficulty]
HPDrainRate:7
CircleSize:4
OverallDifficulty:7
ApproachRate:8
SliderMultiplier:1.59999990463257
SliderTickRate:2

[Events]
//Background and Video events
0,0,"Brain Power.png",0,0
//Break Periods
//Storyboard Layer 0 (Background)
//Storyboard Layer 1 (Fail)
//Storyboard Layer 2 (Pass)
//Storyboard Layer 3 (Foreground)
//Storyboard Sound Samples

[TimingPoints]
2207,352.941176470588,4,1,0,80,1,0
47383,-125,4,1,0,70,0,0
58677,-100,4,1,0,80,0,0
64324,350.877192982456,4,1,0,80,1,0
68534,348.837209302326,4,1,0,85,1,0
72720,346.820809248555,4,1,0,90,1,1
83731,-100,4,1,0,90,0,0
83818,-100,4,1,0,90,0,1
94829,-100,4,1,0,90,0,0
94916,-100,4,1,0,90,0,1
106014,-100,4,1,0,90,0,0
106101,-100,4,2,0,50,0,0
107402,-100,4,2,0,40,0,0
108789,-100,4,2,0,30,0,0
110176,-100,4,2,0,20,0,0
111563,-100,4,2,0,10,0,0
112951,-100,4,2,0,5,0,0

[Colours]
Combo1 : 0,128,192
Combo2 : 128,0,255
Combo3 : 187,119,255
Combo4 : 128,255,255

[HitObjects]
256,192,89,12,2,1854,0:2:0:0:
381,355,2207,5,4,0:0:0:0:
443,292,2383,1,0,0:0:0:0:
381,229,2559,2,0,P|368:192|381:155,1,79.9999952316285,8|0,0:0|0:0,0:0:0:0:
443,92,2912,2,0,B|421:57|381:44|381:44|341:57|319:92,1,159.999990463257,4|8,0:3|0:0,0:0:0:0:
256,154,3442,1,0,0:0:0:0:
192,91,3618,6,0,B|156:74|156:74|120:91,1,79.9999952316285,4|0,0:3|0:0,0:0:0:0:
40,55,3971,2,0,B|23:91|23:91|40:127,1,79.9999952316285,8|0,0:0|0:0,0:0:0:0:
120,91,4324,2,0,L|186:236,1,159.999990463257,4|8,0:3|0:0,0:0:0:0:
123,299,4854,1,0,0:0:0:0:
185,361,5030,6,0,L|264:376,1,79.9999952316285,4|0,0:3|0:0,0:0:0:0:
326,313,5383,2,0,L|405:328,1,79.9999952316285,8|0,0:0|0:0,0:0:0:0:
467,265,5736,2,0,B|500:192|500:192|467:119,1,159.999990463257,4|8,0:3|0:0,0:0:0:0:
416,192,6265,1,0,0:0:0:0:
467,119,6442,5,4,0:3:0:0:
416,47,6618,1,0,0:0:0:0:
365,120,6795,2,0,P|328:133|291:120,1,79.9999952316285,8|0,0:0|0:0,0:0:0:0:
240,192,7148,2,0,P|168:162|96:192,1,159.999990463257,4|8,0:3|0:0,0:0:0:0:
33,129,7677,1,4,0:3:0:0:
96,192,7854,6,0,B|113:228|113:228|96:264,1,79.9999952316285,4|0,0:3|0:0,0:0:0:0:
12,299,8206,2,0,B|-5:263|-5:263|12:227,1,79.9999952316285,8|0,0:0|0:0,0:0:0:0:
96,264,8559,2,0,L|241:330,1,159.999990463257,4|8,0:3|0:0,0:0:0:0:
293,260,9089,1,0,0:0:0:0:
348,192,9265,6,0,P|385:179|422:192,1,79.9999952316285,4|0,0:3|0:0,0:0:0:0:
293,124,9618,2,0,P|256:137|219:124,1,79.9999952316285,8|0,0:0|0:0,0:0:0:0:
256,44,9971,2,0,B|309:20|353:60|353:60|417:60,1,159.999990463257,4|8,0:3|0:0,0:0:0:0:
480,8,10501,1,0,0:0:0:0:
408,60,10677,5,4,0:3:0:0:
479,112,10854,1,0,0:0:0:0:
479,112,11030,2,0,B|459:131|459:131|457:139|457:139|451:133|451:133|448:142|448:142|429:161,1,79.9999952316285,8|0,0:0|0:0,0:0:0:0:
491,223,11383,2,0,B|443:270|443:270|435:273|435:273|440:278|440:278|432:281|432:281|384:329,1,159.999990463257,4|8,0:3|0:0,0:0:0:0:
314,283,11912,1,0,0:0:0:0:
245,234,12089,6,0,P|208:247|171:234,1,79.9999952316285,4|0,0:3|0:0,0:0:0:0:
133,153,12442,2,0,P|170:166|207:153,1,79.9999952316285,8|2,0:0|0:0,0:0:0:0:
271,92,12795,2,2,B|295:80|295:80|319:92,3,53.333330154419,2|2|2|8,0:3|0:3|0:3|0:0,0:0:0:0:
381,29,13324,1,2,0:0:0:0:
381,29,13501,5,4,0:0:0:0:
443,92,13677,1,0,0:0:0:0:
381,155,13854,2,0,P|368:192|381:229,1,79.9999952316285,8|0,0:0|0:0,0:0:0:0:
443,292,14206,2,0,B|421:327|381:340|381:340|341:327|319:292,1,159.999990463257,4|8,0:3|0:0,0:0:0:0:
256,230,14736,1,0,0:0:0:0:
192,293,14912,6,0,B|156:310|156:310|120:293,1,79.9999952316285,4|0,0:3|0:0,0:0:0:0:
40,329,15265,2,0,B|23:293|23:293|40:257,1,79.9999952316285,8|0,0:0|0:0,0:0:0:0:
120,293,15618,2,0,L|186:148,1,159.999990463257,4|8,0:3|0:0,0:0:0:0:
123,85,16148,1,0,0:0:0:0:
185,23,16324,6,0,L|264:8,1,79.9999952316285,4|0,0:3|0:0,0:0:0:0:
326,71,16677,2,0,L|405:56,1,79.9999952316285,8|0,0:0|0:0,0:0:0:0:
467,119,17030,2,0,B|500:192|500:192|467:265,1,159.999990463257,4|8,0:3|0:0,0:0:0:0:
416,192,17559,1,0,0:0:0:0:
467,265,17736,5,4,0:3:0:0:
416,337,17912,1,0,0:0:0:0:
365,264,18089,2,0,P|328:251|291:264,1,79.9999952316285,8|0,0:0|0:0,0:0:0:0:
240,192,18442,2,0,P|168:222|96:192,1,159.999990463257,4|8,0:3|0:0,0:0:0:0:
33,255,18971,1,4,0:3:0:0:
96,192,19148,6,0,B|113:156|113:156|96:120,1,79.9999952316285,4|0,0:2|0:0,0:0:0:0:
12,85,19501,2,0,B|-5:121|-5:121|12:157,1,79.9999952316285,8|8,0:0|0:0,0:0:0:0:
96,120,19854,2,0,L|241:54,1,159.999990463257,0|8,0:0|0:0,0:0:0:0:
293,124,20383,1,0,0:0:0:0:
348,192,20559,6,0,P|385:205|422:192,1,79.9999952316285,4|0,0:2|0:0,0:0:0:0:
293,260,20912,2,0,P|256:247|219:260,1,79.9999952316285,8|8,0:0|0:0,0:0:0:0:
256,340,21265,2,0,B|309:364|353:324|353:324|417:324,1,159.999990463257,4|8,0:2|0:0,0:0:0:0:
480,376,21795,1,8,0:0:0:0:
408,324,21971,5,4,0:2:0:0:
479,272,22148,1,8,0:0:0:0:
479,272,22324,2,0,B|459:253|459:253|457:245|457:245|451:251|451:251|448:242|448:242|429:223,1,79.9999952316285,4|8,0:2|0:0,0:0:0:0:
491,161,22677,2,0,B|443:114|443:114|435:111|435:111|440:106|440:106|432:103|432:103|384:55,1,159.999990463257,4|4,0:2|0:2,0:0:0:0:
314,101,23206,1,4,0:3:0:0:
314,101,23295,1,4,0:3:0:0:
314,101,23383,6,0,B|286:141|246:141|246:141|208:141,1,119.999992847443,4|6,0:3|0:3,0:0:0:0:
314,283,23912,2,0,B|286:243|246:243|246:243|208:243,1,119.999992847443,4|6,0:3|0:3,0:0:0:0:
64,243,24442,1,14,0:3:0:0:
136,192,24618,1,14,0:3:0:0:
64,141,24795,6,0,L|-2:95,1,79.9999952316285,4|0,0:0|0:0,0:0:0:0:
64,243,25148,2,0,L|-2:288,1,79.9999952316285,8|0,0:0|0:0,0:0:0:0:
136,192,25501,2,0,L|308:192,1,159.999990463257,4|8,0:3|0:0,0:0:0:0:
358,129,26030,6,0,B|391:153|391:153|391:192|391:192|391:231|391:231|358:255,1,159.999990463257,2|2,0:0|0:0,0:0:0:0:
408,328,26559,1,8,0:0:0:0:
458,255,26736,2,0,P|500:192|458:129,1,159.999990463257,2|2,0:0|0:0,0:0:0:0:
408,56,27265,1,8,0:0:0:0:
358,129,27442,1,8,0:0:0:0:
308,56,27618,6,0,B|268:56|268:56|240:84,1,79.9999952316285,4|0,0:3|0:0,0:0:0:0:
172,136,27971,2,0,B|200:164|200:164|240:164,1,79.9999952316285,8|0,0:0|0:0,0:0:0:0:
240,244,28324,2,0,L|240:84,1,159.999990463257,4|8,0:3|0:0,0:0:0:0:
171,31,28854,6,0,B|128:32|128:32|70:32|38:95,1,159.999990463257,2|2,0:0|0:0,0:0:0:0:
56,192,29383,1,8,0:0:0:0:
38,288,29559,2,0,B|70:352|128:352|128:352|171:352,1,159.999990463257,2|2,0:0|0:0,0:0:0:0:
240,300,30089,1,8,0:0:0:0:
171,352,30265,1,8,0:0:0:0:
240,300,30442,6,0,B|260:300|260:300|292:300|312:276,1,79.9999952316285,4|0,0:3|0:0,0:0:0:0:
388,228,30795,2,0,B|388:204|402:192|402:192|388:180|388:156,1,79.9999952316285,8|2,0:0|0:0,0:0:0:0:
312,108,31148,2,0,B|292:84|260:84|260:84|240:84,1,79.9999952316285,4|2,0:3|0:0,0:0:0:0:
188,156,31501,2,0,B|188:180|174:192|174:192|188:204|188:228,1,79.9999952316285,8|2,0:0|0:0,0:0:0:0:
268,188,31854,6,0,L|120:128,1,159.999990463257,4|8,0:3|0:0,0:0:0:0:
56,192,32383,1,8,0:0:0:0:
119,256,32559,2,0,B|155:273|155:273|191:256,1,79.9999952316285,4|0,0:3|0:0,0:0:0:0:
253,318,32912,2,0,B|289:301|289:301|325:318,1,79.9999952316285,8|0,0:0|0:0,0:0:0:0:
387,382,33265,6,0,B|343:271|343:271|358:233,1,159.999990463257,4|8,0:3|0:0,0:0:0:0:
438,233,33795,2,0,B|400:248|400:248|289:204,1,159.999990463257,2|2,0:0|0:0,0:0:0:0:
226,141,34324,1,8,0:0:0:0:
288,78,34501,1,2,0:0:0:0:
226,141,34677,6,2,L|152:110,1,79.9999952316285,2|0,0:0|0:0,0:0:0:0:
288,78,35030,2,2,L|338:99,2,53.333330154419,2|2|2,0:3|0:3|0:3,0:0:0:0:
246,36,35383,6,2,L|298:143,1,119.999992847443,4|0,0:0|2:0,0:0:0:0:
337,98,35736,2,2,L|285:206,1,119.999992847443,4|0,0:0|2:0,0:0:0:0:
322,251,36089,6,0,P|264:252|216:332,1,159.999990463257,4|8,0:0|0:0,0:0:0:0:
296,331,36618,2,0,P|264:261|189:251,1,159.999990463257,2|2,0:0|0:0,0:0:0:0:
124,192,37148,1,8,0:0:0:0:
124,192,37324,1,2,0:0:0:0:
189,132,37501,6,0,P|248:132|296:52,1,159.999990463257,4|8,0:3|0:0,0:0:0:0:
215,52,38030,2,0,P|247:122|322:132,1,159.999990463257,2|2,0:0|0:0,0:0:0:0:
388,192,38559,1,8,0:0:0:0:
388,192,38736,1,10,0:0:0:0:
322,251,38912,6,0,B|288:252|256:283|256:336|256:336|256:283|224:252|189:252,1,239.999985694885,4|2,0:3|0:0,0:0:0:0:
124,192,39618,2,0,B|104:148|140:100|184:100|184:100|214:100,1,159.999990463257,4|8,0:3|0:0,0:0:0:0:
297,100,40148,2,0,B|328:100|328:100|372:100|408:148|388:192,1,159.999990463257,2|2,0:0|0:0,0:0:0:0:
322,251,40677,1,8,0:0:0:0:
388,310,40854,1,2,0:0:0:0:
322,251,41030,6,0,B|301:286|301:286|301:325,1,79.9999952316285,4|0,0:3|0:0,0:0:0:0:
211,325,41383,2,0,B|211:286|211:286|190:251,1,79.9999952316285,8|4,0:0|0:3,0:0:0:0:
256,192,41736,2,0,L|256:32,1,159.999990463257,4|8,0:3|0:0,0:0:0:0:
184,84,42265,6,0,B|256:119|256:119|328:84,1,159.999990463257,2|2,0:0|0:0,0:0:0:0:
390,21,42795,1,8,0:0:0:0:
452,83,42971,2,0,B|452:154|452:154|456:162|456:162|460:170|460:170|460:241,1,159.999990463257,2|2,0:0|0:0,0:0:0:0:
397,303,43501,1,8,0:0:0:0:
334,240,43677,2,0,B|272:224|272:224|240:224|240:224|178:240,1,159.999990463257,2|2,0:0|0:0,0:0:0:0:
115,303,44206,1,8,0:0:0:0:
52,241,44383,1,4,0:3:0:0:
52,241,44471,1,4,0:3:0:0:
52,241,44559,6,0,B|52:170|52:170|56:162|56:162|60:154|60:154|60:83,1,159.999990463257,4|8,0:3|0:0,0:0:0:0:
122,21,45089,1,2,0:0:0:0:
184,84,45265,2,0,B|256:119|256:119|328:84,1,159.999990463257,4|8,0:3|0:0,0:0:0:0:
390,21,45795,1,2,0:0:0:0:
328,84,45971,6,0,P|305:115|296:154,1,79.9999952316285,4|2,0:3|0:0,0:0:0:0:
184,84,46324,2,0,P|207:115|216:154,1,79.9999952316285,8|2,0:0|0:0,0:0:0:0:
295,234,46677,2,0,B|272:244|256:269|256:269|240:244|217:234,1,106.666660308838,4|4,0:3|0:3,0:0:0:0:
159,210,47030,2,0,B|171:234|171:234|159:258,2,53.333330154419,4|4|4,0:3|0:3|0:3,0:0:0:0:
103,234,47383,6,2,L|193:324,1,127.999992370606,4|2,0:0|2:0,0:0:0:0:
256,360,47912,1,0,2:0:0:0:
318,324,48089,2,2,L|409:234,1,127.999992370606,8|2,0:0|0:0,0:0:0:0:
320,124,48795,5,4,0:3:0:0:
256,40,49059,1,2,0:0:0:0:
192,124,49324,1,2,0:0:0:0:
216,192,49501,2,2,B|224:224|256:239|256:239|288:224|296:192,1,127.999992370606,8|2,0:0|2:0,0:0:0:0:
320,124,50030,1,0,0:2:0:0:
344,56,50206,6,2,B|348:28|320:-4|270:3|256:40|256:40|242:3|192:-4|164:28|168:56,1,255.999984741211,4|8,0:3|0:0,0:0:0:0:
192,124,51089,1,2,0:0:0:0:
192,124,51265,1,2,0:0:0:0:
256,248,51618,5,4,0:3:0:0:
320,124,51971,1,2,0:0:0:0:
320,124,52148,1,2,0:0:0:0:
256,152,52324,6,0,L|256:184,3,31.9999980926514,8|2|2|2,0:0|0:2|0:2|0:2,0:0:0:0:
256,216,52677,2,0,L|256:248,3,31.9999980926514,2|2|2|2,0:2|0:2|0:2|0:2,0:0:0:0:
256,284,53030,5,4,0:3:0:0:
360,380,53383,1,2,2:0:0:0:
464,284,53736,1,8,0:0:0:0:
408,192,54001,1,2,0:0:0:0:
464,100,54265,1,2,0:0:0:0:
414,50,54442,6,2,B|350:50|350:50|304:95,1,127.999992370606,4|2,3:0|2:0,0:0:0:0:
256,44,54971,1,0,2:0:0:0:
207,95,55148,2,2,L|176:125,3,42.6666641235352,8|2|2|2,0:0|0:3|0:3|0:3,0:0:0:0:
126,75,55677,1,0,2:0:0:0:
76,124,55854,6,2,L|166:214,1,127.999992370606,4|8,0:3|0:0,0:0:0:0:
116,264,56383,1,2,0:0:0:0:
165,313,56559,2,2,B|204:288|248:312|256:316|256:316|264:320|308:344|347:313,1,191.999988555908,4|0,0:3|2:0,0:0:0:0:
396,264,57265,6,2,B|443:264|473:313|473:313|443:362|396:362,1,191.999988555908,4|0,0:3|2:0,0:0:0:0:
347,313,57971,2,0,L|329:286,3,31.9999980926514,10|0|0|2,0:0|0:0|0:0|0:0,0:0:0:0:
304,261,58324,2,0,L|321:234,3,31.9999980926514,0|0|2|2,0:0|0:0|0:0|0:0,0:0:0:0:
346,209,58677,6,0,P|382:141|346:73,1,159.999990463257,4|8,0:0|0:0,0:0:0:0:
290,141,59206,2,0,L|391:17,1,159.999990463257,2|2,0:0|0:0,0:0:0:0:
454,80,59736,1,8,0:0:0:0:
512,142,59912,6,0,L|410:265,1,159.999990463257,2|2,0:0|0:0,0:0:0:0:
472,328,60442,1,8,0:0:0:0:
409,384,60618,1,8,0:0:0:0:
344,326,60795,2,0,P|327:291|295:267,1,79.9999952316285,4|0,0:3|0:0,0:0:0:0:
256,192,61148,1,8,0:0:0:0:
295,116,61324,6,0,B|264:88|256:48|256:48|248:88|216:116,1,159.999990463257,0|2,0:0|0:0,0:0:0:0:
177,192,61854,1,8,0:0:0:0:
216,267,62030,2,0,B|248:296|256:336|256:336|264:296|296:268,1,159.999990463257,2|2,0:0|0:0,0:0:0:0:
335,192,62559,1,8,0:0:0:0:
295,116,62736,1,2,0:0:0:0:
335,40,62912,6,0,B|375:40|375:40|404:69,1,79.9999952316285,4|2,0:2|0:0,0:0:0:0:
488,96,63265,2,0,L|431:152,1,79.9999952316285,8|0,0:0|0:0,0:0:0:0:
431,231,63618,2,0,L|488:288,1,79.9999952316285,4|0,0:2|0:0,0:0:0:0:
404,315,63971,2,0,B|375:343|375:343|335:343,1,79.9999952316285,8|4,0:0|0:3,0:0:0:0:
246,343,64324,6,0,B|215:343|215:343|171:343|135:295|155:251,1,159.999990463257,4|8,0:3|0:0,0:0:0:0:
220,192,64850,2,0,L|101:299,1,159.999990463257,2|2,0:0|0:0,0:0:0:0:
39,237,65376,1,8,0:0:0:0:
101,174,65552,6,0,L|219:66,1,159.999990463257,2|2,0:0|0:0,0:0:0:0:
281,128,66078,1,8,0:0:0:0:
220,192,66253,1,8,0:0:0:0:
281,128,66429,2,0,P|318:115|355:128,1,79.9999952316285,4|0,0:3|0:0,0:0:0:0:
416,192,66780,2,0,P|453:205|490:192,1,79.9999952316285,8|0,0:0|0:0,0:0:0:0:
453,113,67131,6,0,L|453:273,1,159.999990463257,0|8,0:0|0:0,0:0:0:0:
386,336,67657,2,0,B|356:336|356:336|312:336|276:288|296:244,1,159.999990463257,2|2,0:0|0:0,0:0:0:0:
256,164,68183,1,10,0:0:0:0:
216,244,68359,1,0,0:0:0:0:
216,244,68446,1,0,0:0:0:0:
216,244,68534,6,2,P|256:74|296:244,1,479.999971389771,6|12,0:0|0:2,0:0:0:0:
256,164,69754,1,12,0:2:0:0:
216,244,69929,6,0,L|183:316,1,79.9999952316285,14|14,0:3|0:3,0:0:0:0:
296,244,70278,2,0,L|329:316,1,79.9999952316285,14|14,0:3|0:3,0:0:0:0:
256,164,70627,2,0,L|256:120,7,39.9999976158142,14|6|14|6|14|6|14|6,0:3|0:3|0:3|0:3|0:3|0:3|0:3|0:3,0:0:0:0:
224,92,71324,6,0,P|170:70|116:92,1,119.999992847443,4|12,0:2|0:2,0:0:0:0:
115,291,71847,2,0,P|169:313|223:291,1,119.999992847443,4|12,0:2|0:2,0:0:0:0:
340,228,72371,2,0,B|358:192|358:192|340:156,1,79.9999952316285,14|14,0:3|0:3,0:0:0:0:
424,260,72720,6,0,P|460:192|424:124,1,159.999990463257,4|8,0:0|0:0,0:0:0:0:
486,61,73240,1,8,0:0:0:0:
423,0,73413,2,0,L|296:98,1,159.999990463257,2|8,0:2|0:0,0:0:0:0:
256,20,73933,1,0,0:0:0:0:
215,98,74107,5,2,0:2:0:0:
215,98,74193,1,2,0:2:0:0:
215,98,74280,1,2,0:2:0:0:
256,176,74454,1,8,0:0:0:0:
297,98,74627,1,8,0:0:0:0:
256,176,74800,2,0,B|256:200|242:212|242:212|256:224|256:248,1,79.9999952316285,2|0,0:2|0:0,0:0:0:0:
193,310,75147,1,8,0:0:0:0:
130,247,75321,1,0,0:0:0:0:
193,310,75494,6,0,B|232:324|256:358|256:358|280:324|319:310,1,159.999990463257,2|8,0:2|0:0,0:0:0:0:
382,247,76014,1,8,0:0:0:0:
319,184,76188,2,0,B|280:170|256:136|256:136|232:170|193:184,1,159.999990463257,2|8,0:2|0:0,0:0:0:0:
130,247,76708,1,0,0:0:0:0:
67,184,76881,5,2,0:2:0:0:
67,184,76968,1,2,0:2:0:0:
67,184,77055,1,2,0:2:0:0:
130,121,77228,2,0,P|143:84|130:47,1,79.9999952316285,8|8,0:0|0:0,0:0:0:0:
193,184,77575,2,0,P|151:247|193:310,1,159.999990463257,2|8,0:2|0:0,0:0:0:0:
256,372,78095,1,4,0:3:0:0:
319,309,78269,6,0,B|369:258|369:258|377:255|377:255|386:253|386:253|436:202,1,159.999990463257,2|8,0:2|0:0,0:0:0:0:
374,140,78789,1,8,0:0:0:0:
436,77,78962,2,0,B|466:77|480:42|480:42|466:7|436:7,2,119.999992847443,2|8|8,0:2|0:0|0:0,0:0:0:0:
498,139,79656,5,2,0:2:0:0:
498,139,79743,1,2,0:2:0:0:
498,139,79829,1,2,0:2:0:0:
436,202,80003,1,8,0:0:0:0:
374,140,80176,1,8,0:0:0:0:
436,202,80350,2,0,L|492:258,1,79.9999952316285,2|0,0:2|0:0,0:0:0:0:
430,320,80696,2,0,L|373:263,1,79.9999952316285,8|0,0:0|0:0,0:0:0:0:
310,325,81043,6,0,B|290:366|290:366|222:366|222:366|202:325,1,159.999990463257,2|8,0:2|0:0,0:0:0:0:
256,256,81563,1,8,0:0:0:0:
202,187,81737,2,0,L|174:158,2,39.9999976158142,2|2|2,0:2|0:2|0:2,0:0:0:0:
256,116,82084,2,0,L|256:76,2,39.9999976158142,8|2|2,0:0|0:2|0:2,0:0:0:0:
310,187,82430,6,0,L|337:158,2,39.9999976158142,2|2|2,0:2|0:2|0:2,0:0:0:0:
256,256,82777,1,8,0:0:0:0:
256,256,82951,1,8,0:0:0:0:
202,187,83124,2,0,L|174:158,2,39.9999976158142,2|2|2,0:2|0:2|0:2,0:0:0:0:
256,256,83471,2,0,B|256:283|256:283|260:291|260:291|252:291|252:291|256:299|256:299|256:326,1,79.9999952316285,8|4,0:0|0:3,0:0:0:0:
318,384,83818,6,2,B|318:366|318:366|318:331|288:304|256:293|256:293|224:304|194:331|194:366|194:366|194:384,1,239.999985694885,4|8,0:0|0:0,0:0:0:0:
120,336,84511,2,2,P|47:335|48:263,1,159.999990463257,2|8,0:2|0:0,0:0:0:0:
100,192,85032,1,0,0:0:0:0:
48,120,85205,6,0,B|30:112|30:112|12:120,2,39.9999976158142,2|2|2,0:2|0:2|0:2,0:0:0:0:
100,48,85552,2,0,B|122:48|122:48|130:44|130:44|134:52|134:52|138:44|138:44|146:48|146:48|168:48,1,79.9999952316285,8|0,0:0|0:0,0:0:0:0:
220,120,85899,2,0,B|242:120|242:120|250:116|250:116|254:124|254:124|258:116|258:116|266:120|266:120|288:120,1,79.9999952316285,2|0,0:2|0:0,0:0:0:0:
340,192,86246,1,8,0:0:0:0:
392,120,86419,1,8,0:0:0:0:
444,192,86592,6,2,B|444:264|444:264|444:336|392:376|342:375,1,239.999985694885,2|8,0:2|0:0,0:0:0:0:
296,300,87286,2,2,B|296:260|256:235|256:235|216:260|216:300,1,159.999990463257,2|8,0:2|0:0,0:0:0:0:
168,375,87806,1,0,0:0:0:0:
121,299,87980,6,0,B|99:299|99:299|86:311,2,39.9999976158142,2|2|2,0:2|0:2|0:2,0:0:0:0:
168,223,88326,2,0,B|185:187|185:187|168:151,1,79.9999952316285,8|0,0:0|0:0,0:0:0:0:
256,78,88673,2,0,B|239:114|239:114|256:150,1,79.9999952316285,2|0,0:2|0:0,0:0:0:0:
318,212,89020,1,8,0:0:0:0:
380,149,89193,1,4,0:3:0:0:
318,212,89367,6,2,L|431:325,1,159.999990463257,2|8,0:2|0:0,0:0:0:0:
476,248,89887,1,2,0:2:0:0:
476,248,89974,1,2,0:2:0:0:
476,248,90061,2,2,B|497:192|497:192|476:136,2,119.999992847443,2|8|8,0:2|0:0|0:0,0:0:0:0:
431,325,90754,6,0,L|416:362,2,39.9999976158142,2|2|2,0:2|0:2|0:2,0:0:0:0:
386,247,91101,1,8,0:0:0:0:
341,325,91274,1,8,0:0:0:0:
386,247,91448,2,0,L|358:172,1,79.9999952316285,2|0,0:2|0:0,0:0:0:0:
267,159,91795,2,0,L|295:234,1,79.9999952316285,8|0,0:0|0:0,0:0:0:0:
204,221,92141,6,2,L|374:51,1,239.999985694885,2|8,0:2|0:0,0:0:0:0:
447,3,92835,2,2,P|477:51|447:99,2,119.999992847443,2|8|8,0:2|0:0|0:0,0:0:0:0:
373,51,93529,6,0,B|355:59|355:59|337:51,2,39.9999976158142,2|2|2,0:2|0:2|0:2,0:0:0:0:
446,99,93876,1,8,0:0:0:0:
373,148,94049,1,8,0:0:0:0:
446,196,94222,2,0,B|464:188|464:188|482:196,2,39.9999976158142,2|2|2,0:2|0:2|0:2,0:0:0:0:
372,244,94569,2,0,B|354:252|354:252|336:244,3,39.9999976158142,2|2|2|2,0:2|0:2|0:2|0:2,0:0:0:0:
304,212,94916,6,0,L|190:325,1,159.999990463257,4|8,0:0|0:0,0:0:0:0:
128,262,95436,1,8,0:0:0:0:
190,199,95610,2,0,L|161:170,3,39.9999976158142,2|8|0|0,0:2|0:0|0:0|0:0,0:0:0:0:
130,139,95956,2,0,L|158:110,3,39.9999976158142,8|0|0|0,0:0|0:0|0:0|0:0,0:0:0:0:
189,79,96303,6,0,L|217:107,3,39.9999976158142,2|2|2|0,0:2|0:2|0:2|0:0,0:0:0:0:
248,138,96650,2,0,B|287:138|287:138|315:109,1,79.9999952316285,8|0,0:0|0:0,0:0:0:0:
424,192,96997,2,0,L|344:192,1,79.9999952316285,2|0,0:2|0:0,0:0:0:0:
248,246,97344,2,0,B|287:246|287:246|315:274,1,79.9999952316285,8|8,0:0|0:0,0:0:0:0:
378,337,97691,6,0,L|218:337,1,159.999990463257,2|8,0:2|0:0,0:0:0:0:
155,274,98211,1,0,0:0:0:0:
92,211,98384,2,0,B|84:193|84:193|92:175,3,39.9999976158142,2|8|0|0,0:2|0:0|0:0|0:0,0:0:0:0:
123,143,98731,2,0,B|131:125|131:125|123:107,3,39.9999976158142,8|0|0|0,0:0|0:0|0:0|0:0,0:0:0:0:
91,75,99078,6,0,B|83:57|83:57|91:39,3,39.9999976158142,2|2|2|0,0:2|0:2|0:2|0:0,0:0:0:0:
122,7,99425,2,0,L|196:34,1,79.9999952316285,8|0,0:0|0:0,0:0:0:0:
295,120,99772,2,0,B|256:132|256:132|217:120,1,79.9999952316285,2|0,0:2|0:0,0:0:0:0:
315,34,100118,2,0,L|390:7,1,79.9999952316285,8|4,0:0|0:3,0:0:0:0:
446,75,100465,6,0,P|476:147|446:219,1,159.999990463257,4|8,0:2|0:0,0:0:0:0:
390,287,100985,1,2,0:2:0:0:
390,287,101072,1,2,0:2:0:0:
390,287,101159,2,0,P|446:268|502:287,2,119.999992847443,2|8|8,0:2|0:0|0:0,0:0:0:0:
288,223,101852,6,0,P|307:228|327:224,2,39.9999976158142,6|2|2,0:2|0:2|0:2,0:0:0:0:
226,161,102199,2,0,P|189:148|152:161,1,79.9999952316285,8|0,0:0|0:0,0:0:0:0:
14,97,102546,2,0,P|51:110|88:97,1,79.9999952316285,2|0,0:2|0:0,0:0:0:0:
151,31,102893,1,8,0:0:0:0:
88,96,103066,1,8,0:3:0:0:
151,31,103240,6,0,L|73:258,1,239.999985694885,4|0,0:2|0:0,0:0:0:0:
11,196,103933,2,0,L|238:273,1,239.999985694885,4|0,0:2|0:0,0:0:0:0:
300,210,104627,6,0,L|337:222,7,39.9999976158142,4|8|4|8|4|8|4|8,0:3|0:3|0:3|0:3|0:3|0:3|0:3|0:3,0:0:0:0:
369,191,105321,2,0,L|406:203,7,39.9999976158142,4|8|4|8|4|8|4|8,0:3|0:3|0:3|0:3|0:3|0:3|0:3|0:3,0:0:0:0:
438,172,106014,5,4,0:2:0:0:
256,192,106101,12,0,110176,0:0:0:0:
