osu file format v14

[General]
AudioFilename: audio.mp3
AudioLeadIn: 0
PreviewTime: 70888
Countdown: 0
SampleSet: Soft
StackLeniency: 0.5
Mode: 0
LetterboxInBreaks: 0
WidescreenStoryboard: 1

[Editor]
Bookmarks: 24795,105928
DistanceSpacing: 0.6
BeatDivisor: 4
GridSize: 4
TimelineZoom: 3.299998

[Metadata]
Title:Brain Power
TitleUnicode:Brain Power
Artist:NOMA
ArtistUnicode:ノマ
Creator:Monstrata
Version:Doormat's Insane
Source:SOUND VOLTEX II -infinite infection-
Tags:rizen a q p w nhawak kuron-kun gero doormat dailycare rohit6 haruto haruto_aizawa pentori snownino_ sdvx museca
BeatmapID:1183810
BeatmapSetID:546384

[Difficulty]
HPDrainRate:6
CircleSize:3.4
OverallDifficulty:7
ApproachRate:8.5
SliderMultiplier:1.69999990463257
SliderTickRate:1

[Events]
//Background and Video events
0,0,"Brain Power.png",0,0
//Break Periods
//Storyboard Layer 0 (Background)
//Storyboard Layer 1 (Fail)
//Storyboard Layer 2 (Pass)
//Storyboard Layer 3 (Foreground)
//Storyboard Sound Samples

[TimingPoints]
2207,352.941176470588,4,2,3,70,1,0
13501,-100,4,2,3,70,0,0
19324,-100,4,2,3,40,0,0
19501,-100,4,2,3,70,0,0
19677,-100,4,2,3,40,0,0
19854,-100,4,2,3,70,0,0
22677,-100,4,2,3,80,0,0
23383,-100,4,2,3,70,0,0
23559,-100,4,2,3,5,0,0
23648,-100,4,2,3,70,0,0
23824,-100,4,2,3,5,0,0
23912,-100,4,2,3,70,0,0
24089,-100,4,2,3,5,0,0
24177,-100,4,2,3,70,0,0
24354,-100,4,2,3,5,0,0
24442,-100,4,2,3,70,0,0
24530,-100,4,2,3,5,0,0
24618,-100,4,2,3,70,0,0
24706,-100,4,2,3,5,0,0
24795,-100,4,2,3,70,0,0
34677,-86.9565217391304,4,2,3,70,0,0
35030,-100,4,2,3,70,0,0
35383,-117.647058823529,4,2,3,70,0,0
36089,-100,4,2,3,70,0,0
46677,-117.647058823529,4,2,3,70,0,0
47030,-100,4,2,3,70,0,0
47383,-166.666666666667,4,2,3,70,0,0
48089,-100,4,2,3,70,0,0
50206,-166.666666666667,4,2,3,70,0,0
50912,-117.647058823529,4,2,3,70,0,0
53030,-166.666666666667,4,2,3,70,0,0
53736,-100,4,2,3,70,0,0
54442,-166.666666666667,4,2,3,70,0,0
55148,-100,4,2,3,70,0,0
55501,-117.647058823529,4,2,3,70,0,0
55854,-100,4,2,3,70,0,0
56559,-166.666666666667,4,2,3,70,0,0
57265,-100,4,2,3,70,0,0
64324,350.877192982456,4,2,3,70,1,0
68534,348.837209302326,4,2,3,70,1,0
71324,-100,4,2,3,60,0,0
71499,-100,4,2,3,5,0,0
71586,-100,4,2,3,60,0,0
71760,-100,4,2,3,5,0,0
71847,-100,4,2,3,70,0,0
72022,-100,4,2,3,5,0,0
72109,-100,4,2,3,80,0,0
72284,-100,4,2,3,5,0,0
72371,-100,4,2,3,80,0,0
72458,-100,4,2,3,5,0,0
72545,-100,4,2,3,80,0,0
72632,-100,4,2,3,5,0,0
72720,346.820809248555,4,2,3,80,1,1
72720,-90.9090909090909,4,2,3,80,0,1
83731,-90.9090909090909,4,2,3,80,0,0
83818,-90.9090909090909,4,2,3,80,0,1
94829,-90.9090909090909,4,2,3,80,0,0
94916,-90.9090909090909,4,2,3,80,0,1
106014,-90.9090909090909,4,2,3,80,0,0
106058,-90.9090909090909,4,2,3,30,0,0
110176,-90.9090909090909,4,2,3,5,0,0

[Colours]
Combo1 : 0,128,192
Combo2 : 128,0,255
Combo3 : 187,119,255
Combo4 : 128,255,255

[HitObjects]
200,172,2207,6,0,P|168:256|218:327,2,169.999990463257,4|8|0,3:2|3:2|3:0,0:0:0:0:
272,100,3089,1,0,0:0:0:0:
200,28,3265,2,0,L|115:39,1,84.9999952316285,8|0,3:2|0:0,0:0:0:0:
36,128,3618,6,0,P|32:170|45:210,1,84.9999952316285,0|0,3:0|0:0,0:0:0:0:
144,244,3971,2,0,P|158:204|155:162,1,84.9999952316285,8|0,3:2|0:0,0:0:0:0:
244,112,4324,1,0,3:0:0:0:
244,112,4500,1,0,0:0:0:0:
328,172,4677,2,0,L|316:268,1,84.9999952316285,8|0,3:2|0:0,0:0:0:0:
220,324,5030,6,0,P|150:278|68:300,2,169.999990463257,0|8|0,3:0|3:2|3:0,0:0:0:0:
304,380,5912,1,2,0:0:0:0:
384,316,6089,2,0,L|374:231,1,84.9999952316285,8|2,3:2|0:0,0:0:0:0:
420,120,6442,5,0,3:0:0:0:
420,120,6618,1,2,0:0:0:0:
348,48,6795,2,0,L|248:61,1,84.9999952316285,8|2,3:2|0:0,0:0:0:0:
200,140,7148,1,0,3:0:0:0:
200,140,7324,1,2,0:0:0:0:
112,88,7501,2,0,P|100:44|104:4,1,84.9999952316285,8|2,3:2|3:2,0:0:0:0:
0,64,7854,6,0,P|12:108|8:148,1,84.9999952316285,0|2,3:0|0:0,0:0:0:0:
4,248,8206,2,0,L|180:224,1,169.999990463257,8|0,0:0|3:0,0:0:0:0:
244,148,8736,1,2,0:0:0:0:
340,184,8912,2,0,P|352:230|344:278,1,84.9999952316285,8|2,0:0|0:0,0:0:0:0:
328,384,9265,6,0,L|422:380,1,84.9999952316285,0|2,3:0|0:0,0:0:0:0:
492,316,9618,1,8,0:0:0:0:
492,316,9795,1,2,0:0:0:0:
432,232,9971,2,0,L|443:147,1,84.9999952316285,0|2,3:0|0:0,0:0:0:0:
364,80,10324,1,8,0:0:0:0:
364,80,10501,1,0,0:0:0:0:
308,184,10677,6,0,L|215:172,1,84.9999952316285,0|2,3:0|0:0,0:0:0:0:
144,112,11030,2,0,P|152:60|140:20,1,84.9999952316285,8|2,0:0|0:0,0:0:0:0:
48,0,11383,1,0,3:0:0:0:
48,0,11559,1,2,0:0:0:0:
0,92,11736,2,0,P|-8:144|4:184,1,84.9999952316285,8|2,0:0|0:0,0:0:0:0:
64,275,12089,6,0,P|134:232|214:252,1,169.999990463257,0|8,3:0|0:0,0:0:0:0:
300,308,12618,1,2,0:3:0:0:
384,248,12795,2,0,L|376:176,2,56.6666634877523,0|2|2,3:0|0:0|0:0,0:0:0:0:
400,328,13148,5,8,3:2:0:0:
214,252,13324,1,2,0:3:0:0:
284,156,13501,6,0,P|312:79|268:3,1,169.999990463257,0|8,3:0|0:0,0:0:0:0:
168,0,14030,1,2,0:0:0:0:
88,64,14206,2,0,L|100:164,1,84.9999952316285,0|2,3:0|0:0,0:0:0:0:
192,188,14559,2,0,L|202:103,1,84.9999952316285,8|2,0:0|0:0,0:0:0:0:
316,140,14912,6,0,P|319:182|318:224,1,84.9999952316285,0|2,3:0|0:0,0:0:0:0:
280,320,15265,1,8,0:0:0:0:
280,320,15442,1,2,0:0:0:0:
372,364,15618,2,0,P|414:364|456:361,1,84.9999952316285,0|2,3:0|0:0,0:0:0:0:
512,276,15971,1,8,0:0:0:0:
512,276,16148,1,2,0:0:0:0:
420,200,16324,6,0,P|336:199|251:197,1,169.999990463257,0|8,3:0|0:0,0:0:0:0:
176,268,16854,1,2,0:0:0:0:
104,196,17030,2,0,P|96:152|108:100,1,84.9999952316285,0|2,3:0|0:0,0:0:0:0:
176,40,17383,1,8,0:0:0:0:
176,40,17559,1,2,0:0:0:0:
251,132,17736,6,0,P|333:164|406:120,1,169.999990463257,0|8,3:0|0:0,0:0:0:0:
452,44,18265,1,2,0:0:0:0:
360,0,18442,2,0,L|268:16,1,84.9999952316285,0|2,3:0|0:0,0:0:0:0:
176,40,18795,1,8,3:2:0:0:
176,40,18971,1,2,3:2:0:0:
72,100,19148,6,0,L|75:142,3,42.4999976158143,4|0|2|0,3:2|3:0|3:2|3:0,0:0:0:0:
128,200,19501,2,0,L|131:242,3,42.4999976158143,8|0|2|0,3:2|3:0|3:2|3:0,0:0:0:0:
192,292,19854,2,0,P|232:277|274:279,1,84.9999952316285,0|2,3:0|3:2,0:0:0:0:
284,176,20206,2,0,P|242:169|206:146,1,84.9999952316285,8|0,3:2|3:0,0:0:0:0:
232,28,20559,6,0,L|274:30,3,42.4999976158143,4|0|2|0,3:2|3:0|3:2|3:0,0:0:0:0:
344,68,20912,2,0,L|386:70,3,42.4999976158143,8|0|2|0,3:2|3:0|3:2|3:0,0:0:0:0:
456,108,21265,2,0,P|444:152|453:193,1,84.9999952316285,4|2,3:2|3:2,0:0:0:0:
360,232,21618,2,0,P|337:192|302:169,1,84.9999952316285,8|0,3:2|3:0,0:0:0:0:
208,100,21971,5,4,3:2:0:0:
186,103,22059,1,0,3:0:0:0:
165,106,22147,1,2,3:2:0:0:
144,109,22235,1,0,0:0:0:0:
124,112,22324,2,0,L|120:160,3,42.4999976158143,12|0|0|0,3:2|3:0|3:0|3:0,0:0:0:0:
72,216,22677,2,0,L|68:264,3,42.4999976158143,12|0|0|0,3:2|3:2|3:2|3:2,0:0:0:0:
20,320,23030,2,0,L|16:368,3,42.4999976158143,12|0|0|0,3:2|3:0|3:0|3:0,0:0:0:0:
92,384,23383,6,0,L|220:376,1,127.499992847443,2|2,3:0|3:0,0:0:0:0:
332,272,23912,2,0,L|204:264,1,127.499992847443,2|6,3:0|3:0,0:0:0:0:
116,140,24442,2,0,L|220:133,1,84.9999952316285,2|2,3:2|3:2,0:0:0:0:
116,28,24795,5,4,3:2:0:0:
116,28,24971,1,2,0:0:0:0:
16,60,25148,2,0,L|9:147,1,84.9999952316285,8|2,0:0|0:0,0:0:0:0:
4,248,25501,2,0,P|81:219|156:255,1,169.999990463257,0|8,3:0|0:0,0:0:0:0:
228,328,26030,1,2,0:0:0:0:
348,264,26206,6,0,L|340:180,1,84.9999952316285,0|2,3:0|0:0,0:0:0:0:
264,108,26559,1,8,0:0:0:0:
264,108,26736,1,2,0:0:0:0:
184,172,26912,2,0,L|100:156,1,84.9999952316285,0|2,3:0|0:0,0:0:0:0:
0,132,27265,1,8,0:0:0:0:
0,132,27442,1,2,0:0:0:0:
32,264,27618,6,0,L|24:348,1,84.9999952316285,0|2,3:0|0:0,0:0:0:0:
120,384,27971,1,8,0:0:0:0:
120,384,28148,1,2,0:0:0:0:
184,304,28324,2,0,P|263:278|337:314,1,169.999990463257,0|8,3:0|0:0,0:0:0:0:
412,384,28854,1,2,0:0:0:0:
504,284,29030,6,0,L|498:199,1,84.9999952316285,0|2,3:0|0:0,0:0:0:0:
456,104,29383,1,8,0:0:0:0:
456,104,29559,1,2,0:0:0:0:
368,156,29736,2,0,L|276:144,1,84.9999952316285,0|2,3:0|0:0,0:0:0:0:
192,192,30089,1,8,3:2:0:0:
148,100,30265,1,2,3:2:0:0:
28,164,30442,6,0,L|40:248,1,84.9999952316285,0|0,3:0|0:0,0:0:0:0:
67,348,30795,2,0,P|136:304|223:316,1,169.999990463257,8|0,0:0|3:0,0:0:0:0:
308,372,31324,1,2,0:0:0:0:
356,280,31501,2,0,L|344:196,1,84.9999952316285,8|2,0:0|0:0,0:0:0:0:
240,108,31854,6,0,P|202:126|159:125,1,84.9999952316285,0|2,3:0|0:0,0:0:0:0:
136,28,32206,2,0,P|173:9|216:10,1,84.9999952316285,8|2,0:0|0:0,0:0:0:0:
314,41,32559,1,0,3:0:0:0:
411,71,32736,1,2,0:0:0:0:
412,172,32912,1,8,0:0:0:0:
315,204,33089,1,2,0:0:0:0:
231,95,33265,6,0,P|215:57|217:15,1,84.9999952316285,0|2,3:0|0:0,0:0:0:0:
116,32,33618,2,0,P|136:120|100:192,1,169.999990463257,8|0,0:0|3:0,0:0:0:0:
12,236,34148,1,2,0:0:0:0:
76,316,34324,2,0,L|160:311,1,84.9999952316285,8|2,0:0|0:0,0:0:0:0:
288,372,34677,6,0,B|276:340|276:340|288:308|288:308|276:276|276:276|288:232,1,146.624994571209,2|0,0:3|0:0,0:0:0:0:
368,200,35030,6,0,L|373:257,2,56.6666634877523,2|2|2,0:0|0:0|0:0,0:0:0:0:
299,129,35383,6,0,P|231:156|163:132,2,144.499994649887,2|2|0,3:0|3:0|3:0,0:0:0:0:
368,48,36265,1,2,0:0:0:0:
452,108,36442,2,0,L|444:196,1,84.9999952316285,8|2,0:0|0:0,0:0:0:0:
356,244,36795,2,0,L|284:192,1,84.9999952316285,0|2,3:0|0:0,0:0:0:0:
204,136,37148,1,8,0:0:0:0:
120,196,37325,1,2,0:0:0:0:
136,332,37501,6,0,P|214:359|288:323,1,169.999990463257,0|8,3:0|0:0,0:0:0:0:
356,244,38030,1,2,0:0:0:0:
304,156,38206,2,0,P|302:119|304:72,1,84.9999952316285,0|2,3:0|0:0,0:0:0:0:
204,100,38559,2,0,P|205:136|204:184,1,84.9999952316285,8|2,0:0|0:0,0:0:0:0:
236,316,38912,6,0,P|152:296|79:340,1,169.999990463257,0|8,3:0|0:0,0:0:0:0:
0,276,39442,1,2,0:0:0:0:
44,148,39618,2,0,P|128:168|200:123,1,169.999990463257,0|8,3:0|0:0,0:0:0:0:
248,40,40148,1,2,0:0:0:0:
356,125,40324,6,0,L|354:211,1,84.9999952316285,0|2,3:0|0:0,0:0:0:0:
463,178,40677,2,0,L|465:92,1,84.9999952316285,8|2,0:0|0:0,0:0:0:0:
420,0,41030,2,0,P|342:40|257:11,1,169.999990463257,0|8,3:0|3:2,0:0:0:0:
168,0,41559,1,2,3:2:0:0:
120,128,41736,6,0,L|224:112,1,84.9999952316285,0|2,3:0|0:0,0:0:0:0:
288,172,42089,1,8,0:0:0:0:
288,172,42265,1,2,0:0:0:0:
224,252,42442,2,0,L|120:268,1,84.9999952316285,0|2,3:0|0:0,0:0:0:0:
56,208,42795,1,8,0:0:0:0:
56,208,42971,1,2,0:0:0:0:
152,112,43148,6,0,P|163:71|159:29,1,84.9999952316285,0|2,3:0|0:0,0:0:0:0:
56,22,43501,2,0,P|44:62|48:104,1,84.9999952316285,8|2,0:0|0:0,0:0:0:0:
56,208,43854,1,0,3:0:0:0:
56,208,44030,1,2,0:0:0:0:
156,224,44206,2,0,L|252:204,1,84.9999952316285,8|2,0:0|0:0,0:0:0:0:
340,116,44559,6,0,P|328:72|336:28,1,84.9999952316285,0|2,3:0|0:0,0:0:0:0:
436,20,44912,2,0,P|452:68|416:200,1,169.999990463257,8|0,0:0|3:0,0:0:0:0:
372,269,45442,1,2,0:0:0:0:
308,188,45618,1,8,0:0:0:0:
308,188,45794,1,2,0:0:0:0:
236,304,45971,6,0,L|140:292,1,84.9999952316285,0|2,3:0|0:0,0:0:0:0:
64,240,46324,1,8,0:0:0:0:
64,136,46501,1,2,0:0:0:0:
104,28,46677,6,0,L|216:36,1,96.3333297665914,2|0,3:3|3:0,0:0:0:0:
284,64,47030,6,0,B|292:36|292:36|285:8,2,56.6666634877523,2|2|2,3:0|3:0|3:0,0:0:0:0:
228,152,47383,6,0,P|207:223|242:290,1,152.999986747742,4|0,3:2|0:0,0:0:0:0:
368,204,48089,6,0,L|360:128,2,56.6666634877523,8|2|2,0:0|0:3|0:3,0:0:0:0:
404,284,48442,2,0,L|396:368,1,84.9999952316285,2|2,0:3|0:3,0:0:0:0:
512,292,48795,6,0,L|500:159,2,127.499992847443,2|2|2,3:1|0:1|0:1,0:0:0:0:
404,283,49501,5,8,0:0:0:0:
404,283,49589,1,0,0:0:0:0:
404,283,49677,1,0,0:0:0:0:
404,283,49765,1,0,0:0:0:0:
404,283,49854,2,0,P|346:307|287:287,1,127.499988956452,0|0,0:0|0:0,0:0:0:0:
204,216,50206,6,0,L|188:376,1,152.999986747742,0|2,3:2|0:0,0:0:0:0:
100,280,50912,5,8,0:0:0:0:
287,287,51089,1,2,0:3:0:0:
100,280,51265,1,2,0:3:0:0:
0,88,51618,6,0,P|61:52|131:62,1,144.499994649887,2|2,3:1|0:3,0:0:0:0:
216,128,52148,1,2,0:3:0:0:
284,49,52324,1,8,3:2:0:0:
302,50,52412,1,0,3:0:0:0:
320,52,52500,1,0,3:0:0:0:
338,54,52588,1,2,0:3:0:0:
356,56,52677,2,0,P|360:76|360:104,3,36.1249986624718,2|2|2|2,0:0|0:0|0:0|0:0,0:0:0:0:
312,172,53030,6,0,P|381:180|444:128,1,152.999986747742,2|0,3:0|0:0,0:0:0:0:
508,220,53736,6,0,L|492:356,2,127.499992847443,8|2|2,0:0|0:1|0:1,0:0:0:0:
400,196,54442,6,0,B|372:268|372:268|388:360,1,152.999986747742,4|0,3:0|0:0,0:0:0:0:
488,376,55148,6,0,L|498:320,2,56.6666634877523,2|2|2,0:3|0:3|0:3,0:0:0:0:
383,341,55501,6,0,P|336:320|264:340,1,108.374995987415,2|0,0:3|0:0,0:0:0:0:
212,368,55854,6,0,P|156:336|56:364,1,169.999990463257,2|2,3:1|0:1,0:0:0:0:
4,256,56383,1,2,0:1:0:0:
84,168,56559,6,0,L|196:180,1,101.999991165162,8|2,0:0|0:3,0:0:0:0:
308,76,57089,5,2,0:3:0:0:
308,76,57177,1,0,0:0:0:0:
308,76,57265,2,0,P|304:128|312:164,1,84.9999952316285,0|2,3:0|0:0,0:0:0:0:
408,216,57618,2,0,P|420:164|420:148,2,56.6666634877523,2|2|2,0:1|0:1|0:1,0:0:0:0:
344,288,57971,5,8,0:0:0:0:
312,284,58059,1,2,0:3:0:0:
280,280,58147,1,2,0:3:0:0:
249,276,58235,1,2,0:3:0:0:
217,272,58324,2,0,P|204:316|220:368,1,84.9999952316285,2|2,0:1|0:0,0:0:0:0:
80,316,58677,6,0,L|68:216,1,84.9999952316285,4|2,3:2|0:0,0:0:0:0:
206,187,59030,2,0,L|217:272,1,84.9999952316285,8|2,0:0|0:0,0:0:0:0:
328,316,59383,1,0,3:0:0:0:
328,316,59559,1,2,0:0:0:0:
344,196,59736,1,8,0:0:0:0:
344,196,59912,1,2,0:0:0:0:
206,187,60089,6,0,P|164:194|121:198,1,84.9999952316285,0|2,3:0|0:0,0:0:0:0:
172,64,60442,2,0,P|214:57|257:53,1,84.9999952316285,8|2,0:0|0:0,0:0:0:0:
372,73,60795,1,0,3:0:0:0:
387,191,60972,1,2,0:0:0:0:
280,242,61148,1,8,0:0:0:0:
264,124,61325,1,2,0:0:0:0:
387,191,61501,6,0,L|392:275,1,84.9999952316285,0|2,3:0|0:0,0:0:0:0:
512,196,61854,2,0,L|506:111,1,84.9999952316285,8|2,0:0|0:0,0:0:0:0:
420,32,62206,1,0,3:0:0:0:
420,32,62383,1,2,0:0:0:0:
316,88,62559,1,8,0:0:0:0:
316,88,62736,1,2,0:0:0:0:
356,216,62912,6,0,P|364:258|363:301,1,84.9999952316285,0|2,3:0|0:0,0:0:0:0:
220,300,63265,2,0,P|219:257|227:215,1,84.9999952316285,8|2,0:0|0:0,0:0:0:0:
292,116,63618,1,0,3:0:0:0:
292,116,63795,1,2,0:0:0:0:
356,216,63971,5,8,3:2:0:0:
176,136,64148,1,2,3:2:0:0:
88,240,64324,6,0,L|94:325,1,84.9999952316285,0|2,3:0|0:0,0:0:0:0:
232,360,64674,2,0,L|238:275,1,84.9999952316285,8|2,0:0|0:0,0:0:0:0:
312,180,65025,1,0,3:0:0:0:
312,180,65201,1,2,0:0:0:0:
404,252,65376,1,8,0:0:0:0:
404,252,65552,1,2,0:0:0:0:
500,156,65727,6,0,L|492:64,1,84.9999952316285,0|2,3:0|0:0,0:0:0:0:
360,16,66078,2,0,L|352:100,1,84.9999952316285,8|2,0:0|0:0,0:0:0:0:
236,196,66429,1,0,3:0:0:0:
268,68,66604,1,2,0:0:0:0:
360,232,66780,1,8,0:0:0:0:
392,104,66955,1,2,0:0:0:0:
496,192,67131,6,0,P|495:235|500:276,1,84.9999952316285,0|2,3:0|0:0,0:0:0:0:
364,316,67481,2,0,P|365:274|360:232,1,84.9999952316285,8|2,0:0|0:0,0:0:0:0:
280,144,67832,1,0,3:0:0:0:
280,144,68008,1,2,0:0:0:0:
356,52,68183,1,8,0:0:0:0:
356,52,68359,1,2,0:0:0:0:
224,12,68534,6,0,L|140:17,1,84.9999952316285,2|2,3:0|0:0,0:0:0:0:
196,149,68882,2,0,L|280:144,1,84.9999952316285,8|2,0:0|0:0,0:0:0:0:
388,256,69231,1,0,3:0:0:0:
257,238,69406,1,2,0:0:0:0:
410,129,69580,1,8,0:0:0:0:
280,111,69754,1,2,3:2:0:0:
388,256,69929,5,0,3:0:0:0:
388,256,70103,1,2,3:2:0:0:
410,129,70278,1,8,3:2:0:0:
410,129,70452,1,2,3:2:0:0:
280,111,70627,2,0,L|276:79,6,21.2499988079071,8|8|8|8|8|0|8,3:2|3:2|3:2|3:2|3:2|3:0|3:2,0:0:0:0:
328,180,70975,5,8,3:2:0:0:
357,167,71062,1,8,3:2:0:0:
388,163,71149,1,8,3:2:0:0:
420,167,71236,1,8,3:2:0:0:
449,178,71324,6,0,L|440:40,1,127.499992847443,8|8,3:2|3:2,0:0:0:0:
260,24,71847,2,0,L|251:151,1,127.499992847443,8|8,3:2|3:2,0:0:0:0:
92,244,72371,1,8,3:2:0:0:
125,118,72545,1,8,2:3:0:0:
217,277,72720,6,0,L|316:260,1,93.4999976081848,6|2,3:2|0:0,0:0:0:0:
452,152,73066,2,0,L|405:146,3,46.7499988040924,8|0|2|2,0:0|0:0|0:0|0:0,0:0:0:0:
336,108,73413,2,0,L|289:102,3,46.7499988040924,2|2|2|2,3:0|0:3|0:0|0:0,0:0:0:0:
220,64,73760,2,0,L|173:58,3,46.7499988040924,8|2|2|2,3:2|0:3|0:0|0:0,0:0:0:0:
104,20,74107,6,0,P|128:88|68:192,1,186.99999521637,2|10,3:0|3:2,0:0:0:0:
192,268,74627,1,2,0:0:0:0:
296,180,74800,1,2,3:0:0:0:
416,256,74974,1,2,0:0:0:0:
416,256,75147,2,0,L|408:352,1,93.4999976081848,8|2,3:2|0:0,0:0:0:0:
192,268,75494,6,0,P|184:220|204:160,1,93.4999976081848,2|2,3:0|0:3,0:0:0:0:
296,28,75841,2,0,L|356:40,3,46.7499988040924,8|0|2|0,0:0|0:0|0:0|0:0,0:0:0:0:
368,112,76188,2,0,L|308:124,3,46.7499988040924,2|2|0|2,3:3|0:3|0:0|0:0,0:0:0:0:
336,200,76535,2,0,L|396:212,3,46.7499988040924,8|2|2|2,3:2|0:3|0:0|0:0,0:0:0:0:
436,284,76881,5,2,3:0:0:0:
436,284,76968,1,0,0:0:0:0:
436,284,77055,1,2,0:0:0:0:
304,368,77228,2,0,L|212:349,1,93.4999976081848,8|2,3:2|0:0,0:0:0:0:
112,252,77575,1,2,3:0:0:0:
248,216,77748,1,2,0:0:0:0:
128,384,77921,5,8,0:0:0:0:
304,337,78095,1,0,3:0:0:0:
112,252,78269,6,0,P|99:207|111:162,1,93.4999976081848,0|2,3:0|0:0,0:0:0:0:
188,0,78615,2,0,L|240:12,3,46.7499988040924,8|0|2|0,0:0|0:0|0:0|0:0,0:0:0:0:
280,76,78962,2,0,L|325:65,3,46.7499988040924,2|2|2|2,3:0|0:3|0:0|0:0,0:0:0:0:
388,16,79309,2,0,L|440:28,3,46.7499988040924,8|2|2|2,3:2|0:3|0:0|0:0,0:0:0:0:
480,92,79656,6,0,L|456:308,1,186.99999521637,2|8,3:0|0:0,0:0:0:0:
336,344,80176,1,2,0:0:0:0:
244,240,80350,1,2,3:0:0:0:
112,288,80523,1,2,0:0:0:0:
112,288,80696,2,0,L|120:384,1,93.4999976081848,8|2,0:0|0:0,0:0:0:0:
336,344,81043,6,0,P|344:292|320:228,1,93.4999976081848,4|2,3:2|0:0,0:0:0:0:
212,120,81390,2,0,L|204:172,3,46.7499988040924,8|0|2|2,3:2|0:0|0:0|0:0,0:0:0:0:
128,188,81737,2,0,L|120:141,3,46.7499988040924,2|2|2|2,3:0|0:3|0:0|0:0,0:0:0:0:
44,120,82084,2,0,L|36:172,3,46.7499988040924,8|2|2|2,0:0|0:3|0:0|0:0,0:0:0:0:
0,236,82430,6,0,P|88:204|169:244,1,186.99999521637,2|8,3:0|0:0,0:0:0:0:
240,364,82951,1,2,0:0:0:0:
361,291,83124,1,0,3:0:0:0:
353,244,83210,1,2,0:0:0:0:
346,198,83297,1,2,0:0:0:0:
167,242,83471,5,8,0:0:0:0:
361,291,83645,1,2,3:2:0:0:
448,88,83818,6,0,L|348:76,1,93.4999976081848,4|2,3:2|0:0,0:0:0:0:
184,20,84165,1,8,0:0:0:0:
197,52,84251,1,0,0:0:0:0:
198,86,84338,1,2,0:0:0:0:
188,120,84425,1,2,0:0:0:0:
166,147,84511,2,0,L|115:143,3,46.7499988040924,2|2|2|2,3:3|0:3|0:0|0:0,0:0:0:0:
44,168,84858,2,0,L|66:212,3,46.7499988040924,8|2|2|2,3:2|0:3|0:0|0:0,0:0:0:0:
112,276,85205,6,0,P|160:244|292:280,1,186.99999521637,2|8,3:0|0:0,0:0:0:0:
360,384,85725,1,2,0:0:0:0:
495,344,85898,1,2,3:0:0:0:
498,204,86071,1,2,0:0:0:0:
498,204,86246,2,0,L|384:196,1,93.4999976081848,8|2,0:0|0:0,0:0:0:0:
232,56,86592,6,0,L|346:48,1,93.4999976081848,2|2,3:0|0:0,0:0:0:0:
304,228,86939,1,8,0:0:0:0:
269,230,87025,1,0,0:0:0:0:
234,232,87112,1,2,0:0:0:0:
199,235,87199,1,2,0:0:0:0:
164,237,87286,2,0,P|140:237|117:234,3,46.7499988040924,2|2|2|2,3:0|0:3|0:0|0:0,0:0:0:0:
60,180,87633,2,0,P|72:160|86:141,3,46.7499988040924,8|2|2|2,3:2|0:3|0:0|0:0,0:0:0:0:
152,96,87980,5,2,3:0:0:0:
152,96,88066,1,2,0:3:0:0:
152,96,88153,1,2,0:0:0:0:
234,232,88326,2,0,L|226:356,1,93.4999976081848,8|2,0:0|0:0,0:0:0:0:
360,212,88673,1,2,3:0:0:0:
380,352,88847,1,2,0:0:0:0:
480,176,89020,5,8,0:0:0:0:
505,357,89194,1,2,3:0:0:0:
360,212,89367,6,0,P|352:160|364:112,1,93.4999976081848,2|2,3:2|0:0,0:0:0:0:
204,32,89714,1,8,0:0:0:0:
213,65,89800,1,0,0:0:0:0:
215,100,89887,1,2,0:0:0:0:
208,134,89974,1,0,0:0:0:0:
193,166,90061,2,0,L|139:155,3,46.7499988040924,2|2|2|2,3:0|0:3|0:0|0:0,0:0:0:0:
92,100,90407,2,0,L|46:108,3,46.7499988040924,8|2|2|2,0:0|0:3|0:0|0:0,0:0:0:0:
0,176,90754,6,0,P|36:216|24:344,1,186.99999521637,2|8,3:0|0:0,0:0:0:0:
160,384,91274,1,2,0:0:0:0:
242,269,91447,1,2,3:0:0:0:
375,311,91621,1,2,0:0:0:0:
375,311,91795,2,0,L|480:292,1,93.4999976081848,8|2,0:0|0:0,0:0:0:0:
376,108,92141,6,0,L|271:89,1,93.4999976081848,2|2,3:0|0:0,0:0:0:0:
108,48,92488,1,8,0:0:0:0:
127,76,92574,1,0,0:0:0:0:
135,110,92661,1,2,0:0:0:0:
131,145,92748,1,2,0:0:0:0:
116,176,92835,2,0,L|72:192,3,46.7499988040924,2|2|2|2,3:3|0:3|0:0|0:0,0:0:0:0:
48,268,93182,2,0,L|92:283,3,46.7499988040924,8|2|2|2,0:0|0:3|0:0|0:0,0:0:0:0:
152,336,93529,6,0,B|200:304|200:304|372:320,1,186.99999521637,2|8,3:0|0:0,0:0:0:0:
416,200,94049,1,2,0:0:0:0:
296,120,94222,1,2,3:0:0:0:
292,166,94308,1,2,0:3:0:0:
288,213,94395,1,2,0:0:0:0:
400,48,94569,5,8,0:0:0:0:
192,48,94743,1,2,3:0:0:0:
64,232,94916,6,0,L|184:220,1,93.4999976081848,4|2,3:2|0:0,0:0:0:0:
315,311,95263,1,8,0:0:0:0:
297,282,95349,1,0,0:0:0:0:
289,248,95436,1,2,0:0:0:0:
293,213,95523,1,2,0:0:0:0:
308,181,95610,1,2,3:3:0:0:
322,149,95696,1,2,0:3:0:0:
326,114,95783,1,2,0:0:0:0:
318,80,95870,1,2,0:0:0:0:
300,50,95956,2,0,L|248:64,3,46.7499988040924,8|2|2|2,0:0|0:3|0:0|0:0,0:0:0:0:
192,112,96303,6,0,P|144:80|20:120,1,186.99999521637,2|8,3:0|0:0,0:0:0:0:
0,248,96824,1,2,0:0:0:0:
104,339,96997,1,2,3:0:0:0:
235,293,97171,1,2,0:0:0:0:
235,293,97344,2,0,L|220:184,1,93.4999976081848,8|2,0:0|0:0,0:0:0:0:
12,155,97691,6,0,L|0:248,1,93.4999976081848,2|2,3:0|0:0,0:0:0:0:
136,364,98037,1,8,0:0:0:0:
164,343,98123,1,0,0:0:0:0:
197,333,98210,1,2,0:0:0:0:
232,333,98297,1,2,0:0:0:0:
265,344,98384,1,2,3:3:0:0:
298,355,98470,1,2,0:3:0:0:
332,355,98557,1,2,0:0:0:0:
366,344,98644,1,2,0:0:0:0:
394,324,98731,2,0,L|400:256,3,46.7499988040924,8|2|2|2,0:0|0:3|0:0|0:0,0:0:0:0:
464,232,99078,5,2,3:0:0:0:
464,232,99165,1,2,0:3:0:0:
464,232,99251,1,2,0:0:0:0:
392,88,99425,2,0,L|272:100,1,93.4999976081848,8|2,0:0|0:0,0:0:0:0:
208,204,99772,1,2,0:0:0:0:
348,220,99945,1,2,3:0:0:0:
172,312,100118,5,8,0:0:0:0:
353,332,100291,1,2,3:0:0:0:
208,204,100465,6,0,P|192:152|204:100,1,93.4999976081848,4|0,3:2|3:0,0:0:0:0:
372,60,100812,1,8,0:0:0:0:
396,84,100898,1,2,0:0:0:0:
416,113,100985,1,0,3:0:0:0:
428,146,101072,1,0,3:0:0:0:
433,181,101158,1,0,3:0:0:0:
430,216,101245,1,2,0:0:0:0:
420,249,101332,1,2,0:0:0:0:
403,280,101418,1,2,0:0:0:0:
379,306,101506,2,0,L|316:296,3,46.7499988040924,8|2|2|2,0:0|0:0|0:0|0:0,0:0:0:0:
260,268,101852,6,0,L|44:296,1,186.99999521637,12|2,0:0|3:0,0:0:0:0:
0,172,102373,1,2,0:0:0:0:
91,64,102546,1,8,0:0:0:0:
221,117,102720,1,2,0:0:0:0:
221,117,102893,2,0,L|329:103,1,93.4999976081848,8|2,0:0|3:0,0:0:0:0:
448,248,103240,5,2,3:0:0:0:
415,236,103326,1,0,3:0:0:0:
380,237,103413,1,8,3:2:0:0:
348,251,103500,1,0,3:0:0:0:
323,275,103587,2,0,L|312:328,3,46.7499988040924,2|2|4|0,3:0|3:0|3:2|0:0,0:0:0:0:
240,360,103933,5,0,3:0:0:0:
207,371,104019,1,0,3:0:0:0:
172,370,104106,1,8,3:2:0:0:
140,356,104193,1,2,3:0:0:0:
115,332,104280,2,0,L|103:279,3,46.7499988040924,0|2|0|2,3:0|3:0|3:0|3:0,0:0:0:0:
48,224,104627,5,2,3:0:0:0:
70,197,104713,1,0,3:0:0:0:
102,182,104800,1,0,3:0:0:0:
136,180,104887,1,0,3:0:0:0:
169,192,104974,1,2,3:0:0:0:
201,203,105060,1,0,3:0:0:0:
236,201,105147,1,0,3:0:0:0:
267,186,105234,1,0,3:0:0:0:
290,160,105321,2,0,L|284:120,4,23.3749994020462,2|0|0|0|0,3:0|3:0|3:0|3:0|3:0,0:0:0:0:
452,120,105667,5,2,3:0:0:0:
450,155,105753,1,0,3:0:0:0:
448,190,105840,1,0,3:0:0:0:
446,225,105927,1,0,3:0:0:0:
445,260,106013,1,6,3:2:0:0:
256,192,106101,12,0,108789,0:0:0:0:
