osu file format v14

[General]
AudioFilename: audio.mp3
AudioLeadIn: 0
PreviewTime: 70888
Countdown: 0
SampleSet: Soft
StackLeniency: 0.2
Mode: 0
LetterboxInBreaks: 0
WidescreenStoryboard: 0

[Editor]
Bookmarks: 111563
DistanceSpacing: 0.8
BeatDivisor: 8
GridSize: 4
TimelineZoom: 8

[Metadata]
Title:Brain Power
TitleUnicode:Brain Power
Artist:NOMA
ArtistUnicode:ノマ
Creator:Monstrata
Version:Killer Machine
Source:SOUND VOLTEX II -infinite infection-
Tags:rizen a q p w nhawak kuron-kun gero doormat dailycare rohit6 haruto haruto_aizawa pentori snownino_ sdvx museca
BeatmapID:1157344
BeatmapSetID:546384

[Difficulty]
HPDrainRate:6
CircleSize:4
OverallDifficulty:8
ApproachRate:9.6
SliderMultiplier:3.59999990463257
SliderTickRate:1

[Events]
//Background and Video events
0,0,"Brain Power.png",0,0
//Break Periods
//Storyboard Layer 0 (Background)
//Storyboard Layer 1 (Fail)
//Storyboard Layer 2 (Pass)
//Storyboard Layer 3 (Foreground)
//Storyboard Sound Samples

[TimingPoints]
2207,352.941176470588,4,2,3,70,1,0
2207,-181.818181818182,4,2,3,70,0,0
2559,-142.857142857143,4,2,3,70,0,0
2912,-117.647058823529,4,2,3,70,0,0
3265,-100,4,2,3,70,0,0
3618,-86.9565217391304,4,2,3,70,0,0
3971,-76.9230769230769,4,2,3,70,0,0
4324,-68.9655172413793,4,2,3,70,0,0
4677,-63.2911392405063,4,2,3,70,0,0
5030,-125,4,2,3,70,0,0
12618,-71.4285714285714,4,2,3,70,0,0
12795,-133.333333333333,4,2,3,70,0,0
13324,-66.6666666666667,4,2,3,70,0,0
13501,-111.111111111111,4,2,3,70,0,0
19324,-111.111111111111,4,2,3,40,0,0
19501,-111.111111111111,4,2,3,70,0,0
19677,-111.111111111111,4,2,3,40,0,0
19854,-111.111111111111,4,2,3,70,0,0
22677,-111.111111111111,4,2,3,80,0,0
23383,-83.3333333333333,4,2,3,70,0,0
23559,-83.3333333333333,4,2,3,5,0,0
23648,-83.3333333333333,4,2,3,70,0,0
23824,-83.3333333333333,4,2,3,5,0,0
23912,-83.3333333333333,4,2,3,70,0,0
24089,-83.3333333333333,4,2,3,5,0,0
24177,-83.3333333333333,4,2,3,70,0,0
24354,-83.3333333333333,4,2,3,5,0,0
24442,-100,4,2,3,70,0,0
24530,-100,4,2,3,5,0,0
24618,-100,4,2,3,70,0,0
24706,-100,4,2,3,5,0,0
24795,-100,4,2,3,70,0,0
30089,-83.3333333333333,4,2,3,70,0,0
30442,-100,4,2,3,70,0,0
38912,-83.3333333333333,4,2,3,70,0,0
39177,-100,4,2,3,70,0,0
41030,-104.166666666667,4,2,3,70,0,0
41383,-71.4285714285714,4,2,3,70,0,0
41736,-100,4,2,3,70,0,0
42795,-90.0900900900901,4,2,3,70,0,0
43148,-74.0740740740741,4,2,3,70,0,0
43412,-100,4,2,3,70,0,0
44912,-105.263157894737,4,2,3,70,0,0
46148,-117.647058823529,4,2,3,70,0,0
46324,-133.333333333333,4,2,3,70,0,0
46501,-153.846153846154,4,2,3,70,0,0
46677,-150.00015000015,4,2,3,70,0,0
47030,-151.515151515152,4,2,3,70,0,0
47148,-89.2857142857143,4,2,3,70,0,0
47265,-90.9090909090909,4,2,3,70,0,0
47383,-345,4,2,3,70,0,0
47736,-200,4,2,3,70,0,0
48089,-133.333333333333,4,2,3,70,0,0
48442,-83.3333333333333,4,2,3,70,0,0
48795,-100,4,2,3,70,0,0
49059,-125,4,2,3,70,0,0
49324,-83.3333333333333,4,2,3,70,0,0
49501,-142.857142857143,4,2,3,70,0,0
50030,-111.111111111111,4,2,3,70,0,0
50206,-100,4,2,3,70,0,0
50559,-83.3333333333333,4,2,3,70,0,0
51265,-83.3333333333333,4,2,3,70,0,0
51618,-100,4,2,3,70,0,0
53030,-200,4,2,3,70,0,0
53383,-100,4,2,3,70,0,0
53736,-83.3333333333333,4,2,3,70,0,0
54265,-86.9565217391304,4,2,3,70,0,0
54442,-138.888888888889,4,2,3,70,0,0
54795,-163.934426229508,4,2,3,70,0,0
55148,-100,4,2,3,70,0,0
55383,-80,4,2,3,70,0,0
55501,-133.333333333333,4,2,3,70,0,0
55854,-100,4,2,3,70,0,0
57442,-133.333333333333,4,2,3,70,0,0
57618,-100,4,2,3,70,0,0
58059,-117.647058823529,4,2,3,70,0,0
58148,-142.857142857143,4,2,3,70,0,0
58236,-181.818181818182,4,2,3,70,0,0
58412,-142.857142857143,4,2,3,70,0,0
58501,-117.647058823529,4,2,3,70,0,0
58589,-100,4,2,3,70,0,0
63795,-100,4,2,3,70,0,0
64324,350.877192982456,4,2,3,70,1,0
67131,-90.9090909090909,4,2,3,70,0,0
67832,-83.3333333333333,4,2,3,70,0,0
68534,348.837209302326,4,2,3,70,1,0
68534,-76.9230769230769,4,2,3,70,0,0
69929,-71.4285714285714,4,2,3,70,0,0
70627,-55.5555555555556,4,2,3,70,0,0
71324,-71.4285714285714,4,2,3,60,0,0
71499,-71.4285714285714,4,2,3,5,0,0
71586,-71.4285714285714,4,2,3,60,0,0
71760,-71.4285714285714,4,2,3,5,0,0
71847,-71.4285714285714,4,2,3,70,0,0
72022,-71.4285714285714,4,2,3,5,0,0
72109,-71.4285714285714,4,2,3,80,0,0
72284,-71.4285714285714,4,2,3,5,0,0
72371,-71.4285714285714,4,2,3,80,0,0
72458,-71.4285714285714,4,2,3,5,0,0
72545,-71.4285714285714,4,2,3,80,0,0
72632,-71.4285714285714,4,2,3,5,0,0
72720,346.820809248555,4,2,3,80,1,0
72720,-76.9230769230769,4,2,3,80,0,0
74800,-76.9230769230769,4,2,3,80,0,0
77748,-90.9090909090909,4,2,3,80,0,0
77922,-111.111111111111,4,2,3,80,0,0
78095,-142.857142857143,4,2,3,80,0,0
78269,-74.0740740740741,4,2,3,80,0,0
83818,-62.5,4,2,3,80,0,0
88326,-58.8235294117647,4,2,3,80,0,0
88673,-55.5555555555556,4,2,3,80,0,0
89020,-58.8235294117647,4,2,3,80,0,0
89367,-58.8235294117647,4,2,3,80,0,0
92141,-57.4712643678161,4,2,3,80,0,0
92402,-55.5555555555556,4,2,3,80,0,0
94222,-50,4,2,3,80,0,0
94916,-50,4,2,3,80,0,0
100465,-100,4,2,3,80,0,0
101159,-80,4,2,3,80,0,0
101852,-66.6666666666667,4,2,3,80,0,0
102199,-50,4,2,3,80,0,0
103240,-58.8235294117647,4,2,3,80,0,0
104627,-66.6666666666667,4,2,3,55,0,0
105321,-50,4,2,3,65,0,0
106014,-144.634075788256,4,2,3,80,0,0
106058,-144.634075788256,4,2,3,30,0,0
110176,-144.634075788256,4,2,3,5,0,0
111563,-189.854191980559,4,2,3,5,0,0

[Colours]
Combo1 : 0,128,192
Combo2 : 128,0,255
Combo3 : 187,119,255
Combo4 : 128,255,255

[HitObjects]
106,257,2207,6,0,B|92:120|92:120|129:91,1,148.500000597954,4|0,3:2|0:0,0:0:0:0:
110,261,2559,2,0,B|96:124|96:124|137:98|162:116,1,188.999989225388,8|0,3:2|0:0,0:0:0:0:
114,265,2912,6,0,B|100:128|100:128|163:92|211:141,1,229.499998297691,0|0,3:0|0:0,0:0:0:0:
118,269,3265,2,0,B|104:132|104:132|177:88|239:139|227:194|198:209|163:215,1,269.999992847443,8|0,3:2|0:0,0:0:0:0:
122,273,3618,6,0,B|108:136|108:136|181:92|247:144|232:199|202:213|168:220|168:220,1,310.499997696877,0|0,3:0|0:0,0:0:0:0:
126,277,3971,2,0,B|112:140|112:140|185:96|242:145|234:201|206:217|168:220|168:220|229:266,1,350.999974634172,8|0,3:2|0:0,0:0:0:0:
130,281,4324,6,0,B|116:144|116:144|189:100|246:149|238:205|210:221|172:224|172:224|208:233|233:270,1,391.500001576424,0|0,3:0|0:0,0:0:0:0:
134,285,4677,2,0,B|120:148|120:148|193:104|250:153|242:209|214:225|176:228|176:228|218:242|237:274,1,427.499988675118,8|0,3:2|0:0,0:0:0:0:
265,92,5030,6,0,P|300:153|298:225,1,143.999996185303,0|2,3:0|0:0,0:0:0:0:
363,278,5295,1,0,0:0:0:0:
363,278,5383,2,0,P|384:246|438:220,1,71.9999980926514,8|0,3:2|0:0,0:0:0:0:
443,147,5559,2,0,P|404:144|355:111,1,71.9999980926514,2|0,0:0|0:0,0:0:0:0:
237,45,5736,6,0,P|298:18|369:52,1,143.999996185303,0|2,3:0|0:0,0:0:0:0:
315,183,6001,1,0,0:0:0:0:
315,183,6088,2,0,B|283:203|283:203|301:98,1,143.999996185303,8|2,3:2|0:0,0:0:0:0:
347,350,6442,6,0,B|365:245|365:245|333:265,1,143.999996185303,0|2,3:0|0:0,0:0:0:0:
211,248,6706,1,0,0:0:0:0:
211,248,6795,2,0,B|229:284|289:291|289:291|333:266,1,143.999996185303,8|2,3:2|0:0,0:0:0:0:
150,181,7148,6,0,B|175:247|175:247|132:347,1,143.999996185303,0|2,3:0|0:0,0:0:0:0:
57,312,7412,1,0,0:0:0:0:
57,312,7501,2,0,B|86:246,1,71.9999980926514,8|0,3:2|0:0,0:0:0:0:
147,33,7677,2,0,B|119:100,1,71.9999980926514,2|0,3:2|0:0,0:0:0:0:
7,156,7854,6,0,L|149:180,1,143.999996185303,0|2,3:0|0:0,0:0:0:0:
261,75,8118,1,0,0:0:0:0:
261,75,8206,2,0,L|119:99,1,143.999996185303,8|2,0:0|0:0,0:0:0:0:
334,166,8559,6,0,B|333:117|333:117|355:72|328:26,1,143.999996185303,0|2,3:0|0:0,0:0:0:0:
257,157,8824,1,0,0:0:0:0:
257,157,8912,2,0,B|239:209|239:209|276:327,1,143.999996185303,8|2,0:0|0:0,0:0:0:0:
257,157,9265,6,0,L|60:171,1,143.999996185303,0|2,3:0|0:0,0:0:0:0:
109,268,9530,1,0,0:0:0:0:
109,268,9618,2,0,B|129:239|129:239|166:236,1,71.9999980926514,8|0,0:0|0:0,0:0:0:0:
213,61,9795,2,0,B|192:89|192:89|155:92,1,71.9999980926514,2|0,0:0|0:0,0:0:0:0:
23,247,9971,6,0,L|166:236,1,143.999996185303,0|2,3:0|0:0,0:0:0:0:
278,304,10236,1,0,0:0:0:0:
278,304,10324,2,0,P|338:252|244:248,1,215.999994277954,8|0,0:0|0:0,0:0:0:0:
201,310,10677,6,0,P|276:325|316:381,1,143.999996185303,0|2,3:0|0:0,0:0:0:0:
392,238,10942,1,0,0:0:0:0:
392,238,11030,2,0,P|316:253|276:309,1,143.999996185303,8|2,0:0|0:0,0:0:0:0:
71,322,11383,6,0,B|108:342|108:342|166:337|166:337|218:297,1,143.999996185303,0|2,3:0|0:0,0:0:0:0:
127,189,11648,1,0,0:0:0:0:
127,189,11736,2,0,L|132:260,1,71.9999980926514,8|0,0:0|0:0,0:0:0:0:
277,303,11912,2,0,L|282:231,1,71.9999980926514,2|0,0:0|0:0,0:0:0:0:
207,85,12089,6,0,L|207:261,1,143.999996185303,0|2,3:0|0:0,0:0:0:0:
345,179,12354,1,0,0:0:0:0:
345,179,12442,2,0,P|317:158|282:153,1,71.9999980926514,8|0,0:0|0:0,0:0:0:0:
354,266,12618,6,0,B|415:249|415:249|438:218|438:218|405:226,1,125.999992816925,2|2,0:3|0:3,0:0:0:0:
282,231,12795,6,0,L|243:254,1,45.0000005245209,0|0,3:0|0:0,0:0:0:0:
171,311,12912,2,0,L|211:333,1,45.0000005245209,2|0,0:0|0:0,0:0:0:0:
296,367,13030,2,0,L|295:323,1,45.0000005245209,2|0,0:0|0:0,0:0:0:0:
166,234,13148,1,8,3:2:0:0:
410,150,13324,6,0,B|429:138|429:138|431:232|431:232|414:223,1,135.000001573563,2|2,0:3|0:3,0:0:0:0:
347,192,13501,6,0,L|509:184,1,161.999990764618,0|2,3:0|0:0,0:0:0:0:
485,64,13765,1,0,0:0:0:0:
485,64,13854,2,0,L|355:57,1,80.9999953823091,8|0,0:0|0:0,0:0:0:0:
325,113,14030,2,0,L|331:-16,1,80.9999953823091,2|0,0:0|0:0,0:0:0:0:
162,126,14206,6,0,P|237:135|274:217,1,161.999990764618,0|2,3:0|0:0,0:0:0:0:
188,285,14471,1,0,0:0:0:0:
188,285,14559,2,0,L|192:205,1,80.9999953823091,8|0,0:0|0:0,0:0:0:0:
351,287,14736,2,0,L|347:367,1,80.9999953823091,2|0,0:0|0:0,0:0:0:0:
266,367,14912,6,0,L|274:186,1,161.999990764618,0|2,3:0|0:0,2:0:0:0:
423,240,15177,1,0,0:0:0:0:
423,240,15265,2,0,B|479:259|513:207|513:207|479:120,1,161.999990764618,8|2,0:0|0:0,0:0:0:0:
89,240,15618,6,0,B|33:259|-1:207|-1:207|19:153,1,161.999990764618,0|2,3:0|0:0,0:0:0:0:
148,187,15883,1,0,0:0:0:0:
148,187,15971,2,0,B|169:223|169:223|158:316,1,80.9999953823091,8|0,0:0|0:0,0:0:0:0:
105,315,16148,2,0,B|84:279|84:279|95:186,1,80.9999953823091,2|0,0:0|0:0,0:0:0:0:
228,168,16324,6,0,B|249:204|249:204|227:389,1,161.999990764618,0|2,3:0|0:0,0:0:0:0:
319,168,16589,1,0,0:0:0:0:
319,168,16677,2,0,B|298:132|298:132|320:-53,1,161.999990764618,8|2,0:0|0:0,0:0:0:0:
312,12,17030,6,0,B|360:78|360:78|490:54,1,161.999990764618,0|2,3:0|0:0,0:0:0:0:
229,55,17383,2,0,B|149:69,1,80.9999953823091,8|0,0:0|0:0,0:0:0:0:
90,136,17559,2,0,B|169:150,1,80.9999953823091,2|0,0:0|0:0,0:0:0:0:
33,68,17736,6,0,B|6:109|6:109|10:174|10:174|46:216,1,161.999990764618,0|2,3:0|0:0,0:0:0:0:
0,320,18001,1,0,0:0:0:0:
0,320,18089,2,0,B|36:288|36:288|101:284|101:284|142:311,1,161.999990764618,8|2,0:0|0:0,0:0:0:0:
292,217,18442,6,0,B|255:248|255:248|190:252|190:252|149:225,1,161.999990764618,0|2,3:0|0:0,0:0:0:0:
309,302,18795,2,0,B|347:270|347:270|412:266,1,80.9999953823091,8|0,3:2|0:0,0:0:0:0:
450,293,18971,2,0,B|410:266|410:266|345:270,1,80.9999953823091,2|0,3:2|0:0,0:0:0:0:
367,106,19148,6,0,L|373:187,1,80.9999953823091,4|0,3:2|3:0,0:0:0:0:
144,106,19324,1,2,3:2:0:0:
144,106,19412,1,0,3:0:0:0:
144,106,19501,2,0,L|139:187,1,80.9999953823091,8|0,3:2|3:0,0:0:0:0:
373,187,19677,5,2,3:2:0:0:
373,187,19765,1,0,3:0:0:0:
373,187,19854,2,0,P|403:213|442:220,1,80.9999953823091,0|0,3:0|3:0,0:0:0:0:
139,187,20030,1,2,3:2:0:0:
139,187,20118,1,0,3:0:0:0:
139,187,20207,2,0,P|108:213|69:220,1,80.9999953823091,8|0,3:2|3:0,0:0:0:0:
423,297,20383,5,0,3:0:0:0:
423,297,20471,1,0,3:0:0:0:
423,297,20560,2,0,P|463:297|497:277,1,80.9999953823091,4|0,3:2|3:0,0:0:0:0:
89,297,20736,1,2,3:2:0:0:
89,297,20824,1,0,3:0:0:0:
89,297,20913,2,0,P|48:297|14:277,1,80.9999953823091,8|0,3:2|3:0,0:0:0:0:
413,377,21089,5,2,3:2:0:0:
413,377,21177,1,0,3:0:0:0:
413,377,21265,2,0,L|424:288,1,80.9999953823091,4|0,3:2|3:0,0:0:0:0:
99,377,21442,1,2,3:2:0:0:
99,377,21530,1,0,3:0:0:0:
99,377,21618,2,0,L|88:288,1,80.9999953823091,8|0,3:2|3:0,0:0:0:0:
256,192,21795,5,0,3:0:0:0:
256,192,21883,1,0,3:0:0:0:
256,192,21971,2,0,L|256:272,1,80.9999953823091,4|0,3:2|3:0,0:0:0:0:
337,192,22148,2,0,L|257:192,1,80.9999953823091,2|0,3:2|3:0,0:0:0:0:
175,192,22324,2,0,L|255:192,1,80.9999953823091,12|0,3:2|3:0,0:0:0:0:
256,111,22501,2,0,L|256:191,1,80.9999953823091,0|0,3:0|3:0,0:0:0:0:
175,277,22677,5,12,3:2:0:0:
182,307,22765,1,0,3:2:0:0:
200,331,22853,1,0,3:2:0:0:
226,347,22941,1,0,3:2:0:0:
256,352,23030,1,12,3:2:0:0:
285,347,23118,1,0,3:0:0:0:
311,331,23206,1,0,3:0:0:0:
329,307,23294,1,0,3:0:0:0:
335,277,23383,6,0,B|315:131|315:131|405:188,1,215.999987686158,2|0,3:0|0:0,0:0:0:0:
158,196,23648,2,0,L|372:167,1,215.999987686158,2|0,3:0|0:0,0:0:0:0:
196,87,23912,2,0,B|216:233|216:233|158:196,1,215.999987686158,2|0,3:0|0:0,0:0:0:0:
93,135,24177,2,0,B|68:190|68:190|143:380,1,215.999987686158,6|0,3:0|0:0,0:0:0:0:
285,75,24442,6,0,L|196:87,1,89.9999976158143,2|0,3:2|0:0,0:0:0:0:
3,122,24618,2,0,L|109:136,1,89.9999976158143,2|0,3:2|0:0,0:0:0:0:
249,242,24795,6,0,P|241:285|213:320,1,89.9999976158143,4|0,3:2|0:0,0:0:0:0:
150,243,24971,2,0,P|157:199|185:164,1,89.9999976158143,2|0,0:0|0:0,0:0:0:0:
375,153,25148,2,0,B|341:234|341:234|249:242,1,179.999995231629,8|2,0:0|0:0,0:0:0:0:
296,19,25501,6,0,B|325:83|325:83|387:50|443:98,1,179.999995231629,0|2,3:0|0:0,0:0:0:0:
417,319,25854,2,0,P|394:291|391:118,1,179.999995231629,8|2,0:0|0:0,0:0:0:0:
137,153,26206,1,0,3:0:0:0:
95,319,26383,6,0,B|138:330|138:330|211:295,1,89.9999976158143,2|0,0:0|0:0,0:0:0:0:
284,223,26559,1,8,0:0:0:0:
241,158,26736,6,0,B|209:189|209:189|203:270,1,89.9999976158143,2|0,0:0|0:0,0:0:0:0:
229,369,26912,1,0,3:0:0:0:
307,364,27089,6,0,B|295:321|295:321|228:275,1,89.9999976158143,2|0,0:0|0:0,0:0:0:0:
130,249,27265,1,8,0:0:0:0:
229,369,27442,1,2,0:0:0:0:
284,223,27618,6,0,L|404:295,1,89.9999976158143,0|0,3:0|0:0,0:0:0:0:
385,355,27795,2,0,B|356:254,1,89.9999976158143,2|0,0:0|0:0,0:0:0:0:
433,181,27971,2,0,B|373:394,1,179.999995231629,8|2,0:0|0:0,0:0:0:0:
472,329,28236,1,0,0:0:0:0:
472,329,28324,6,0,B|333:193,1,179.999995231629,0|2,3:0|0:0,0:0:0:0:
169,203,28677,2,0,P|256:223|343:203,1,179.999995231629,8|2,0:0|0:0,0:0:0:0:
144,116,29030,5,0,3:0:0:0:
104,266,29206,2,0,B|190:289,1,89.9999976158143,2|0,0:0|0:0,0:0:0:0:
278,315,29383,5,8,0:0:0:0:
168,203,29559,2,0,B|103:265,1,89.9999976158143,2|0,0:0|0:0,0:0:0:0:
40,329,29736,5,0,3:0:0:0:
190,290,29912,2,0,B|158:168,1,89.9999976158143,2|0,0:0|0:0,0:0:0:0:
349,142,30089,6,0,B|270:122|270:122|282:147,1,107.999993843079,8|0,3:2|0:0,0:0:0:0:
254,224,30266,2,0,B|333:244|333:244|321:219,1,107.999993843079,2|0,3:2|0:0,0:0:0:0:
320,59,30442,6,0,P|235:49|192:122,1,179.999995231629,0|0,3:0|0:0,0:0:0:0:
88,202,30706,1,0,0:0:0:0:
38,140,30795,2,0,P|122:129|166:202,1,179.999995231629,8|2,0:0|0:0,0:0:0:0:
256,356,31148,1,0,3:0:0:0:
474,140,31324,6,0,P|389:129|345:202,1,179.999995231629,2|8,0:0|0:0,0:0:0:0:
447,330,31677,1,2,0:0:0:0:
447,330,31765,1,0,0:0:0:0:
447,330,31854,2,0,B|479:339|479:339|424:202,1,179.999995231629,0|2,3:0|0:0,0:0:0:0:
322,74,32207,2,0,B|290:65|290:65|345:202,1,179.999995231629,8|2,0:0|0:0,0:0:0:0:
256,356,32560,6,0,L|387:337,1,89.9999976158143,0|0,3:0|0:0,0:0:0:0:
344,201,32736,2,0,L|213:182,1,89.9999976158143,2|0,0:0|0:0,0:0:0:0:
76,288,32912,2,0,B|129:272|129:272|193:288|193:288|277:264,1,179.999995231629,8|2,0:0|0:0,0:0:0:0:
436,96,33265,6,0,B|383:112|383:112|319:96|319:96|235:120,1,179.999995231629,0|2,3:0|0:0,0:0:0:0:
320,188,33530,1,0,0:0:0:0:
320,188,33618,2,0,L|383:15,1,179.999995231629,8|2,0:0|0:0,0:0:0:0:
130,18,33971,2,0,L|192:188,1,179.999995231629,0|2,3:0|0:0,0:0:0:0:
127,251,34236,1,0,0:0:0:0:
127,251,34324,2,0,P|104:168|161:103,1,179.999995231629,8|2,0:0|0:0,0:0:0:0:
284,368,34677,6,0,P|256:271|228:368,1,269.999992847443,2|0,0:3|0:0,0:0:0:0:
387,356,35030,6,0,P|416:349|446:352,1,59.9999984105428,2|0,0:0|0:0,0:0:0:0:
382,268,35148,2,0,P|361:247|349:218,1,59.9999984105428,2|0,0:0|0:0,0:0:0:0:
457,148,35265,2,0,P|449:175|430:200,1,59.9999984105428,2|0,0:0|0:0,0:0:0:0:
304,95,35383,6,0,P|369:153|457:147,1,179.999995231629,2|0,3:0|0:0,0:0:0:0:
84,223,35736,2,0,P|160:162|267:191,1,179.999995231629,2|0,3:0|0:0,0:0:0:0:
36,155,36001,1,0,0:0:0:0:
2,231,36089,6,0,P|92:266|121:373,1,179.999995231629,0|2,3:0|0:0,0:0:0:0:
281,347,36354,1,0,0:0:0:0:
281,347,36442,2,0,B|205:299|205:299|115:341,1,179.999995231629,8|2,0:0|0:0,0:0:0:0:
362,306,36795,5,0,3:0:0:0:
340,127,36971,2,0,L|351:216,1,89.9999976158143,2|0,0:0|0:0,0:0:0:0:
443,265,37148,1,8,0:0:0:0:
421,86,37324,2,0,L|431:175,1,89.9999976158143,2|0,0:0|0:0,0:0:0:0:
249,80,37501,6,0,L|270:258,1,179.999995231629,0|2,3:0|0:0,0:0:0:0:
188,262,37765,1,0,0:0:0:0:
170,179,37854,2,0,L|349:158,1,179.999995231629,8|2,0:0|0:0,0:0:0:0:
420,58,38118,1,0,0:0:0:0:
420,58,38206,6,0,B|366:65|366:65|334:55|334:55|307:72|307:72|248:79,1,179.999995231629,0|2,3:0|0:0,0:0:0:0:
349,244,38559,2,0,P|359:201|348:158,1,89.9999976158143,8|0,0:0|0:0,0:0:0:0:
161,244,38736,2,0,P|150:200|162:157,1,89.9999976158143,2|0,0:0|0:0,0:0:0:0:
403,304,38912,6,0,P|318:326|349:243,1,215.999987686158,0|2,3:0|0:0,0:0:0:0:
480,271,39177,1,0,0:0:0:0:
480,271,39265,2,0,B|499:232|499:232|491:172,1,89.9999976158143,8|0,0:0|0:0,0:0:0:0:
433,133,39442,2,0,B|414:172|414:172|422:232,1,89.9999976158143,2|0,0:0|0:0,0:0:0:0:
315,315,39618,6,0,B|349:245|349:245|334:137,1,179.999995231629,0|2,3:0|0:0,0:0:0:0:
179,244,39883,1,0,0:0:0:0:
179,244,39971,2,0,L|286:229,1,89.9999976158143,8|0,0:0|0:0,0:0:0:0:
254,154,40148,2,0,B|211:144|211:144|170:163,1,89.9999976158143,2|0,0:0|0:0,0:0:0:0:
193,322,40324,6,0,B|235:331|235:331|276:312,1,89.9999976158143,0|0,3:0|0:0,0:0:0:0:
357,218,40501,1,2,0:0:0:0:
89,256,40677,2,0,L|104:363,1,89.9999976158143,8|0,0:0|0:0,0:0:0:0:
0,266,40854,2,0,L|15:159,1,89.9999976158143,2|0,0:0|0:0,0:0:0:0:
68,1,41030,6,0,L|95:194,1,172.799999641113,0|2,3:0|0:0,0:0:0:0:
170,164,41295,1,0,0:0:0:0:
170,164,41383,2,0,P|205:118|138:93,1,125.999992816925,8|0,3:2|0:0,0:0:0:0:
152,3,41559,2,0,P|196:39|161:83,1,125.999992816925,2|0,3:2|0:0,0:0:0:0:
134,241,41736,6,0,B|263:276|263:276|242:252|243:216,1,179.999995231629,0|2,3:0|0:0,0:0:0:0:
277,157,42001,1,0,0:0:0:0:
326,225,42089,2,0,P|288:350|209:338,1,179.999995231629,8|2,0:0|0:0,0:0:0:0:
201,143,42442,6,0,P|191:228|262:275,1,179.999995231629,0|2,3:0|0:0,0:0:0:0:
364,172,42706,1,0,0:0:0:0:
364,172,42795,2,0,L|266:193,1,99.8999997925187,8|0,0:0|0:0,0:0:0:0:
262,275,42971,2,0,L|359:254,1,99.8999997925187,2|0,0:0|0:0,0:0:0:0:
324,102,43148,6,0,L|303:382,1,242.99999448967,0|2,3:0|0:0,0:0:0:0:
461,368,43412,1,0,0:0:0:0:
461,368,43501,2,0,P|457:292|390:328,1,179.999995231629,8|2,0:0|0:0,0:0:0:0:
137,326,43854,6,0,P|204:361|208:285,1,179.999995231629,0|2,3:0|0:0,0:0:0:0:
140,241,44118,1,0,0:0:0:0:
35,276,44206,6,0,B|78:300|78:300|208:284,1,179.999995231629,8|2,0:0|0:0,0:0:0:0:
300,174,44471,1,0,0:0:0:0:
300,174,44559,2,0,B|276:216|276:216|291:346,1,179.999995231629,0|2,3:0|0:0,0:0:0:0:
220,150,44912,6,0,P|376:174|275:252,1,341.999981807709,8|0,0:0|3:0,0:0:0:0:
179,68,45442,1,2,0:0:0:0:
179,68,45530,1,0,0:0:0:0:
179,68,45618,2,0,P|203:149|174:228,1,170.999990903855,8|2,0:0|0:0,0:0:0:0:
8,53,45971,6,0,L|94:61,1,85.4999954519273,0|0,3:0|0:0,0:0:0:0:
123,135,46148,2,0,L|37:142,1,76.4999994325638,2|0,0:0|0:0,0:0:0:0:
75,215,46324,2,0,L|161:223,1,67.5000007867814,8|0,0:0|0:0,0:0:0:0:
172,295,46501,2,0,L|96:302,1,58.499995772362,2|0,0:0|0:0,0:0:0:0:
142,374,46677,6,0,L|210:380,2,39.9999989403619,2|2|2,3:3|0:3|0:3,0:0:0:0:
256,332,46912,1,0,3:0:0:0:
370,374,47030,6,0,L|302:380,1,39.9999989403619,2|0,3:0|0:0,0:0:0:0:
369,221,47148,2,0,L|437:215,1,67.5000007867814,2|0,3:0|0:0,0:0:0:0:
398,300,47265,2,0,L|340:295,1,58.499995772362,2|0,3:0|0:0,0:0:0:0:
389,135,47383,6,0,L|475:142,1,78.2608674920124,4|0,3:2|0:0,0:0:0:0:
384,118,47736,6,0,L|473:125,1,89.9999976158143,2|0,0:2|0:0,0:0:0:0:
280,172,48089,6,0,P|253:191|246:221,1,45.0000005245209,8|0,0:0|0:0,0:0:0:0:
209,265,48206,2,0,P|238:278|268:269,1,45.0000005245209,2|0,0:3|0:0,0:0:0:0:
326,280,48324,2,0,P|322:247|300:226,1,45.0000005245209,2|0,0:3|0:0,0:0:0:0:
273,243,48442,6,0,L|285:383,1,107.999993843079,2|0,0:3|0:0,0:0:0:0:
410,370,48618,2,0,L|400:263,1,107.999993843079,2|0,0:3|0:0,0:0:0:0:
404,90,48795,6,0,B|392:130|392:130|403:178|403:178|388:222|388:222|407:285,1,179.999995231629,2|0,3:1|0:0,0:0:0:0:
316,128,49059,6,0,B|327:176|327:176|312:220|312:220|324:267,1,143.999996185303,2|0,0:1|0:0,0:0:0:0:
250,171,49324,6,0,B|235:220|235:220|250:274,1,107.999993843079,2|0,0:1|0:0,0:0:0:0:
297,336,49501,6,0,P|260:202|176:292,1,314.999982042313,8|0,0:0|0:0,0:0:0:0:
221,347,50030,2,0,P|208:310|176:287,1,80.9999953823091,2|0,0:0|0:0,0:0:0:0:
43,347,50206,6,0,B|83:347|83:347|107:339|107:339|131:347|131:347|255:347,1,179.999995231629,0|2,3:2|0:0,0:0:0:0:
344,348,50471,1,0,0:0:0:0:
344,348,50559,2,0,B|344:316|344:316|356:300|356:300|356:260|356:260|344:244|344:244|344:200|344:200|356:184|356:184|356:100,1,215.999987686158,2|2,0:1|0:0,0:0:0:0:
113,228,50912,6,0,P|152:263|214:266,1,107.999993843079,8|0,0:0|0:0,0:0:0:0:
272,193,51089,2,0,P|251:241|205:268,1,107.999993843079,2|0,0:3|0:0,0:0:0:0:
274,103,51265,2,0,P|291:205|408:217,1,215.999987686158,2|2,0:3|0:3,0:0:0:0:
58,109,51618,6,0,B|39:65|39:65|123:103|206:48|206:48|196:95,1,269.999992847443,2|0,3:1|0:0,0:0:0:0:
93,191,51971,2,0,L|55:104,1,89.9999976158143,2|0,0:3|0:0,0:0:0:0:
196,92,52148,2,0,L|178:181,1,89.9999976158143,2|0,0:3|0:0,0:0:0:0:
143,259,52324,5,8,3:2:0:0:
151,279,52412,1,0,3:0:0:0:
138,281,52501,1,0,3:0:0:0:
160,300,52589,1,2,0:3:0:0:
133,303,52677,1,2,0:0:0:0:
169,320,52765,1,2,0:0:0:0:
129,325,52854,1,2,0:0:0:0:
178,341,52942,1,2,0:0:0:0:
125,347,53030,6,0,B|85:365|85:365|14:340,1,89.9999976158143,2|0,3:0|0:0,0:0:0:0:
44,129,53383,6,0,P|129:234|25:270,1,270.000003147125,2|0,0:1|0:0,0:0:0:0:
62,203,53736,6,0,B|110:171|164:204|164:204|216:233|273:199,1,215.999987686158,8|0,0:0|0:0,0:0:0:0:
212,122,54001,2,0,B|179:181|179:181|204:341,1,215.999987686158,2|0,0:1|0:0,0:0:0:0:
269,384,54265,2,0,L|291:237,1,103.499999232292,2|0,0:1|0:0,0:0:0:0:
101,186,54442,6,0,L|132:380,1,194.399999596253,4|0,3:0|0:0,0:0:0:0:
346,384,54795,2,0,L|376:192,1,164.69998885151,2|0,0:0|0:0,0:0:0:0:
211,205,55148,6,0,B|188:223|188:223|218:223,1,59.9999984105428,2|0,0:3|0:0,0:0:0:0:
301,179,55265,2,0,B|324:161|324:161|294:161,1,59.9999984105428,2|0,0:3|0:0,0:0:0:0:
199,130,55383,2,0,L|210:204,1,74.9999980131785,2|0,0:3|0:0,0:0:0:0:
292,259,55501,6,0,L|325:43,1,202.500002360344,2|0,0:3|0:0,0:0:0:0:
323,58,55854,6,0,P|416:107|481:51,1,179.999995231629,2|2,3:1|0:0,0:0:0:0:
188,58,56206,2,0,P|139:104|79:105,1,89.9999976158143,2|0,0:1|0:0,0:0:0:0:
41,70,56383,2,0,P|75:99|119:109,1,89.9999976158143,2|0,0:1|0:0,0:0:0:0:
113,23,56559,6,0,L|129:254,1,179.999995231629,8|0,0:0|0:0,0:0:0:0:
399,23,56912,2,0,L|387:183,1,89.9999976158143,2|0,0:3|0:0,0:0:0:0:
386,202,57089,2,0,L|392:112,1,89.9999976158143,2|0,0:3|0:0,0:0:0:0:
211,93,57265,6,0,P|254:80|297:92,1,89.9999976158143,0|0,3:0|0:0,0:0:0:0:
255,158,57442,2,0,L|324:178,2,45.0000005245209,2|2|2,0:0|0:3|0:3,0:0:0:0:
246,182,57618,6,0,B|218:195|218:195|280:215,1,59.9999984105428,2|0,0:1|0:0,0:0:0:0:
187,284,57736,2,0,B|215:271|215:271|153:251,1,59.9999984105428,2|0,0:1|0:0,0:0:0:0:
261,353,57854,2,0,B|231:344|231:344|289:315,1,59.9999984105428,2|0,0:1|0:0,0:0:0:0:
291,266,57971,6,0,L|360:286,1,44.9999988079071,8|0,0:0|0:0,0:0:0:0:
305,251,58059,2,0,L|374:271,1,38.2499997162819,2|0,0:3|0:0,0:0:0:0:
319,236,58148,2,0,L|367:250,1,31.4999982042313,2|0,0:3|0:0,0:0:0:0:
333,221,58236,2,0,L|367:230,1,24.750000099659,2|0,0:3|0:0,0:0:0:0:
376,139,58324,6,0,L|332:151,1,24.750000099659,2|0,0:1|0:0,0:0:0:0:
362,124,58412,2,0,L|318:136,1,31.4999982042313,2|0,0:0|0:0,0:0:0:0:
348,109,58501,2,0,L|304:121,1,38.2499997162819,2|0,0:0|0:0,0:0:0:0:
334,94,58589,2,0,L|290:106,1,44.9999988079071,2|0,0:0|0:0,0:0:0:0:
242,40,58677,5,4,3:2:0:0:
174,119,58854,2,0,L|424:156,1,179.999995231629,2|8,0:0|0:0,0:0:0:0:
106,198,59206,2,0,L|356:235,1,179.999995231629,2|0,0:0|3:0,0:0:0:0:
38,277,59559,2,0,L|288:314,1,179.999995231629,2|8,0:0|0:0,0:0:0:0:
373,275,59912,6,0,P|288:254|216:303,1,179.999995231629,2|0,0:0|3:0,0:0:0:0:
72,164,60265,2,0,P|157:143|229:192,1,179.999995231629,2|8,0:0|0:0,0:0:0:0:
373,52,60618,2,0,P|288:30|215:81,1,179.999995231629,2|0,0:0|3:0,0:0:0:0:
359,211,60971,2,0,P|401:134|372:51,1,179.999995231629,2|8,0:0|0:0,0:0:0:0:
229,192,61324,1,2,0:0:0:0:
229,192,61412,1,0,0:0:0:0:
229,192,61501,1,0,3:0:0:0:
281,308,61677,6,0,B|296:262|296:262|226:322|139:249,1,179.999995231629,2|8,0:0|0:0,0:0:0:0:
122,157,62030,2,0,B|107:203|107:203|177:143|264:216,1,179.999995231629,2|0,0:0|3:0,0:0:0:0:
99,23,62383,2,0,L|109:223,1,179.999995231629,2|8,0:0|0:0,0:0:0:0:
336,60,62736,2,0,L|324:283,1,179.999995231629,2|0,0:0|3:0,0:0:0:0:
176,60,63089,2,0,L|186:260,1,179.999995231629,2|8,0:0|0:0,0:0:0:0:
413,23,63442,2,0,L|403:223,1,179.999995231629,2|0,0:0|3:0,0:0:0:0:
256,16,63795,1,2,0:0:0:0:
256,16,63883,1,0,0:0:0:0:
256,16,63971,6,0,L|256:128,1,89.9999976158143,8|0,3:2|0:0,0:0:0:0:
178,151,64148,2,0,L|274:95,1,89.9999976158143,2|0,3:2|0:0,0:0:0:0:
333,151,64324,6,0,L|148:44,1,179.999995231629,0|2,3:0|0:0,0:0:0:0:
100,106,64587,1,0,0:0:0:0:
100,106,64674,2,0,L|214:172,1,89.9999976158143,8|0,0:0|0:0,0:0:0:0:
255,195,64850,2,0,P|160:198|128:279,1,179.999995231629,2|0,0:0|3:0,0:0:0:0:
302,349,65201,5,2,0:0:0:0:
302,349,65288,1,0,0:0:0:0:
302,349,65376,2,0,B|318:306|318:306|287:227,1,89.9999976158143,8|0,0:0|0:0,0:0:0:0:
210,264,65552,2,0,B|193:305|193:305|209:348,1,89.9999976158143,2|0,0:0|0:0,0:0:0:0:
301,264,65727,6,0,L|265:168,1,89.9999976158143,0|0,3:0|0:0,0:0:0:0:
148,95,65902,2,0,L|179:179,1,89.9999976158143,2|0,0:0|0:0,0:0:0:0:
317,6,66078,2,0,L|269:179,1,179.999995231629,8|2,0:0|0:0,0:0:0:0:
391,264,66341,1,0,0:0:0:0:
391,264,66429,6,0,P|389:211|428:170,1,89.9999976158143,0|0,3:0|0:0,0:0:0:0:
489,156,66604,2,0,P|444:184|389:170,1,89.9999976158143,2|0,0:0|0:0,0:0:0:0:
392,31,66780,2,0,P|439:135|377:199,1,179.999995231629,8|2,0:0|0:0,0:0:0:0:
194,31,67043,1,0,0:0:0:0:
194,31,67131,6,0,L|392:31,1,198.000000797272,0|2,3:0|0:0,0:0:0:0:
325,200,67394,1,0,0:0:0:0:
325,200,67481,2,0,L|127:200,1,198.000000797272,8|2,0:0|0:0,0:0:0:0:
301,117,67745,1,0,0:0:0:0:
301,117,67832,6,0,P|243:200|306:280,1,215.999987686158,0|2,3:0|0:0,0:0:0:0:
348,349,68095,1,0,0:0:0:0:
389,276,68183,2,0,P|370:226|324:199,1,107.999993843079,8|0,0:0|0:0,0:0:0:0:
249,338,68359,2,0,P|296:360|348:349,1,107.999993843079,2|0,0:0|0:0,0:0:0:0:
388,118,68534,6,0,L|348:348,1,233.999983089448,2|2,3:0|0:0,0:0:0:0:
234,39,68795,1,0,0:0:0:0:
234,39,68882,2,0,L|277:290,1,233.999983089448,8|2,0:0|0:0,0:0:0:0:
70,379,69144,1,0,0:0:0:0:
70,379,69231,6,0,L|113:128,1,233.999983089448,0|2,3:0|0:0,0:0:0:0:
171,93,69493,1,0,0:0:0:0:
293,154,69580,2,0,L|273:269,1,116.999991544724,8|0,0:0|0:0,0:0:0:0:
171,323,69754,2,0,L|190:207,1,116.999991544724,2|0,3:2|0:0,0:0:0:0:
271,30,69929,6,0,L|296:177,1,125.999992816925,0|0,3:0|0:0,0:0:0:0:
65,305,70103,2,0,L|131:170,1,125.999992816925,2|0,3:2|0:0,0:0:0:0:
394,203,70278,2,0,L|261:272,1,125.999992816925,8|0,3:2|0:0,0:0:0:0:
68,93,70452,2,0,L|216:114,1,125.999992816925,2|0,3:2|0:0,0:0:0:0:
263,361,70627,6,0,P|232:338|213:269,1,80.9999953823091,8|8,3:2|3:2,0:0:0:0:
222,340,70714,2,0,P|206:305|224:235,1,80.9999953823091,8|8,3:2|3:2,0:0:0:0:
196,300,70801,2,0,P|200:262|250:210,1,80.9999953823091,8|0,3:2|3:0,0:0:0:0:
193,252,70888,2,0,P|215:221|285:202,1,80.9999953823091,8|0,3:2|3:0,0:0:0:0:
253,202,70975,6,0,P|289:184|313:152,1,80.9999953823091,8|0,3:2|3:0,0:0:0:0:
300,190,71063,2,0,P|322:156|327:117,1,80.9999953823091,8|0,3:2|0:0,0:0:0:0:
334,156,71150,2,0,P|337:115|321:78,1,80.9999953823091,8|0,3:2|3:0,0:0:0:0:
346,109,71237,2,0,P|328:72|296:48,1,80.9999953823091,8|0,3:2|3:0,0:0:0:0:
331,62,71324,6,0,P|249:32|195:180,1,251.999985633851,8|0,3:2|0:0,0:0:0:0:
222,279,71586,2,0,B|280:306|280:306|261:120,1,251.999985633851,8|0,3:2|0:0,0:0:0:0:
8,265,71847,2,0,B|236:371,1,251.999985633851,8|0,3:2|0:0,0:0:0:0:
385,200,72109,2,0,B|337:177|337:177|116:226,1,251.999985633851,8|0,3:2|0:0,0:0:0:0:
237,372,72371,6,0,B|273:389|273:389|440:352,1,125.999992816925,8|0,3:2|0:0,0:0:0:0:
382,118,72545,2,0,B|346:101|346:101|179:138,1,125.999992816925,8|0,2:3|0:0,0:0:0:0:
280,312,72720,6,0,B|543:253,1,233.999983089448,6|2,3:2|0:0,0:0:0:0:
336,182,72980,1,0,0:0:0:0:
336,182,73066,1,8,0:0:0:0:
102,345,73240,5,2,0:0:0:0:
88,319,73326,5,2,0:0:0:0:
89,351,73413,37,2,3:0:0:0:
101,313,73499,5,2,0:3:0:0:
76,357,73587,37,2,0:0:0:0:
114,307,73673,5,2,0:0:0:0:
63,363,73760,37,8,3:2:0:0:
127,301,73846,5,2,0:3:0:0:
50,369,73934,37,2,0:0:0:0:
140,295,74020,5,2,0:0:0:0:
37,375,74107,6,0,P|-10:335|77:226,1,233.999983089448,2|2,3:0|0:0,0:0:0:0:
304,275,74454,6,0,B|317:367|317:367|299:352,1,116.999991544724,10|0,3:2|0:0,0:0:0:0:
225,329,74627,2,0,B|211:236|211:236|229:251,1,116.999991544724,2|0,0:0|0:0,0:0:0:0:
401,206,74800,6,0,P|409:263|454:299,1,116.999991544724,2|0,3:0|0:0,0:0:0:0:
474,374,74974,2,0,P|515:344|523:266,1,116.999991544724,2|0,0:0|0:0,0:0:0:0:
512,115,75147,6,0,L|333:143,1,116.999991544724,8|0,3:2|0:0,0:0:0:0:
285,188,75321,2,0,L|464:216,1,116.999991544724,2|0,0:0|0:0,0:0:0:0:
474,42,75494,6,0,P|325:37|286:179,1,233.999983089448,2|2,3:0|0:3,0:0:0:0:
287,303,75754,1,2,0:0:0:0:
288,304,75841,2,0,L|284:187,1,116.999991544724,8|0,0:0|0:0,0:0:0:0:
111,373,76014,5,2,0:0:0:0:
196,340,76100,5,2,0:0:0:0:
128,329,76187,37,2,3:3:0:0:
172,298,76274,5,2,0:3:0:0:
132,283,76360,37,2,0:0:0:0:
162,253,76448,5,2,0:0:0:0:
122,237,76535,37,8,3:2:0:0:
165,206,76622,5,2,0:3:0:0:
101,196,76708,37,2,0:0:0:0:
181,162,76795,5,2,0:0:0:0:
67,161,76881,6,0,P|38:111|49:53,1,116.999991544724,2|0,3:0|0:0,0:0:0:0:
234,93,77055,2,0,P|180:73|127:94,1,116.999991544724,2|0,0:0|0:0,0:0:0:0:
267,187,77228,6,0,B|353:176|353:176|333:166|308:122,1,116.999991544724,8|0,3:2|0:0,0:0:0:0:
457,79,77402,2,0,B|371:90|371:90|391:100|416:144,1,116.999991544724,2|0,0:0|0:0,0:0:0:0:
361,364,77575,6,0,L|390:205,1,116.999991544724,2|0,3:0|0:0,0:0:0:0:
267,187,77748,2,0,L|296:346,1,99.0000003986359,2|0,0:0|0:0,0:0:0:0:
172,328,77922,2,0,L|186:248,1,80.9999953823091,8|0,0:0|0:0,0:0:0:0:
80,203,78095,2,0,L|91:265,1,62.9999964084627,0|2,3:0|0:2,0:0:0:0:
64,354,78269,6,0,L|115:73,1,242.99999448967,0|2,3:0|0:0,0:0:0:0:
306,267,78529,1,0,0:0:0:0:
306,267,78615,2,0,P|407:242|314:166,1,242.99999448967,8|2,0:0|0:0,0:0:0:0:
223,297,78876,1,0,0:0:0:0:
262,377,78962,6,0,L|435:356,1,121.499997244835,2|2,3:0|0:3,0:0:0:0:
184,217,79136,2,0,L|63:202,1,121.499997244835,2|2,0:0|0:0,0:0:0:0:
174,371,79309,5,8,3:2:0:0:
182,361,79396,1,2,0:3:0:0:
217,375,79483,5,2,0:0:0:0:
225,365,79570,1,2,0:0:0:0:
262,377,79656,6,0,B|385:362|385:362|445:236,1,242.99999448967,2|2,3:0|0:0,0:0:0:0:
285,134,79916,1,0,0:0:0:0:
285,134,80003,2,0,B|224:141|224:141|198:195,1,121.499997244835,8|0,0:0|0:0,0:0:0:0:
270,297,80176,2,0,B|331:290|331:290|357:236,1,121.499997244835,2|0,0:0|0:0,0:0:0:0:
179,75,80350,6,0,L|197:195,1,121.499997244835,2|0,3:0|0:0,0:0:0:0:
436,254,80523,2,0,L|454:133,1,121.499997244835,2|0,0:0|0:0,0:0:0:0:
84,151,80696,1,8,0:0:0:0:
467,43,80869,1,2,0:0:0:0:
343,380,81043,6,0,B|388:316|388:316|363:153,1,242.99999448967,4|2,3:2|0:0,0:0:0:0:
197,195,81303,1,0,0:0:0:0:
178,314,81390,2,0,B|299:296,1,121.499997244835,8|0,3:2|0:0,0:0:0:0:
213,21,81563,37,2,0:0:0:0:
125,36,81650,5,2,0:0:0:0:
198,42,81737,37,2,3:0:0:0:
140,57,81824,5,2,0:3:0:0:
191,66,81910,37,2,0:0:0:0:
147,81,81997,5,2,0:0:0:0:
191,92,82084,37,8,0:0:0:0:
147,107,82170,5,2,0:3:0:0:
200,116,82257,37,2,0:0:0:0:
138,131,82344,5,2,0:0:0:0:
215,137,82430,6,0,B|259:93|389:90|362:258|242:190,1,242.99999448967,2|2,3:0|0:3,0:0:0:0:
96,229,82691,1,2,0:0:0:0:
96,229,82777,6,0,P|54:186|50:126,1,121.499997244835,8|0,0:0|0:0,0:0:0:0:
185,55,82951,2,0,P|140:92|129:151,1,121.499997244835,2|0,0:0|0:0,0:0:0:0:
170,285,83124,6,0,P|215:324|275:326,1,121.499997244835,0|2,3:0|0:0,0:0:0:0:
215,137,83298,2,0,P|208:196|242:245,1,121.499997244835,2|0,0:0|0:0,0:0:0:0:
366,311,83471,6,0,P|425:307|469:266,1,121.499997244835,8|2,0:0|0:0,0:0:0:0:
294,175,83645,2,0,P|332:221|390:232,1,121.499997244835,2|2,3:2|0:0,0:0:0:0:
400,14,83818,6,0,B|432:-28|519:-34|555:103|449:186,1,287.999992370606,4|2,3:2|0:0,0:0:0:0:
215,136,84078,1,0,0:0:0:0:
215,136,84165,1,8,0:0:0:0:
310,363,84338,5,2,0:0:0:0:
324,277,84425,5,2,0:0:0:0:
265,352,84511,37,2,3:3:0:0:
300,272,84598,5,2,0:3:0:0:
223,329,84685,37,2,0:0:0:0:
278,259,84772,5,2,0:0:0:0:
189,295,84858,37,8,3:2:0:0:
259,243,84945,5,2,0:3:0:0:
164,254,85032,37,2,0:0:0:0:
246,222,85119,5,2,0:0:0:0:
151,208,85205,6,0,B|76:184|78:256|-15:229|-15:229|-46:301|5:354,1,287.999992370606,2|2,3:0|0:0,0:0:0:0:
322,313,85552,6,0,B|365:316|365:316|409:280|409:280|414:220,1,143.999996185303,8|0,0:0|0:0,0:0:0:0:
338,146,85725,2,0,B|294:142|294:142|250:178|250:178|246:221,1,143.999996185303,2|0,0:0|0:0,0:0:0:0:
322,313,85899,2,0,B|279:309|279:309|243:265|243:265|247:222,1,143.999996185303,2|0,3:0|0:0,0:0:0:0:
337,145,86072,2,0,B|380:149|380:149|416:193|416:193|413:237,1,143.999996185303,2|0,0:0|0:0,0:0:0:0:
200,343,86246,6,0,B|160:286|160:286|166:211,1,143.999996185303,8|0,0:0|0:0,0:0:0:0:
224,92,86419,2,0,B|174:136|174:136|166:213,1,143.999996185303,2|2,0:0|0:0,0:0:0:0:
434,366,86592,2,0,B|484:322|484:322|498:171|498:171|457:114,1,287.999992370606,2|2,3:0|0:0,0:0:0:0:
169,36,86852,1,0,0:0:0:0:
169,36,86939,6,0,B|119:80|119:80|28:80,1,143.999996185303,8|0,0:0|0:0,0:0:0:0:
163,199,87113,21,2,0:0:0:0:
245,176,87199,37,2,0:0:0:0:
166,212,87286,5,2,3:0:0:0:
253,206,87373,37,2,0:3:0:0:
168,227,87459,5,2,0:0:0:0:
255,237,87546,37,2,0:0:0:0:
167,242,87633,5,8,3:2:0:0:
250,266,87720,37,2,0:3:0:0:
163,256,87806,5,2,0:0:0:0:
242,295,87893,37,2,0:0:0:0:
157,270,87980,6,0,P|160:334|262:381,1,143.999996185303,2|2,3:0|0:3,0:0:0:0:
329,316,88153,2,0,P|288:372|218:381,1,143.999996185303,2|0,0:0|0:0,0:0:0:0:
131,217,88326,6,0,P|168:281|241:294,1,152.999998865128,8|0,0:0|0:0,0:0:0:0:
302,173,88500,2,0,P|299:247|241:294,1,152.999998865128,2|0,0:0|0:0,0:0:0:0:
161,79,88673,6,0,P|158:157|218:208,1,161.999990764618,2|2,3:0|0:3,0:0:0:0:
332,124,88846,2,0,P|295:193|218:207,1,161.999990764618,2|0,0:0|0:0,0:0:0:0:
127,46,89020,6,0,P|166:109|240:120,1,152.999998865128,8|0,0:0|0:0,0:0:0:0:
302,0,89193,2,0,P|297:74|239:120,1,152.999998865128,2|0,3:0|0:0,0:0:0:0:
37,34,89367,6,0,P|127:135|215:32,1,305.999997730255,2|2,3:2|0:0,0:0:0:0:
127,46,89627,1,0,0:0:0:0:
29,174,89714,2,0,B|-23:206|-23:206|21:222|21:222|69:218|101:250|101:250|145:266|145:266|123:202,1,305.999997730255,8|2,0:0|0:0,0:0:0:0:
36,306,89974,1,0,0:0:0:0:
0,382,90061,6,0,B|53:403|104:360|104:360|188:336,1,152.999998865128,2|2,3:0|0:3,0:0:0:0:
309,238,90234,1,2,0:0:0:0:
261,168,90321,2,0,B|216:203|228:269|228:269|206:353,1,152.999998865128,2|8,0:0|0:0,0:0:0:0:
357,308,90494,1,2,0:3:0:0:
441,301,90581,1,2,0:0:0:0:
395,262,90667,1,2,0:0:0:0:
401,345,90754,6,0,P|479:253|328:210,1,305.999997730255,2|2,3:0|0:0,0:0:0:0:
127,229,91014,1,0,0:0:0:0:
127,229,91101,6,0,B|127:153|127:153|263:153,1,152.999998865128,8|0,0:0|0:0,0:0:0:0:
281,77,91274,2,0,B|281:153|281:153|145:153,1,152.999998865128,2|0,0:0|0:0,0:0:0:0:
149,283,91448,2,0,B|149:207|149:207|219:135,1,152.999998865128,2|2,3:0|0:3,3:0:0:0:
258,22,91621,2,0,B|258:97|258:97|187:169,1,152.999998865128,2|0,0:0|0:0,3:0:0:0:
204,306,91795,2,0,L|204:110,1,152.999998865128,8|0,0:0|0:0,0:0:0:0:
204,0,91968,2,0,L|204:153,1,152.999998865128,2|2,0:0|0:0,0:0:0:0:
148,363,92141,6,0,B|179:396|233:399|281:347|281:347|280:166,1,313.199994331513,2|2,3:0|0:0,0:0:0:0:
126,125,92402,1,0,0:0:0:0:
126,125,92488,2,0,L|126:310,1,161.999990764618,8|0,0:0|0:0,0:0:0:0:
356,218,92662,5,2,0:0:0:0:
280,185,92748,5,2,0:0:0:0:
378,192,92835,37,2,3:3:0:0:
296,179,92921,5,2,0:3:0:0:
392,160,93009,37,2,0:0:0:0:
309,169,93095,5,2,0:0:0:0:
397,126,93182,37,8,0:0:0:0:
319,155,93268,5,2,0:3:0:0:
393,91,93356,37,2,0:0:0:0:
326,140,93442,5,2,0:0:0:0:
380,59,93529,6,0,B|392:21|439:14|439:14|496:34|496:87|496:87|458:125|457:204|515:234,1,323.999981529237,2|2,3:0|0:0,0:0:0:0:
419,373,93789,1,2,0:0:0:0:
501,359,93876,6,0,P|455:295|377:297,1,161.999990764618,8|0,0:0|0:0,0:0:0:0:
255,236,94049,2,0,P|300:299|378:297,1,161.999990764618,2|0,0:0|0:0,0:0:0:0:
473,145,94222,6,0,P|387:148|338:220,1,179.999995231629,2|2,3:0|0:3,0:0:0:0:
202,294,94396,2,0,P|288:291|338:220,1,179.999995231629,2|0,0:0|0:0,0:0:0:0:
222,54,94569,6,0,P|199:138|243:214,1,179.999995231629,8|2,0:0|0:3,0:0:0:0:
265,375,94743,2,0,P|288:290|243:214,1,179.999995231629,2|0,3:0|0:0,0:0:0:0:
107,5,94916,6,0,L|71:363,1,359.999990463257,4|2,3:2|0:0,0:0:0:0:
378,296,95176,1,0,0:0:0:0:
378,296,95263,2,0,L|361:117,1,179.999995231629,8|0,0:0|0:0,0:0:0:0:
222,54,95436,5,2,0:0:0:0:
191,72,95523,1,2,0:0:0:0:
207,86,95610,37,2,3:3:0:0:
166,98,95696,5,2,0:3:0:0:
202,122,95783,37,2,0:0:0:0:
149,130,95870,5,2,0:0:0:0:
205,158,95956,37,8,0:0:0:0:
139,164,96043,5,2,0:3:0:0:
218,191,96130,37,2,0:0:0:0:
139,200,96217,5,2,0:0:0:0:
238,221,96303,6,0,B|296:240|296:240|348:228|348:228|400:240|400:240|417:274|400:324|400:324|460:365|527:304,1,359.999990463257,2|2,3:0|0:0,0:0:0:0:
413,158,96563,1,0,0:0:0:0:
413,158,96650,6,0,B|349:143|349:143|297:155|297:155|238:137,1,179.999995231629,8|0,0:0|0:0,0:0:0:0:
99,226,96824,2,0,B|163:241|163:241|215:229|215:229|273:246,1,179.999995231629,2|0,0:0|0:0,0:0:0:0:
416,72,96997,6,0,B|352:57|352:57|300:69|300:69|241:51,1,179.999995231629,2|2,3:0|0:3,0:0:0:0:
96,312,97170,2,0,B|160:327|160:327|212:315|212:315|270:332,1,179.999995231629,2|0,0:0|0:0,0:0:0:0:
491,31,97344,5,8,0:0:0:0:
164,160,97517,1,2,0:0:0:0:
490,352,97691,6,0,P|421:192|491:31,1,359.999990463257,2|2,3:0|0:0,0:0:0:0:
300,112,97951,1,0,0:0:0:0:
300,112,98037,2,0,P|335:193|300:272,1,179.999995231629,8|0,0:0|0:0,0:0:0:0:
146,192,98211,5,2,0:0:0:0:
224,192,98298,5,2,0:0:0:0:
143,200,98384,37,2,3:3:0:0:
226,200,98471,5,2,0:3:0:0:
141,209,98558,37,2,0:0:0:0:
228,209,98645,5,2,0:0:0:0:
139,218,98731,37,8,0:0:0:0:
230,218,98818,5,2,0:3:0:0:
137,226,98904,37,2,0:0:0:0:
232,226,98991,5,2,0:0:0:0:
135,235,99078,6,0,B|46:250|46:250|26:130,1,179.999995231629,2|2,3:0|0:3,0:0:0:0:
192,44,99251,2,0,B|103:59|103:59|119:148,1,179.999995231629,2|0,0:0|0:0,0:0:0:0:
148,321,99425,2,0,B|236:306|236:306|221:217,1,179.999995231629,8|0,0:0|0:0,0:0:0:0:
205,131,99598,2,0,B|294:116|294:116|309:205,1,179.999995231629,2|0,0:0|0:0,0:0:0:0:
383,269,99772,6,0,B|469:241|469:241|416:168,1,179.999995231629,2|0,0:0|0:0,0:0:0:0:
373,100,99945,2,0,B|372:9|372:9|287:37,1,179.999995231629,2|0,3:0|0:0,0:0:0:0:
118,201,100118,2,0,B|65:274|65:274|150:302,1,179.999995231629,8|0,0:0|0:0,0:0:0:0:
208,58,100292,2,0,B|122:30|122:30|122:119,1,179.999995231629,2|0,3:0|0:0,0:0:0:0:
220,331,100465,6,0,L|290:357,1,44.9999988079071,4|0,3:2|0:0,0:0:0:0:
261,315,100552,2,0,L|333:288,1,44.9999988079071,2|0,0:0|0:0,0:0:0:0:
282,276,100639,2,0,L|317:215,1,44.9999988079071,0|0,3:0|0:0,0:0:0:0:
273,232,100725,2,0,L|263:178,1,44.9999988079071,0|0,3:0|0:0,0:0:0:0:
238,204,100812,2,0,L|190:163,1,44.9999988079071,8|0,0:0|0:0,0:0:0:0:
194,205,100899,2,0,L|127:204,1,44.9999988079071,2|0,0:0|0:0,0:0:0:0:
160,235,100985,2,0,L|100:283,1,44.9999988079071,0|0,3:0|0:0,0:0:0:0:
153,279,101072,2,0,L|141:338,1,44.9999988079071,0|0,3:0|0:0,0:0:0:0:
175,317,101159,6,0,L|219:395,1,56.2499985098839,0|0,3:0|0:0,0:0:0:0:
246,296,101246,2,0,L|284:364,1,56.2499985098839,2|0,0:0|0:0,0:0:0:0:
317,275,101332,2,0,L|359:350,1,56.2499985098839,2|0,0:0|0:0,0:0:0:0:
388,254,101419,2,0,L|430:328,1,56.2499985098839,2|0,0:0|0:0,0:0:0:0:
426,185,101506,6,0,L|384:259,1,56.2499985098839,8|0,0:0|0:0,0:0:0:0:
355,164,101593,2,0,L|318:228,1,56.2499985098839,2|0,0:0|0:0,0:0:0:0:
284,143,101679,2,0,L|230:238,1,56.2499985098839,2|0,0:0|0:0,0:0:0:0:
213,122,101766,2,0,L|169:199,1,56.2499985098839,2|0,0:0|0:0,0:0:0:0:
126,36,101852,6,0,L|145:115,7,67.5000007867814,12|0|2|0|0|0|0|0,0:0|0:0|0:0|0:0|3:0|0:0|3:0|0:0,0:0:0:0:
442,120,102199,6,0,L|396:294,1,179.999995231629,2|0,3:0|0:0,0:0:0:0:
222,339,102373,2,0,L|396:293,1,179.999995231629,2|0,0:0|0:0,0:0:0:0:
375,49,102546,6,0,L|329:223,1,179.999995231629,8|0,0:0|0:0,0:0:0:0:
155,268,102720,2,0,L|329:222,1,179.999995231629,2|0,0:0|0:0,0:0:0:0:
469,23,102893,1,8,0:0:0:0:
43,23,103066,1,2,3:0:0:0:
310,341,103240,6,0,L|386:394,1,76.4999994325638,2|0,3:0|3:0,3:0:0:0:
372,385,103326,2,0,L|399:299,1,76.4999994325638,0|0,3:0|3:0,3:0:0:0:
398,315,103414,6,0,L|470:261,1,76.4999994325638,8|0,3:2|0:0,0:0:0:0:
463,273,103500,2,0,L|390:220,1,76.4999994325638,0|0,3:0|0:0,0:0:0:0:
405,232,103587,6,0,L|377:147,1,76.4999994325638,2|0,3:0|0:0,3:0:0:0:
385,163,103673,2,0,L|313:216,1,76.4999994325638,2|0,3:0|3:0,3:0:0:0:
327,212,103760,6,0,L|238:213,1,76.4999994325638,0|0,3:0|0:0,3:0:0:0:
254,216,103846,2,0,L|283:301,1,76.4999994325638,0|0,3:0|0:0,3:0:0:0:
282,292,103934,6,0,L|193:293,1,76.4999994325638,4|0,3:2|0:0,3:0:0:0:
209,296,104020,2,0,L|147:341,1,76.4999994325638,0|0,3:0|3:0,3:0:0:0:
151,345,104107,6,0,L|124:260,1,76.4999994325638,8|0,3:2|3:0,3:0:0:0:
131,276,104194,2,0,L|68:231,1,76.4999994325638,2|0,3:0|3:0,3:0:0:0:
72,235,104281,6,0,L|133:190,1,76.4999994325638,0|0,3:0|3:0,3:0:0:0:
137,194,104367,2,0,L|164:108,1,76.4999994325638,2|0,3:0|3:0,3:0:0:0:
163,125,104454,6,0,L|270:201,1,76.4999994325638,0|0,3:0|3:0,3:0:0:0:
229,172,104540,2,0,L|319:171,1,76.4999994325638,2|0,3:0|3:0,3:0:0:0:
375,225,104627,6,0,L|357:276,15,33.7500003933907,2|0|0|0|0|0|0|0|0|0|0|0|0|0|0|0,3:0|3:0|3:0|3:0|3:0|3:0|3:0|3:0|3:0|3:0|3:0|3:0|3:0|3:0|3:0|3:0,3:0:0:0:
274,258,104974,6,0,L|291:308,15,33.7500003933907,2|0|0|0|0|0|0|0|0|0|0|0|0|0|0|0,3:0|3:0|3:0|3:0|3:0|3:0|3:0|3:0|3:0|3:0|3:0|3:0|3:0|3:0|3:0|3:0,3:0:0:0:
305,171,105321,6,0,P|305:148|295:128,15,44.9999988079071,2|0|0|0|0|0|0|0|0|0|0|0|0|0|0|0,3:0|3:0|3:0|3:0|3:0|3:0|3:0|3:0|3:0|3:0|3:0|3:0|3:0|3:0|3:0|3:0,3:0:0:0:
209,195,105667,6,0,P|194:212|187:233,12,44.9999988079071,2|0|0|0|0|0|0|0|0|0|0|0|0,3:0|3:0|3:0|3:0|3:0|3:0|3:0|3:0|3:0|3:0|3:0|3:0|3:0,3:0:0:0:
399,211,106014,6,0,B|434:223|458:205|458:205|484:212|487:187|487:187|482:173|487:164|487:164|505:160|505:160|485:131|500:113|500:113|495:58|463:47|463:47|452:26|421:19|421:19|417:22|417:22|413:3|390:1|390:1|380:17|370:-7|361:-12|361:-12|349:-2|332:-22|311:-17|311:-17|293:-22|271:-13|271:-13|258:-7|254:3|254:3|245:-13|224:-12|224:-12|205:-19|189:-9|167:1|167:1|158:3|146:2|146:2|124:0|122:4|108:12|102:20|102:20|91:39|91:39|80:33|74:36|57:48|57:48|38:62|41:75|48:92|48:92|27:112|27:112|11:135|15:169|15:169|11:191|-20:220|15:249|22:263|22:263|46:250|60:242|71:263|71:263|72:283|72:283|65:287|65:287|95:330|110:342|152:340|182:330|193:307|193:307|199:296|201:282|201:282|212:300|184:386|184:386|214:325|260:307|277:295|277:295|302:298|323:290|323:290|345:282|359:264|359:264|353:252|374:239|374:239|363:216|363:216|379:197|357:165|357:165|341:164|341:164|324:146|324:146|309:137|291:146|291:146|281:135|258:146|258:146|271:132|243:135|243:135|228:140|228:140|203:133|169:154|169:154|152:150|187:185|187:185|197:203|226:205|256:217|256:217|258:212|276:212|288:213|288:213|297:211|295:225|295:225|260:223|247:232|247:232|242:226|206:196|157:229|157:229|141:246|136:268|136:268|140:224|117:203|98:196|98:196|85:190|77:189|77:189|93:162|82:154|82:154|92:139|109:127|109:127|107:112|112:101|112:101|122:90|137:92|137:92|150:81|152:66|152:66|170:79|170:79|200:65|212:53|212:53|228:68|237:69|237:69|239:71|239:71|245:71|245:71|258:69|289:69|304:48|304:48|311:75|311:75|331:76|339:58|339:58|351:106|375:73|375:73|378:90|380:101|380:101|374:101|390:109|409:68|417:100|427:107|427:107|420:110|423:128|423:128|423:146|423:146|423:167|423:167|416:185,1,2986.50239904707,6|0,3:2|0:0,0:0:0:0:
