osu file format v14

[General]
AudioFilename: Brain Power SDVX.mp3
AudioLeadIn: 0
PreviewTime: 71483
Countdown: 0
SampleSet: Normal
StackLeniency: 0.7
Mode: 1
LetterboxInBreaks: 0
WidescreenStoryboard: 0

[Editor]
Bookmarks: 52615
DistanceSpacing: 1
BeatDivisor: 4
GridSize: 32
TimelineZoom: 1.9

[Metadata]
Title:Brain Power
TitleUnicode:Brain Power
Artist:NOMA
ArtistUnicode:NOMA
Creator:Jason X
Version:Inner Oni stream ver
Source:SOUND VOLTEX II -infinite infection-
Tags:tasuke912 Estaryo - Lucy13 - Eeveesenpai_4_u SDVX Electronic English
BeatmapID:963424
BeatmapSetID:448937

[Difficulty]
HPDrainRate:7
CircleSize:5
OverallDifficulty:4.5
ApproachRate:10
SliderMultiplier:1.4
SliderTickRate:1

[Events]
//Background and Video events
0,0,"SDVX control.jpg",0,0
//Break Periods
//Storyboard Layer 0 (Background)
//Storyboard Layer 1 (Fail)
//Storyboard Layer 2 (Pass)
//Storyboard Layer 3 (Foreground)
//Storyboard Layer 4 (Overlay)
//Storyboard Sound Samples

[TimingPoints]
2410,352.941176470588,4,1,0,100,1,0
58880,351.906158357771,4,1,0,100,1,0
64510,352.941176470588,4,1,0,100,1,0
67333,350.877192982456,4,1,0,100,1,0
70140,346.820809248555,4,1,0,100,1,0
72914,-79.9999999999999,4,1,0,100,0,1
106209,-79.9999999999999,4,1,0,100,0,0

[HitObjects]
192,128,2410,5,0,0:0:0:0:
192,128,2674,1,0,0:0:0:0:
320,128,2762,1,8,0:0:0:0:
192,128,2939,1,0,0:0:0:0:
192,128,3115,1,0,0:0:0:0:
192,128,3380,1,0,0:0:0:0:
320,128,3468,1,8,0:0:0:0:
192,128,3645,1,0,0:0:0:0:
192,128,3821,1,0,0:0:0:0:
320,128,4174,1,8,0:0:0:0:
192,128,4351,1,0,0:0:0:0:
192,128,4527,1,0,0:0:0:0:
192,128,4792,1,0,0:0:0:0:
320,128,4880,1,8,0:0:0:0:
320,128,5057,1,8,0:0:0:0:
192,128,5233,1,0,0:0:0:0:
320,128,5586,1,8,0:0:0:0:
192,128,5762,1,0,0:0:0:0:
192,128,5939,1,0,0:0:0:0:
192,128,6204,1,0,0:0:0:0:
320,128,6292,1,8,0:0:0:0:
192,128,6645,1,0,0:0:0:0:
192,128,6821,1,0,0:0:0:0:
320,128,6998,1,8,0:0:0:0:
320,128,7086,1,8,0:0:0:0:
192,128,7174,1,0,0:0:0:0:
192,128,7351,1,0,0:0:0:0:
192,128,7615,1,0,0:0:0:0:
320,128,7704,1,8,0:0:0:0:
320,128,7880,1,8,0:0:0:0:
192,128,8057,1,0,0:0:0:0:
320,128,8321,1,8,0:0:0:0:
320,128,8409,1,8,0:0:0:0:
192,128,8586,1,0,0:0:0:0:
192,128,8762,1,0,0:0:0:0:
192,128,8939,1,0,0:0:0:0:
192,128,9027,1,0,0:0:0:0:
320,128,9115,1,8,0:0:0:0:
192,128,9292,1,0,0:0:0:0:
192,128,9468,1,0,0:0:0:0:
192,128,9733,1,0,0:0:0:0:
320,128,9821,1,8,0:0:0:0:
192,128,9998,1,0,0:0:0:0:
192,128,10174,1,0,0:0:0:0:
192,128,10351,1,0,0:0:0:0:
192,128,10439,1,0,0:0:0:0:
320,128,10527,1,8,0:0:0:0:
320,128,10704,1,8,0:0:0:0:
192,128,10880,1,0,0:0:0:0:
320,128,11233,1,8,0:0:0:0:
192,128,11586,1,0,0:0:0:0:
192,128,11851,1,0,0:0:0:0:
320,128,11939,1,8,0:0:0:0:
192,128,12115,1,0,0:0:0:0:
192,128,12292,1,0,0:0:0:0:
192,128,12468,1,0,0:0:0:0:
320,128,12645,1,8,0:0:0:0:
192,128,12821,1,0,0:0:0:0:
192,128,12909,1,0,0:0:0:0:
192,128,12998,1,0,0:0:0:0:
192,128,13115,1,0,0:0:0:0:
192,128,13233,1,0,0:0:0:0:
320,128,13351,1,8,0:0:0:0:
192,128,13527,1,0,0:0:0:0:
192,128,13704,1,0,0:0:0:0:
320,128,14057,1,8,0:0:0:0:
192,128,14233,1,0,0:0:0:0:
192,128,14409,1,0,0:0:0:0:
192,128,14674,1,0,0:0:0:0:
320,128,14762,1,8,0:0:0:0:
192,128,14939,1,0,0:0:0:0:
192,128,15115,1,0,0:0:0:0:
192,128,15292,1,0,0:0:0:0:
192,128,15380,1,0,0:0:0:0:
320,128,15468,1,8,0:0:0:0:
192,128,15821,1,0,0:0:0:0:
192,128,16086,1,0,0:0:0:0:
320,128,16174,1,8,0:0:0:0:
320,128,16351,1,8,0:0:0:0:
192,128,16527,1,0,0:0:0:0:
192,128,16704,1,0,0:0:0:0:
192,128,16792,1,0,0:0:0:0:
320,128,16880,1,8,0:0:0:0:
320,128,17057,1,8,0:0:0:0:
192,128,17233,1,0,0:0:0:0:
192,128,17498,1,0,0:0:0:0:
320,128,17586,1,8,0:0:0:0:
192,128,17762,1,0,0:0:0:0:
192,128,17939,1,0,0:0:0:0:
192,128,18115,1,0,0:0:0:0:
192,128,18204,1,0,0:0:0:0:
320,128,18292,1,8,0:0:0:0:
192,128,18468,1,0,0:0:0:0:
192,128,18645,1,0,0:0:0:0:
192,128,18909,1,0,0:0:0:0:
320,128,18998,1,8,0:0:0:0:
192,128,19174,1,0,0:0:0:0:
320,128,19351,1,8,0:0:0:0:
192,128,19439,1,0,0:0:0:0:
192,128,19527,1,0,0:0:0:0:
192,128,19615,1,0,0:0:0:0:
320,128,19704,1,8,0:0:0:0:
192,128,19792,1,0,0:0:0:0:
192,128,19880,1,0,0:0:0:0:
192,128,19968,1,0,0:0:0:0:
320,128,20057,1,8,0:0:0:0:
192,128,20145,1,0,0:0:0:0:
192,128,20233,1,0,0:0:0:0:
192,128,20321,1,0,0:0:0:0:
320,128,20409,1,8,0:0:0:0:
320,128,20498,1,8,0:0:0:0:
192,128,20586,1,0,0:0:0:0:
192,128,20674,1,0,0:0:0:0:
320,128,20762,1,8,0:0:0:0:
192,128,20851,1,0,0:0:0:0:
192,128,20939,1,0,0:0:0:0:
192,128,21027,1,0,0:0:0:0:
320,128,21115,1,8,0:0:0:0:
192,128,21204,1,0,0:0:0:0:
192,128,21292,1,0,0:0:0:0:
192,128,21380,1,0,0:0:0:0:
320,128,21468,1,8,0:0:0:0:
192,128,21557,1,0,0:0:0:0:
192,128,21645,1,0,0:0:0:0:
192,128,21733,1,0,0:0:0:0:
320,128,21821,1,8,0:0:0:0:
192,128,21909,1,0,0:0:0:0:
192,128,21998,1,0,0:0:0:0:
192,128,22086,1,0,0:0:0:0:
320,128,22174,1,8,0:0:0:0:
192,128,22262,1,0,0:0:0:0:
192,128,22351,1,0,0:0:0:0:
192,128,22439,1,0,0:0:0:0:
320,128,22527,1,8,0:0:0:0:
192,128,22615,1,0,0:0:0:0:
192,128,22704,1,0,0:0:0:0:
192,128,22792,1,0,0:0:0:0:
320,128,22880,1,8,0:0:0:0:
192,128,22939,1,0,0:0:0:0:
192,128,22998,1,0,0:0:0:0:
192,128,23057,1,0,0:0:0:0:
192,128,23115,1,0,0:0:0:0:
192,128,23174,1,0,0:0:0:0:
320,128,23233,1,8,0:0:0:0:
192,128,23321,1,0,0:0:0:0:
192,128,23409,1,0,0:0:0:0:
192,128,23498,1,0,0:0:0:0:
320,128,23586,1,8,0:0:0:0:
192,128,23851,1,0,0:0:0:0:
192,128,24115,1,0,0:0:0:0:
192,128,24380,1,0,0:0:0:0:
320,256,24645,1,14,0:0:0:0:
320,256,24821,1,14,0:0:0:0:
320,256,24998,1,14,0:0:0:0:
192,128,25174,1,0,0:0:0:0:
192,128,25262,1,0,0:0:0:0:
320,128,25351,1,8,0:0:0:0:
192,128,25527,1,0,0:0:0:0:
192,128,25704,1,0,0:0:0:0:
192,128,25880,1,0,0:0:0:0:
320,128,26057,1,8,0:0:0:0:
192,128,26409,1,0,0:0:0:0:
192,128,26674,1,0,0:0:0:0:
320,128,26762,1,8,0:0:0:0:
192,128,26939,1,0,0:0:0:0:
192,128,27115,1,0,0:0:0:0:
192,128,27292,1,0,0:0:0:0:
192,128,27380,1,0,0:0:0:0:
320,128,27468,1,8,0:0:0:0:
192,128,27645,1,0,0:0:0:0:
192,128,27821,1,0,0:0:0:0:
192,128,27998,1,0,0:0:0:0:
192,128,28086,1,0,0:0:0:0:
320,128,28174,1,8,0:0:0:0:
192,128,28351,1,0,0:0:0:0:
192,128,28527,1,0,0:0:0:0:
320,128,28880,1,8,0:0:0:0:
192,128,29057,1,0,0:0:0:0:
192,128,29233,1,0,0:0:0:0:
192,128,29498,1,0,0:0:0:0:
320,128,29586,1,8,0:0:0:0:
192,128,29762,1,0,0:0:0:0:
192,128,29939,1,0,0:0:0:0:
192,128,30115,1,0,0:0:0:0:
192,128,30204,1,0,0:0:0:0:
320,128,30292,1,8,0:0:0:0:
192,128,30468,1,0,0:0:0:0:
192,128,30645,1,0,0:0:0:0:
192,128,30909,1,0,0:0:0:0:
320,128,30998,1,8,0:0:0:0:
192,128,31262,1,0,0:0:0:0:
192,128,31351,1,0,0:0:0:0:
192,128,31615,1,0,0:0:0:0:
320,128,31704,1,8,0:0:0:0:
192,128,31880,1,0,0:0:0:0:
192,128,32057,1,0,0:0:0:0:
320,128,32409,1,8,0:0:0:0:
192,128,32586,1,0,0:0:0:0:
192,128,32762,1,0,0:0:0:0:
192,128,32939,1,0,0:0:0:0:
192,128,33027,1,0,0:0:0:0:
320,128,33115,1,8,0:0:0:0:
192,128,33292,1,0,0:0:0:0:
192,128,33468,1,0,0:0:0:0:
192,128,33733,1,0,0:0:0:0:
320,128,33821,1,8,0:0:0:0:
192,128,33998,1,0,0:0:0:0:
192,128,34174,1,0,0:0:0:0:
192,128,34439,1,0,0:0:0:0:
320,128,34527,1,8,0:0:0:0:
192,128,34704,1,0,0:0:0:0:
192,128,34880,1,0,0:0:0:0:
320,128,35233,1,8,0:0:0:0:
192,128,35351,1,0,0:0:0:0:
192,128,35468,1,0,0:0:0:0:
320,128,35586,1,8,0:0:0:0:
192,128,35851,1,0,0:0:0:0:
320,128,35939,1,8,0:0:0:0:
192,128,36204,1,0,0:0:0:0:
192,128,36292,1,0,0:0:0:0:
192,128,36468,1,0,0:0:0:0:
320,128,36645,1,8,0:0:0:0:
192,128,36821,1,0,0:0:0:0:
192,128,36998,1,0,0:0:0:0:
192,128,37086,1,0,0:0:0:0:
192,128,37174,1,0,0:0:0:0:
320,128,37351,1,8,0:0:0:0:
192,128,37704,1,0,0:0:0:0:
192,128,37968,1,0,0:0:0:0:
320,128,38057,1,8,0:0:0:0:
192,128,38233,1,0,0:0:0:0:
192,128,38409,1,0,0:0:0:0:
192,128,38586,1,0,0:0:0:0:
192,128,38674,1,0,0:0:0:0:
320,128,38762,1,8,0:0:0:0:
192,128,38939,1,0,0:0:0:0:
192,128,39115,1,0,0:0:0:0:
192,128,39380,1,0,0:0:0:0:
320,128,39468,1,8,0:0:0:0:
192,128,39645,1,0,0:0:0:0:
192,128,39733,1,0,0:0:0:0:
192,128,39821,1,0,0:0:0:0:
192,128,39998,1,0,0:0:0:0:
320,128,40174,1,8,0:0:0:0:
192,128,40527,1,0,0:0:0:0:
192,128,40792,1,0,0:0:0:0:
320,128,40880,1,8,0:0:0:0:
192,128,41057,1,0,0:0:0:0:
192,128,41233,1,0,0:0:0:0:
192,128,41409,1,0,0:0:0:0:
192,128,41498,1,0,0:0:0:0:
320,128,41586,1,8,0:0:0:0:
320,128,41762,1,8,0:0:0:0:
192,128,41939,1,0,0:0:0:0:
192,128,42204,1,0,0:0:0:0:
320,128,42292,1,8,0:0:0:0:
192,128,42468,1,0,0:0:0:0:
192,128,42557,1,0,0:0:0:0:
192,128,42645,1,0,0:0:0:0:
192,128,42821,1,0,0:0:0:0:
320,128,42998,1,8,0:0:0:0:
320,128,43086,1,8,0:0:0:0:
192,128,43174,1,0,0:0:0:0:
192,128,43351,1,0,0:0:0:0:
192,128,43615,1,0,0:0:0:0:
320,128,43704,1,8,0:0:0:0:
192,128,43880,1,0,0:0:0:0:
192,128,43968,1,0,0:0:0:0:
192,128,44057,1,0,0:0:0:0:
320,128,44233,1,8,0:0:0:0:
320,128,44409,1,8,0:0:0:0:
192,128,44586,1,0,0:0:0:0:
192,128,44762,1,0,0:0:0:0:
192,128,45027,1,0,0:0:0:0:
320,128,45115,1,8,0:0:0:0:
192,128,45292,1,0,0:0:0:0:
192,128,45468,1,0,0:0:0:0:
192,128,45733,1,0,0:0:0:0:
320,128,45821,1,8,0:0:0:0:
192,128,45998,1,0,0:0:0:0:
192,128,46086,1,0,0:0:0:0:
192,128,46174,1,0,0:0:0:0:
192,128,46351,1,0,0:0:0:0:
320,128,46527,1,8,0:0:0:0:
192,128,46704,1,0,0:0:0:0:
192,128,46880,1,0,0:0:0:0:
192,128,47115,1,0,0:0:0:0:
320,128,47233,1,8,0:0:0:0:
192,128,47351,1,0,0:0:0:0:
192,128,47468,1,0,0:0:0:0:
320,256,47586,1,14,0:0:0:0:
192,128,47939,1,0,0:0:0:0:
192,128,48292,1,0,0:0:0:0:
192,128,48409,1,0,0:0:0:0:
192,128,48527,1,0,0:0:0:0:
320,128,48645,1,8,0:0:0:0:
192,128,48821,1,0,0:0:0:0:
320,256,48998,1,14,0:0:0:0:
192,128,49233,1,0,0:0:0:0:
192,128,49468,1,0,0:0:0:0:
320,256,49704,1,14,0:0:0:0:
192,256,50409,1,4,0:0:0:0:
320,128,51115,1,8,0:0:0:0:
192,128,51292,1,0,0:0:0:0:
320,128,51468,1,8,0:0:0:0:
320,128,51821,1,8,0:0:0:0:
192,128,52174,1,0,0:0:0:0:
192,128,52351,1,0,0:0:0:0:
320,128,52527,1,8,0:0:0:0:
256,96,52615,1,8,0:0:0:0:
192,128,52704,1,0,0:0:0:0:
192,128,52792,1,0,0:0:0:0:
192,128,52880,1,0,0:0:0:0:
192,128,52968,1,0,0:0:0:0:
192,128,53057,1,0,0:0:0:0:
320,256,53233,1,14,0:0:0:0:
192,128,53939,1,0,0:0:0:0:
192,128,54204,1,0,0:0:0:0:
192,128,54468,1,0,0:0:0:0:
320,128,54645,1,8,0:0:0:0:
320,128,55351,1,8,0:0:0:0:
192,128,55468,1,0,0:0:0:0:
192,128,55586,1,0,0:0:0:0:
192,128,55704,1,0,0:0:0:0:
192,128,55880,1,0,0:0:0:0:
320,256,56057,1,14,0:0:0:0:
192,128,56409,1,0,0:0:0:0:
192,128,56586,1,0,0:0:0:0:
320,128,56762,1,8,0:0:0:0:
320,128,57115,1,8,0:0:0:0:
192,128,57233,1,0,0:0:0:0:
192,128,57351,1,0,0:0:0:0:
320,128,57468,1,8,0:0:0:0:
192,128,57645,1,0,0:0:0:0:
320,128,57821,1,8,0:0:0:0:
192,128,57939,1,0,0:0:0:0:
192,128,58057,1,0,0:0:0:0:
320,128,58174,1,8,0:0:0:0:
320,128,58262,1,8,0:0:0:0:
192,128,58351,1,0,0:0:0:0:
320,128,58439,1,0,0:0:0:0:
320,128,58527,1,8,0:0:0:0:
192,128,58704,1,0,0:0:0:0:
320,256,58880,1,14,0:0:0:0:
320,128,59231,1,8,0:0:0:0:
192,128,59583,1,0,0:0:0:0:
320,128,59935,1,8,0:0:0:0:
192,128,60287,1,0,0:0:0:0:
192,128,60551,1,0,0:0:0:0:
320,128,60639,1,8,0:0:0:0:
192,128,60815,1,0,0:0:0:0:
192,128,60991,1,0,0:0:0:0:
192,128,61079,1,0,0:0:0:0:
320,128,61167,1,8,0:0:0:0:
320,128,61343,1,8,0:0:0:0:
192,128,61519,1,0,0:0:0:0:
192,128,61695,1,0,0:0:0:0:
320,128,62047,1,8,0:0:0:0:
192,128,62399,1,0,0:0:0:0:
192,128,62662,1,0,0:0:0:0:
320,128,62750,1,8,0:0:0:0:
192,128,62926,1,0,0:0:0:0:
192,128,63102,1,0,0:0:0:0:
192,128,63278,1,0,0:0:0:0:
320,128,63454,1,8,0:0:0:0:
192,128,63630,1,0,0:0:0:0:
192,128,63718,1,0,0:0:0:0:
192,128,63806,1,0,0:0:0:0:
192,128,64070,1,0,0:0:0:0:
320,128,64158,1,8,0:0:0:0:
320,128,64334,1,8,0:0:0:0:
192,128,64510,1,0,0:0:0:0:
192,128,64686,1,0,0:0:0:0:
320,128,64862,1,8,0:0:0:0:
320,128,64951,1,8,0:0:0:0:
192,128,65039,1,0,0:0:0:0:
192,128,65215,1,0,0:0:0:0:
192,128,65392,1,0,0:0:0:0:
192,128,65480,1,0,0:0:0:0:
320,128,65568,1,8,0:0:0:0:
192,128,65745,1,0,0:0:0:0:
192,128,65833,1,0,0:0:0:0:
192,128,65921,1,0,0:0:0:0:
192,128,66186,1,0,0:0:0:0:
320,128,66274,1,8,0:0:0:0:
192,128,66451,1,0,0:0:0:0:
192,128,66627,1,0,0:0:0:0:
192,128,66892,1,0,0:0:0:0:
320,128,66980,1,8,0:0:0:0:
320,128,67157,1,8,0:0:0:0:
192,128,67333,1,0,0:0:0:0:
192,128,67508,1,0,0:0:0:0:
320,128,67683,1,8,0:0:0:0:
320,128,67771,1,8,0:0:0:0:
192,128,67859,1,0,0:0:0:0:
192,128,68034,1,0,0:0:0:0:
192,128,68210,1,0,0:0:0:0:
320,128,68385,1,8,0:0:0:0:
192,128,68736,1,0,0:0:0:0:
192,128,68999,1,0,0:0:0:0:
320,128,69087,1,8,0:0:0:0:
192,128,69262,1,0,0:0:0:0:
192,128,69438,1,0,0:0:0:0:
192,128,69613,1,0,0:0:0:0:
192,128,69701,1,0,0:0:0:0:
320,128,69789,1,8,0:0:0:0:
320,128,69964,1,8,0:0:0:0:
192,128,70140,1,0,0:0:0:0:
192,128,70313,1,0,0:0:0:0:
320,128,70486,1,8,0:0:0:0:
320,128,70660,1,8,0:0:0:0:
192,128,70833,1,0,0:0:0:0:
192,128,70891,1,0,0:0:0:0:
192,128,70949,1,0,0:0:0:0:
192,128,71007,1,0,0:0:0:0:
192,128,71064,1,0,0:0:0:0:
192,128,71122,1,0,0:0:0:0:
320,128,71180,1,8,0:0:0:0:
320,128,71267,1,8,0:0:0:0:
192,128,71353,1,0,0:0:0:0:
192,128,71440,1,0,0:0:0:0:
320,128,71527,1,8,0:0:0:0:
192,128,71787,1,0,0:0:0:0:
192,128,72047,1,0,0:0:0:0:
320,128,72307,1,8,0:0:0:0:
320,128,72567,1,8,0:0:0:0:
192,128,72741,1,0,0:0:0:0:
320,128,72914,1,8,0:0:0:0:
320,128,73001,1,8,0:0:0:0:
192,128,73087,1,0,0:0:0:0:
192,128,73174,1,0,0:0:0:0:
320,128,73261,1,8,0:0:0:0:
192,128,73348,1,0,0:0:0:0:
192,128,73434,1,0,0:0:0:0:
192,128,73521,1,0,0:0:0:0:
192,128,73608,1,0,0:0:0:0:
192,128,73694,1,0,0:0:0:0:
192,128,73781,1,0,0:0:0:0:
192,128,73868,1,0,0:0:0:0:
320,128,73955,1,8,0:0:0:0:
192,128,74041,1,0,0:0:0:0:
192,128,74128,1,0,0:0:0:0:
192,128,74215,1,0,0:0:0:0:
320,128,74301,1,8,0:0:0:0:
192,128,74388,1,0,0:0:0:0:
320,128,74475,1,8,0:0:0:0:
192,128,74561,1,0,0:0:0:0:
320,128,74648,1,8,0:0:0:0:
192,128,74735,1,0,0:0:0:0:
320,128,74822,1,8,0:0:0:0:
192,128,74908,1,0,0:0:0:0:
320,128,74995,1,8,0:0:0:0:
192,128,75082,1,0,0:0:0:0:
320,128,75168,1,8,0:0:0:0:
192,128,75255,1,0,0:0:0:0:
320,128,75342,1,8,0:0:0:0:
192,128,75429,1,0,0:0:0:0:
320,128,75515,1,8,0:0:0:0:
192,128,75602,1,0,0:0:0:0:
320,128,75689,1,8,0:0:0:0:
192,128,75775,1,0,0:0:0:0:
192,128,75862,1,0,0:0:0:0:
192,128,75949,1,0,0:0:0:0:
320,128,76035,1,8,0:0:0:0:
192,128,76122,1,0,0:0:0:0:
192,128,76209,1,0,0:0:0:0:
192,128,76296,1,0,0:0:0:0:
192,128,76382,1,0,0:0:0:0:
192,128,76469,1,0,0:0:0:0:
192,128,76556,1,0,0:0:0:0:
192,128,76642,1,0,0:0:0:0:
320,128,76729,1,8,0:0:0:0:
192,128,76816,1,0,0:0:0:0:
192,128,76903,1,0,0:0:0:0:
192,128,76989,1,0,0:0:0:0:
320,128,77076,1,8,0:0:0:0:
320,128,77163,1,8,0:0:0:0:
192,128,77249,1,0,0:0:0:0:
192,128,77336,1,0,0:0:0:0:
320,128,77423,1,8,0:0:0:0:
320,128,77509,1,8,0:0:0:0:
192,128,77596,1,0,0:0:0:0:
192,128,77683,1,0,0:0:0:0:
320,128,77770,1,8,0:0:0:0:
320,128,77856,1,8,0:0:0:0:
192,128,77943,1,0,0:0:0:0:
192,128,78030,1,0,0:0:0:0:
320,128,78116,1,8,0:0:0:0:
192,128,78203,1,0,0:0:0:0:
320,128,78290,1,8,0:0:0:0:
192,128,78376,1,0,0:0:0:0:
320,128,78463,1,8,0:0:0:0:
192,128,78550,1,0,0:0:0:0:
192,128,78637,1,0,0:0:0:0:
192,128,78723,1,0,0:0:0:0:
320,128,78810,1,8,0:0:0:0:
192,128,78897,1,0,0:0:0:0:
192,128,78983,1,0,0:0:0:0:
192,128,79070,1,0,0:0:0:0:
192,128,79157,1,0,0:0:0:0:
192,128,79244,1,0,0:0:0:0:
192,128,79330,1,0,0:0:0:0:
192,128,79417,1,0,0:0:0:0:
320,128,79504,1,8,0:0:0:0:
192,128,79590,1,8,0:0:0:0:
192,128,79677,1,0,0:0:0:0:
192,128,79764,1,0,0:0:0:0:
320,128,79850,1,8,0:0:0:0:
320,128,79937,1,8,0:0:0:0:
192,128,80024,1,0,0:0:0:0:
192,128,80111,1,0,0:0:0:0:
320,128,80197,1,8,0:0:0:0:
192,128,80284,1,0,0:0:0:0:
192,128,80371,1,0,0:0:0:0:
192,128,80457,1,0,0:0:0:0:
320,128,80544,1,8,0:0:0:0:
192,128,80631,1,0,0:0:0:0:
320,128,80718,1,8,0:0:0:0:
320,128,80804,1,8,0:0:0:0:
192,128,80891,1,0,0:0:0:0:
192,128,80978,1,0,0:0:0:0:
320,128,81064,1,8,0:0:0:0:
192,128,81151,1,0,0:0:0:0:
320,128,81238,1,8,0:0:0:0:
192,128,81324,1,0,0:0:0:0:
192,128,81411,1,0,0:0:0:0:
192,128,81498,1,0,0:0:0:0:
320,128,81585,1,8,0:0:0:0:
192,128,81671,1,0,0:0:0:0:
192,128,81758,1,0,0:0:0:0:
192,128,81845,1,0,0:0:0:0:
320,128,81931,1,8,0:0:0:0:
192,128,82018,1,0,0:0:0:0:
320,128,82105,1,8,0:0:0:0:
192,128,82192,1,0,0:0:0:0:
320,128,82278,1,8,0:0:0:0:
192,128,82365,1,0,0:0:0:0:
192,128,82452,1,0,0:0:0:0:
192,128,82538,1,0,0:0:0:0:
320,128,82625,1,8,0:0:0:0:
192,128,82712,1,0,0:0:0:0:
320,128,82798,1,8,0:0:0:0:
192,128,82885,1,0,0:0:0:0:
320,128,82972,1,8,0:0:0:0:
192,128,83059,1,0,0:0:0:0:
320,128,83145,1,8,0:0:0:0:
192,128,83232,1,0,0:0:0:0:
320,128,83319,1,8,0:0:0:0:
192,128,83405,1,0,0:0:0:0:
320,128,83492,1,8,0:0:0:0:
320,128,83579,1,8,0:0:0:0:
192,128,83666,1,0,0:0:0:0:
192,128,83752,1,0,0:0:0:0:
192,128,83839,1,0,0:0:0:0:
192,128,83926,1,0,0:0:0:0:
320,256,84012,1,14,0:0:0:0:
192,128,84186,1,0,0:0:0:0:
192,128,84272,1,0,0:0:0:0:
320,128,84359,1,8,0:0:0:0:
192,128,84446,1,0,0:0:0:0:
192,128,84533,1,0,0:0:0:0:
192,128,84619,1,0,0:0:0:0:
320,128,84706,1,8,0:0:0:0:
320,128,84793,1,8,0:0:0:0:
192,128,84879,1,0,0:0:0:0:
192,128,84966,1,0,0:0:0:0:
320,128,85053,1,8,0:0:0:0:
192,128,85140,1,0,0:0:0:0:
192,128,85226,1,0,0:0:0:0:
192,128,85313,1,0,0:0:0:0:
320,128,85400,1,8,0:0:0:0:
192,128,85486,1,0,0:0:0:0:
192,128,85573,1,0,0:0:0:0:
192,128,85660,1,0,0:0:0:0:
320,128,85746,1,8,0:0:0:0:
192,128,85833,1,0,0:0:0:0:
320,128,85920,1,8,0:0:0:0:
192,128,86007,1,0,0:0:0:0:
320,128,86093,1,8,0:0:0:0:
192,128,86180,1,0,0:0:0:0:
192,128,86267,1,0,0:0:0:0:
192,128,86353,1,0,0:0:0:0:
320,128,86440,1,8,0:0:0:0:
192,128,86527,1,0,0:0:0:0:
192,128,86613,1,0,0:0:0:0:
192,128,86700,1,0,0:0:0:0:
320,128,86787,1,8,0:0:0:0:
320,128,86874,1,8,0:0:0:0:
192,128,86960,1,0,0:0:0:0:
192,128,87047,1,0,0:0:0:0:
320,128,87134,1,8,0:0:0:0:
320,128,87220,1,8,0:0:0:0:
192,128,87307,1,0,0:0:0:0:
192,128,87394,1,0,0:0:0:0:
192,128,87481,1,0,0:0:0:0:
192,128,87567,1,0,0:0:0:0:
192,128,87654,1,0,0:0:0:0:
192,128,87741,1,0,0:0:0:0:
320,128,87827,1,8,0:0:0:0:
320,128,87914,1,8,0:0:0:0:
192,128,88001,1,0,0:0:0:0:
192,128,88087,1,0,0:0:0:0:
320,128,88174,1,8,0:0:0:0:
320,128,88261,1,8,0:0:0:0:
192,128,88348,1,0,0:0:0:0:
192,128,88434,1,0,0:0:0:0:
320,128,88521,1,8,0:0:0:0:
192,128,88608,1,0,0:0:0:0:
192,128,88694,1,0,0:0:0:0:
192,128,88781,1,0,0:0:0:0:
320,128,88868,1,8,0:0:0:0:
192,128,88955,1,0,0:0:0:0:
320,128,89041,1,8,0:0:0:0:
192,128,89128,1,0,0:0:0:0:
320,128,89215,1,8,0:0:0:0:
192,128,89301,1,0,0:0:0:0:
320,128,89388,1,8,0:0:0:0:
192,128,89475,1,0,0:0:0:0:
320,128,89561,1,8,0:0:0:0:
192,128,89648,1,0,0:0:0:0:
192,128,89735,1,0,0:0:0:0:
192,128,89822,1,0,0:0:0:0:
320,128,89908,1,8,0:0:0:0:
192,128,89995,1,0,0:0:0:0:
192,128,90082,1,0,0:0:0:0:
192,128,90168,1,0,0:0:0:0:
320,128,90255,1,8,0:0:0:0:
320,128,90342,1,8,0:0:0:0:
192,128,90429,1,0,0:0:0:0:
192,128,90515,1,0,0:0:0:0:
320,128,90602,1,8,0:0:0:0:
320,128,90689,1,8,0:0:0:0:
192,128,90775,1,0,0:0:0:0:
192,128,90862,1,0,0:0:0:0:
320,128,90949,1,8,0:0:0:0:
320,128,91035,1,8,0:0:0:0:
192,128,91122,1,0,0:0:0:0:
192,128,91209,1,0,0:0:0:0:
320,128,91296,1,8,0:0:0:0:
192,128,91382,1,0,0:0:0:0:
320,128,91469,1,8,0:0:0:0:
192,128,91556,1,0,0:0:0:0:
320,128,91642,1,8,0:0:0:0:
192,128,91729,1,0,0:0:0:0:
192,128,91816,1,0,0:0:0:0:
192,128,91903,1,0,0:0:0:0:
320,128,91989,1,8,0:0:0:0:
192,128,92076,1,0,0:0:0:0:
192,128,92163,1,0,0:0:0:0:
192,128,92249,1,0,0:0:0:0:
320,128,92336,1,8,0:0:0:0:
320,128,92423,1,8,0:0:0:0:
192,128,92509,1,0,0:0:0:0:
192,128,92596,1,0,0:0:0:0:
320,128,92683,1,8,0:0:0:0:
320,128,92770,1,8,0:0:0:0:
192,128,92856,1,0,0:0:0:0:
192,128,92943,1,0,0:0:0:0:
320,128,93030,1,8,0:0:0:0:
192,128,93116,1,0,0:0:0:0:
192,128,93203,1,0,0:0:0:0:
192,128,93290,1,0,0:0:0:0:
320,128,93376,1,8,0:0:0:0:
192,128,93463,1,0,0:0:0:0:
192,128,93550,1,0,0:0:0:0:
192,128,93637,1,0,0:0:0:0:
320,128,93723,1,8,0:0:0:0:
320,128,93810,1,8,0:0:0:0:
192,128,93897,1,0,0:0:0:0:
192,128,93983,1,0,0:0:0:0:
320,128,94070,1,8,0:0:0:0:
192,128,94157,1,0,0:0:0:0:
192,128,94244,1,0,0:0:0:0:
192,128,94330,1,0,0:0:0:0:
320,128,94417,1,8,0:0:0:0:
192,128,94504,1,0,0:0:0:0:
192,128,94590,1,0,0:0:0:0:
192,128,94677,1,0,0:0:0:0:
320,128,94764,1,8,0:0:0:0:
320,128,94850,1,8,0:0:0:0:
192,128,94937,1,0,0:0:0:0:
192,128,95024,1,0,0:0:0:0:
320,128,95111,1,8,0:0:0:0:
192,128,95197,1,0,0:0:0:0:
192,128,95284,1,0,0:0:0:0:
192,128,95371,1,0,0:0:0:0:
320,128,95457,1,8,0:0:0:0:
192,128,95544,1,0,0:0:0:0:
192,128,95631,1,0,0:0:0:0:
192,128,95718,1,0,0:0:0:0:
320,128,95804,1,8,0:0:0:0:
192,128,95891,1,0,0:0:0:0:
192,128,95978,1,0,0:0:0:0:
192,128,96064,1,0,0:0:0:0:
320,128,96151,1,8,0:0:0:0:
192,128,96238,1,0,0:0:0:0:
192,128,96324,1,0,0:0:0:0:
192,128,96411,1,0,0:0:0:0:
320,128,96498,1,8,0:0:0:0:
192,128,96585,1,0,0:0:0:0:
320,128,96671,1,8,0:0:0:0:
192,128,96758,1,0,0:0:0:0:
320,128,96845,1,8,0:0:0:0:
192,128,96931,1,0,0:0:0:0:
320,128,97018,1,8,0:0:0:0:
192,128,97105,1,0,0:0:0:0:
320,128,97192,1,8,0:0:0:0:
192,128,97278,1,0,0:0:0:0:
320,128,97365,1,8,0:0:0:0:
192,128,97452,1,0,0:0:0:0:
320,128,97538,1,8,0:0:0:0:
192,128,97625,1,0,0:0:0:0:
320,128,97712,1,8,0:0:0:0:
192,128,97798,1,0,0:0:0:0:
320,128,97885,1,8,0:0:0:0:
320,128,97972,1,8,0:0:0:0:
192,128,98059,1,0,0:0:0:0:
192,128,98145,1,0,0:0:0:0:
320,128,98232,1,8,0:0:0:0:
320,128,98319,1,8,0:0:0:0:
192,128,98405,1,0,0:0:0:0:
192,128,98492,1,0,0:0:0:0:
320,128,98579,1,8,0:0:0:0:
320,128,98666,1,8,0:0:0:0:
192,128,98752,1,0,0:0:0:0:
192,128,98839,1,0,0:0:0:0:
320,128,98926,1,8,0:0:0:0:
192,128,99012,1,0,0:0:0:0:
320,128,99099,1,8,0:0:0:0:
192,128,99186,1,0,0:0:0:0:
320,128,99272,1,8,0:0:0:0:
320,128,99359,1,8,0:0:0:0:
192,128,99446,1,0,0:0:0:0:
192,128,99533,1,0,0:0:0:0:
320,128,99619,1,8,0:0:0:0:
192,128,99706,1,0,0:0:0:0:
192,128,99793,1,0,0:0:0:0:
192,128,99879,1,0,0:0:0:0:
320,128,99966,1,8,0:0:0:0:
192,128,100053,1,0,0:0:0:0:
320,128,100140,1,8,0:0:0:0:
192,128,100226,1,0,0:0:0:0:
320,128,100313,1,8,0:0:0:0:
192,128,100400,1,0,0:0:0:0:
192,128,100486,1,0,0:0:0:0:
192,128,100573,1,0,0:0:0:0:
320,128,100660,1,8,0:0:0:0:
192,128,100746,1,0,0:0:0:0:
320,128,100833,1,8,0:0:0:0:
192,128,100920,1,0,0:0:0:0:
320,128,101007,1,8,0:0:0:0:
192,128,101093,1,0,0:0:0:0:
320,128,101180,1,8,0:0:0:0:
192,128,101267,1,0,0:0:0:0:
320,128,101353,1,8,0:0:0:0:
192,128,101440,1,0,0:0:0:0:
320,128,101527,1,8,0:0:0:0:
192,128,101613,1,0,0:0:0:0:
320,128,101700,1,8,0:0:0:0:
320,128,101787,1,8,0:0:0:0:
192,128,101874,1,0,0:0:0:0:
192,128,101960,1,0,0:0:0:0:
320,128,102047,1,8,0:0:0:0:
192,128,102134,1,0,0:0:0:0:
320,128,102220,1,8,0:0:0:0:
192,128,102307,1,0,0:0:0:0:
320,128,102394,1,8,0:0:0:0:
192,128,102481,1,0,0:0:0:0:
320,128,102567,1,8,0:0:0:0:
192,128,102654,1,0,0:0:0:0:
320,128,102741,1,8,0:0:0:0:
192,128,102827,1,0,0:0:0:0:
320,128,102914,1,8,0:0:0:0:
192,128,103001,1,0,0:0:0:0:
320,128,103087,1,8,0:0:0:0:
320,128,103174,1,8,0:0:0:0:
192,128,103261,1,0,0:0:0:0:
192,128,103348,1,0,0:0:0:0:
320,128,103434,1,8,0:0:0:0:
192,128,103521,1,0,0:0:0:0:
320,128,103608,1,8,0:0:0:0:
192,128,103694,1,0,0:0:0:0:
320,128,103781,1,8,0:0:0:0:
192,128,103868,1,0,0:0:0:0:
320,128,103955,1,8,0:0:0:0:
320,128,104041,1,8,0:0:0:0:
192,128,104128,1,0,0:0:0:0:
192,128,104215,1,0,0:0:0:0:
320,128,104301,1,8,0:0:0:0:
192,128,104388,1,0,0:0:0:0:
320,128,104475,1,8,0:0:0:0:
192,128,104561,1,0,0:0:0:0:
320,128,104648,1,8,0:0:0:0:
192,128,104735,1,0,0:0:0:0:
320,128,104822,1,8,0:0:0:0:
320,128,104908,1,8,0:0:0:0:
192,128,104995,1,0,0:0:0:0:
192,128,105082,1,0,0:0:0:0:
320,128,105168,1,8,0:0:0:0:
320,128,105255,1,8,0:0:0:0:
192,128,105342,1,0,0:0:0:0:
192,128,105429,1,0,0:0:0:0:
320,128,105515,1,8,0:0:0:0:
192,128,105573,1,0,0:0:0:0:
192,128,105631,1,0,0:0:0:0:
192,128,105689,1,0,0:0:0:0:
192,128,105746,1,0,0:0:0:0:
192,128,105804,1,0,0:0:0:0:
320,128,105862,1,8,0:0:0:0:
320,128,105949,1,8,0:0:0:0:
320,128,106035,1,8,0:0:0:0:
192,256,106209,1,4,0:0:0:0:
