osu file format v14

[General]
AudioFilename: Brain Power.mp3
AudioLeadIn: 0
PreviewTime: 71070
Countdown: 0
SampleSet: Soft
StackLeniency: 0.3
Mode: 0
LetterboxInBreaks: 0
EpilepsyWarning: 1
WidescreenStoryboard: 1

[Editor]
Bookmarks: 72811,78360,83909,89458,95007,100556
DistanceSpacing: 1
BeatDivisor: 4
GridSize: 4
TimelineZoom: 2.4

[Metadata]
Title:Brain Power
TitleUnicode:Brain Power
Artist:NOMA
ArtistUnicode:ノマ
Creator:Jacob
Version:Yauxo's BASIC
Source:SOUND VOLTEX II -infinite infection-
Tags:Yauxo Anxient Exote SnowNiNo_ Len Cryptic sdvx O-oooooooooo AAAAE-A-A-I-A-U- JO-oooooooooooo AAE-O-A-A-U-U-A- E-eee-ee-eee AAAAE-A-E-I-E-A- JO-ooo-oo-oo-oo EEEEO-A-AAA-AAAA
BeatmapID:866940
BeatmapSetID:357777

[Difficulty]
HPDrainRate:3
CircleSize:3
OverallDifficulty:3
ApproachRate:5
SliderMultiplier:1.05
SliderTickRate:1

[Events]
//Background and Video events
0,0,"Brain Power.png",0,0
//Break Periods
//Storyboard Layer 0 (Background)
//Storyboard Layer 1 (Fail)
//Storyboard Layer 2 (Pass)
//Storyboard Layer 3 (Foreground)
//Storyboard Sound Samples

[TimingPoints]
888,352.941176470588,4,2,0,40,1,0
58770,352.733686067019,4,2,0,40,1,0
60180,352.526439482961,4,2,0,40,1,0
61590,352.319436288902,4,2,0,40,1,0
62999,352.071353127567,4,2,0,40,1,0
64407,351.802990325418,4,2,0,40,1,0
65814,351.493848857645,4,2,0,40,1,0
67219,350.877192982456,4,2,0,40,1,0
68622,350.262697022767,4,2,0,50,1,0
70023,349.243306169965,4,2,0,50,1,0
71419,348.027842227378,4,2,0,60,1,0
72811,346.820809248555,4,3,0,70,1,1
106105,-100,4,3,0,70,0,0
108880,-100,4,2,1,5,0,0

[Colours]
Combo1 : 245,137,237
Combo2 : 47,16,103
Combo3 : 145,37,233
Combo4 : 226,4,251

[HitObjects]
136,148,1946,5,2,0:0:0:0:
136,148,2299,6,0,B|156:180|156:220|136:249|136:249|120:280|120:316|136:349,1,210,4|0,0:1|0:0,0:0:0:0:
229,298,3358,1,8,0:0:0:0:
321,348,3711,2,0,P|334:297|321:247,1,105,0|8,0:0|0:0,0:0:0:0:
256,164,4417,2,0,P|242:113|255:63,1,105,0|8,0:0|0:0,0:0:0:0:
348,112,5123,6,0,L|452:124,2,105,0|8|0,0:0|0:0|0:0,0:0:0:0:
256,164,6182,1,8,0:0:0:0:
164,112,6535,2,0,L|60:124,2,105,4|4|4,0:3|0:3|0:3,0:0:0:0:
256,60,7593,1,4,3:0:0:0:
348,112,7946,6,0,B|368:188|348:244|348:244|364:204|396:188,1,210,4|0,0:0|0:0,0:0:0:0:
448,280,9005,1,8,0:0:0:0:
368,348,9358,2,0,P|315:344|271:317,1,105,0|8,0:0|0:0,0:0:0:0:
172,279,10064,2,0,P|200:236|246:211,1,105,0|8,0:0|0:0,0:0:0:0:
227,108,10770,6,0,P|323:138|348:236,2,210,0|0|4,0:0|0:0|0:3,0:0:0:0:
132,152,12535,1,4,0:3:0:0:
36,109,12887,2,0,B|56:58|56:58|88:35,2,78.75,4|0|4,0:3|0:0|0:0,0:0:0:0:
20,160,13593,6,0,B|-1:234|33:311|33:311|41:257,1,210,4|0,0:1|0:0,0:0:0:0:
124,192,14652,1,8,0:0:0:0:
208,257,15005,2,0,L|312:269,1,105,0|8,0:0|0:0,0:0:0:0:
404,320,15711,2,0,P|417:269|404:219,1,105,0|8,0:0|0:0,0:0:0:0:
339,136,16417,6,0,P|325:85|338:35,2,105,0|8|0,0:0|0:0|0:0,0:0:0:0:
404,219,17476,1,8,0:0:0:0:
339,304,17829,2,0,B|307:324|267:324|238:304|238:304|207:288|171:288|138:304,1,210,0|0,0:0|0:0,0:0:0:0:
60,236,18887,1,8,0:0:0:0:
136,164,19240,6,0,B|160:124|136:64|136:64|184:84|240:76|240:76|272:96|272:96|300:80|340:76,1,315,4|0,0:0|3:3,0:0:0:0:
432,32,20652,2,0,B|452:88|436:144|392:180|332:180|332:180|356:220|356:220|352:252|352:252|364:288,1,315,4|0,0:0|3:0,0:0:0:0:
412,368,22064,6,0,P|361:382|311:369,1,105,4|4,0:0|0:0,0:0:0:0:
232,300,22770,1,4,0:0:0:0:
136,340,23123,1,4,3:0:0:0:
56,270,23476,6,0,B|76:194|56:138|56:138|72:178|104:194,1,210,4|0,0:0|0:0,0:0:0:0:
200,152,24535,1,4,0:0:0:0:
296,194,24887,6,0,P|347:207|397:194,2,105,4|8|0,0:1|0:0|0:0,0:0:0:0:
200,152,25946,1,8,0:0:0:0:
104,194,26299,2,0,L|92:298,1,105,0|8,0:0|0:0,0:0:0:0:
176,360,27005,2,0,L|188:256,1,105,0|8,0:0|0:0,0:0:0:0:
200,152,27711,6,0,P|248:171|281:211,2,105,0|8|0,0:0|0:0|0:0,0:0:0:0:
116,88,28770,1,8,0:0:0:0:
200,24,29123,2,0,B|272:32|272:32|312:24,1,105,0|8,0:0|0:0,0:0:0:0:
400,64,29829,2,0,B|383:90|383:90|325:136,1,105,0|8,0:0|0:0,0:0:0:0:
270,227,30535,6,0,P|233:190|220:140,2,105,0|8|0,0:0|0:0|0:0,0:0:0:0:
364,276,31593,1,8,0:0:0:0:
458,228,31946,2,0,P|494:190|508:140,2,105,0|8|0,0:0|0:0|0:0,0:0:0:0:
364,176,33005,1,8,0:0:0:0:
271,125,33358,6,0,B|255:158|255:194|271:225|271:225|291:254|291:294|271:326,2,210,0|0|4,0:0|0:0|0:3,0:0:0:0:
68,64,35476,2,0,L|56:168,1,105,4|4,0:0|0:0,0:0:0:0:
44,272,36182,5,0,0:0:0:0:
132,328,36535,1,8,0:0:0:0:
220,272,36887,2,0,L|292:280,2,52.5,4|4|8,0:3|0:3|0:0,0:0:0:0:
132,216,37593,1,0,0:0:0:0:
192,128,37946,1,8,0:0:0:0:
104,72,38299,2,0,L|31:80,2,52.5,4|4|8,0:3|0:3|0:0,0:0:0:0:
196,12,39005,6,0,B|256:20|300:56|308:124|308:124|332:68,1,210,0|4,0:0|0:3,0:0:0:0:
412,48,40064,1,8,0:0:0:0:
468,136,40417,2,0,L|476:208,2,52.5,0|0|8,0:0|0:0|0:0,0:0:0:0:
376,188,41123,2,0,L|367:260,2,52.5,0|0|8,0:0|0:0|0:0,0:0:0:0:
283,135,41829,6,0,P|232:121|182:134,1,105,0|8,0:0|0:0,0:0:0:0:
96,196,42535,2,0,L|24:187,2,52.5,4|4|8,0:3|0:3|0:0,0:0:0:0:
184,256,43240,1,0,0:0:0:0:
272,196,43593,1,8,0:0:0:0:
360,256,43946,2,0,L|432:265,2,52.5,4|4|8,0:3|0:3|0:0,0:0:0:0:
272,312,44652,6,0,B|196:344|120:312|120:312|140:344|140:376,2,210,0|2|0,0:0|0:3|0:0,0:0:0:0:
212,224,46417,1,8,0:0:0:0:
272,140,46770,2,0,L|260:36,1,105,4|4,0:3|0:3,0:0:0:0:
168,88,47476,6,0,B|155:192|155:192|167:300,1,210,4|8,0:1|0:0,0:0:0:0:
256,352,48535,1,0,0:0:0:0:
344,296,48887,2,0,B|355:191|355:191|343:87,1,210,4|8,0:3|0:0,0:0:0:0:
256,32,49946,1,0,0:0:0:0:
168,88,50299,6,0,L|64:76,2,105,4|0|8,0:3|0:0|0:0,0:0:0:0:
256,148,51358,1,0,0:0:0:0:
344,88,51711,2,0,L|448:76,1,105,4|0,0:3|0:0,0:0:0:0:
510,160,52417,2,0,L|406:172,1,105,8|0,0:0|0:0,0:0:0:0:
384,276,53123,6,0,B|348:267|320:243|307:211|307:211|298:177|267:152|230:146,1,210,4|8,0:3|0:0,0:0:0:0:
128,116,54182,1,0,0:0:0:0:
28,148,54535,2,0,B|53:203|107:233|170:207|170:207|147:255,1,210,4|8,0:3|0:0,0:0:0:0:
208,336,55593,1,0,0:0:0:0:
296,280,55946,6,0,B|327:273|327:273|399:281,2,105,4|0|8,0:3|0:0|0:0,0:0:0:0:
152,124,57358,2,0,B|120:130|120:130|48:122,2,105,0|0|0,0:0|0:0|0:0,0:0:0:0:
256,100,58417,1,0,0:0:0:0:
360,76,58770,6,0,L|372:180,1,105,0|4,0:0|0:0,0:0:0:0:
380,284,59475,2,0,L|276:256,1,105,0|4,0:0|0:0,0:0:0:0:
180,224,60180,2,0,L|78:251,2,105,0|4|0,0:0|0:0|0:0,0:0:0:0:
268,168,61237,1,4,0:0:0:0:
356,224,61590,6,0,L|457:196,1,105,0|4,0:0|0:0,0:0:0:0:
472,92,62294,2,0,L|370:119,1,105,0|4,0:0|0:0,0:0:0:0:
276,72,62999,1,0,0:0:0:0:
184,120,63351,1,4,0:0:0:0:
92,72,63703,2,0,P|79:122|92:172,1,105,0|4,0:0|0:0,0:0:0:0:
144,264,64407,6,0,L|248:276,1,105,0|4,0:0|0:0,0:0:0:0:
352,284,65110,2,0,L|324:180,1,105,0|4,0:0|0:0,0:0:0:0:
304,80,65814,2,0,L|202:107,2,105,0|4|0,0:0|0:0|0:0,0:0:0:0:
396,28,66868,1,4,0:0:0:0:
488,80,67219,6,0,B|469:112|439:132|402:134|402:134|430:154|452:191|447:230|442:255|408:284|362:299|312:279|292:240|300:192|332:172,1,420,0|0,0:0|0:0,0:0:0:0:
304,80,68972,2,0,P|252:104|220:156,2,105,0|0|0,0:0|0:0|0:0,0:0:0:0:
396,132,70023,1,4,0:3:0:0:
488,80,70372,1,4,0:3:0:0:
396,28,70721,2,0,L|324:12,2,52.5,0|0|0,3:0|0:0|3:0,0:0:0:0:
396,132,71419,6,0,B|376:208|396:264|396:264|380:224|348:208,1,210,4|0,0:0|0:0,0:0:0:0:
252,160,72463,1,4,0:0:0:0:
156,208,72811,6,0,B|124:214|124:214|52:206,1,105,4|0,0:1|0:0,0:0:0:0:
0,108,73504,2,0,B|32:102|32:102|104:110,1,105,4|0,0:0|0:0,0:0:0:0:
177,28,74198,2,0,P|211:123|156:207,1,210,4|0,0:0|0:0,0:0:0:0:
88,288,75238,1,0,0:0:0:0:
172,348,75585,6,0,B|204:354|204:354|276:346,1,105,4|0,0:0|0:0,0:0:0:0:
372,384,76279,2,0,L|384:280,1,105,4|0,0:0|0:0,0:0:0:0:
348,180,76972,2,0,L|356:108,2,52.5,4|2|0,0:0|0:2|0:0,0:0:0:0:
280,260,77666,2,0,L|288:332,2,52.5,0|2|0,0:0|0:2|0:0,0:0:0:0:
248,160,78360,6,0,B|216:154|216:154|144:162,1,105,4|0,0:0|0:0,0:0:0:0:
52,112,79053,2,0,P|39:162|52:212,1,105,4|0,0:0|0:0,0:0:0:0:
4,304,79747,2,0,B|37:320|74:319|104:303|104:303|133:283|173:284|205:303,1,210,4|0,0:0|0:0,0:0:0:0:
300,344,80787,1,0,0:0:0:0:
396,304,81134,6,0,L|408:200,1,105,4|0,0:0|0:0,0:0:0:0:
444,100,81828,2,0,L|340:112,1,105,4|0,0:0|0:0,0:0:0:0:
236,120,82521,1,4,0:0:0:0:
188,216,82868,1,0,0:0:0:0:
284,260,83215,1,0,0:0:0:0:
332,356,83562,1,0,0:0:0:0:
228,376,83909,6,0,L|124:364,1,105,4|0,0:1|0:0,0:0:0:0:
18,361,84602,2,0,B|26:329|26:329|66:268,1,105,4|0,0:0|0:0,0:0:0:0:
124,182,85296,1,4,0:0:0:0:
68,94,85643,2,0,L|60:22,2,52.5,0|4|0,0:0|0:2|0:0,0:0:0:0:
12,182,86337,1,0,0:0:0:0:
65,268,86683,6,0,B|97:274|97:274|169:266,1,105,4|0,0:0|0:0,0:0:0:0:
260,212,87377,2,0,B|292:206|292:206|364:214,1,105,4|0,0:0|0:0,0:0:0:0:
448,280,88071,2,0,L|456:352,2,52.5,4|4|0,0:0|0:2|0:0,0:0:0:0:
476,180,88764,1,0,0:0:0:0:
396,108,89111,1,0,0:0:0:0:
300,148,89458,6,0,L|196:136,1,105,4|0,0:0|0:0,0:0:0:0:
104,88,90152,2,0,P|90:138|104:188,1,105,4|0,0:0|0:0,0:0:0:0:
168,272,90845,1,4,0:0:0:0:
104,356,91192,2,0,L|32:348,2,52.5,0|4|0,0:0|0:2|0:0,0:0:0:0:
208,380,91886,1,0,0:0:0:0:
308,356,92232,6,0,B|314:324|314:324|306:252,1,105,4|0,0:0|0:0,0:0:0:0:
224,188,92926,2,0,B|248:166|248:166|315:137,1,105,4|0,0:0|0:0,0:0:0:0:
348,36,93620,2,0,B|404:60|436:112|412:176|412:176|445:159,1,210,4|0,0:0|0:0,0:0:0:0:
508,244,94660,1,0,0:0:0:0:
444,324,95007,6,0,L|340:312,1,105,4|0,0:1|0:0,0:0:0:0:
236,312,95701,2,0,P|248:261|286:225,1,105,4|0,0:0|0:0,0:0:0:0:
384,184,96394,1,4,0:0:0:0:
336,92,96741,2,0,L|344:20,2,52.5,0|4|0,0:0|0:2|0:0,0:0:0:0:
240,132,97435,1,0,0:0:0:0:
144,92,97782,6,0,B|138:124|138:124|146:196,1,105,4|0,0:0|0:0,0:0:0:0:
64,264,98475,2,0,B|88:286|88:286|155:315,1,105,4|0,0:0|0:0,0:0:0:0:
240,252,99169,2,0,L|312:244,2,52.5,4|4|0,0:0|0:2|0:0,0:0:0:0:
156,184,99863,2,0,L|84:176,2,52.5,0|4|0,0:0|0:2|0:0,0:0:0:0:
240,120,100556,6,0,L|344:108,1,105,4|0,0:0|0:0,0:0:0:0:
440,60,101250,2,0,P|453:109|439:159,1,105,4|0,0:0|0:0,0:0:0:0:
388,252,101943,1,4,0:0:0:0:
288,224,102290,1,0,0:0:0:0:
208,292,102637,1,0,0:0:0:0:
108,264,102984,1,0,0:0:0:0:
8,236,103331,6,0,P|8:292|40:344,1,105,4|4,0:3|0:3,0:0:0:0:
108,264,104024,2,0,P|124:208|120:160,1,105,4|4,0:3|0:3,0:0:0:0:
168,68,104718,2,0,B|92:48|36:68|36:68|76:52|92:20,2,210,4|4|0,0:3|0:3|0:0,0:0:0:0:
256,192,106192,12,0,108880,0:0:0:0:
