osu file format v14

[General]
AudioFilename: Brain Power.mp3
AudioLeadIn: 0
PreviewTime: 71070
Countdown: 0
SampleSet: Soft
StackLeniency: 0.4
Mode: 0
LetterboxInBreaks: 0
EpilepsyWarning: 1
WidescreenStoryboard: 1

[Editor]
Bookmarks: 887,24887,47476
DistanceSpacing: 0.8
BeatDivisor: 4
GridSize: 32
TimelineZoom: 2.4

[Metadata]
Title:Brain Power
TitleUnicode:Brain Power
Artist:NOMA
ArtistUnicode:ノマ
Creator:Jacob
Version:Len's INFINITE
Source:SOUND VOLTEX II -infinite infection-
Tags:Yauxo Anxient Exote SnowNiNo_ Len Cryptic sdvx O-oooooooooo AAAAE-A-A-I-A-U- JO-oooooooooooo AAE-O-A-A-U-U-A- E-eee-ee-eee AAAAE-A-E-I-E-A- JO-ooo-oo-oo-oo EEEEO-A-AAA-AAAA
BeatmapID:855456
BeatmapSetID:357777

[Difficulty]
HPDrainRate:5
CircleSize:4
OverallDifficulty:8.8
ApproachRate:9.2
SliderMultiplier:2.04
SliderTickRate:1

[Events]
//Background and Video events
0,0,"Brain Power.png",0,0
//Break Periods
//Storyboard Layer 0 (Background)
//Storyboard Layer 1 (Fail)
//Storyboard Layer 2 (Pass)
//Storyboard Layer 3 (Foreground)
//Storyboard Sound Samples

[TimingPoints]
888,352.941176470588,4,2,0,40,1,0
2299,-100,4,2,0,60,0,0
2652,-100,4,2,0,40,0,0
6535,-200,4,2,0,40,0,0
7946,-200,4,2,0,60,0,0
8299,-200,4,2,0,40,0,0
13005,-100,4,2,0,40,0,0
13240,-200,4,2,0,40,0,0
13593,-100,4,2,0,60,0,0
13946,-100,4,2,0,40,0,0
14652,-133.333333333333,4,2,0,40,0,0
20299,-111.111111111111,4,2,0,40,0,0
22064,-111.111111111111,4,2,0,45,0,0
22770,-111.111111111111,4,2,0,50,0,0
23476,-111.111111111111,4,2,0,60,0,0
23652,-111.111111111111,4,2,0,25,0,0
23740,-111.111111111111,4,2,0,60,0,0
23917,-111.111111111111,4,2,0,25,0,0
24005,-111.111111111111,4,2,0,60,0,0
24182,-111.111111111111,4,2,0,25,0,0
24270,-111.111111111111,4,2,0,60,0,0
24446,-111.111111111111,4,2,0,25,0,0
24535,-100,4,2,0,60,0,0
24623,-100,4,2,0,25,0,0
24711,-100,4,2,0,60,0,0
24799,-100,4,2,0,25,0,0
24887,-100,4,2,0,60,0,0
25064,-100,4,2,0,40,0,0
35476,-100,4,2,0,60,0,0
36182,-100,4,2,0,40,0,0
50299,-133.333333333333,4,2,0,40,0,0
51005,-100,4,2,0,40,0,0
53123,-133.333333333333,4,2,0,40,0,0
53829,-100,4,2,0,40,0,0
56652,-200,4,2,0,40,0,0
57358,-100,4,2,0,40,0,0
58770,352.733686067019,4,2,0,40,1,0
59122,-100,4,2,0,60,0,0
59299,-100,4,2,0,40,0,0
59828,-100,4,2,0,60,0,0
60004,-100,4,2,0,40,0,0
60180,352.526439482961,4,2,0,40,1,0
60532,-100,4,2,0,60,0,0
60708,-100,4,2,0,40,0,0
61237,-100,4,2,0,60,0,0
61413,-100,4,2,0,40,0,0
61590,352.319436288902,4,2,0,40,1,0
61942,-100,4,2,0,60,0,0
62118,-100,4,2,0,40,0,0
62646,-100,4,2,0,60,0,0
62823,-100,4,2,0,40,0,0
62999,352.071353127567,4,2,0,40,1,0
63351,-100,4,2,0,60,0,0
63527,-100,4,2,0,40,0,0
64055,-100,4,2,0,60,0,0
64231,-100,4,2,0,40,0,0
64407,351.802990325418,4,2,0,40,1,0
64758,-100,4,2,0,60,0,0
64934,-100,4,2,0,40,0,0
65462,-100,4,2,0,60,0,0
65638,-100,4,2,0,40,0,0
65814,351.493848857645,4,2,0,40,1,0
66165,-100,4,2,0,60,0,0
66341,-100,4,2,0,40,0,0
66868,-100,4,2,0,60,0,0
67044,-100,4,2,0,40,0,0
67219,350.877192982456,4,2,0,40,1,0
68622,350.262697022767,4,2,0,50,1,0
70023,349.243306169965,4,2,0,50,1,0
71419,348.027842227378,4,2,0,60,1,0
72811,346.820809248555,4,3,0,70,1,1
105412,-100,4,3,0,80,0,1
106105,-100,4,3,0,80,0,0
108880,-100,4,2,0,5,0,0

[Colours]
Combo1 : 245,137,237
Combo2 : 47,16,103
Combo3 : 145,37,233
Combo4 : 226,4,251

[HitObjects]
51,144,887,6,0,B|119:173|166:201|257:135|261:74|166:10|94:68|82:172|258:167|258:167|323:150|374:187|373:261|313:321|241:300|199:249|225:183|241:173|286:163,1,748
295,80,2299,5,4,3:0:0:0:
155,250,2652,1,8,0:1:0:0:
397,168,3005,1,0,0:0:0:0:
135,127,3358,1,8,0:1:0:0:
359,247,3711,1,0,0:0:0:0:
126,265,4064,1,8,0:1:0:0:
363,154,4417,1,0,0:0:0:0:
99,89,4770,1,8,0:1:0:0:
173,345,5123,5,0,0:0:0:0:
411,272,5476,1,8,0:1:0:0:
122,266,5829,1,0,0:0:0:0:
414,152,6182,1,8,0:1:0:0:
152,86,6535,6,0,L|160:11,2,51,0|0|8,0:0|0:0|0:1,0:0:0:0:
143,172,7064,1,0,0:0:0:0:
255,119,7240,1,0,3:0:0:0:
273,114,7328,1,0,3:0:0:0:
292,113,7416,1,0,3:0:0:0:
311,116,7504,1,0,3:0:0:0:
328,123,7593,1,8,3:1:0:0:
421,211,7770,1,0,0:0:0:0:
425,230,7858,1,0,0:0:0:0:
429,250,7946,6,0,L|445:142,1,102,4|8,3:0|0:1,0:0:0:0:
241,69,8652,2,0,L|255:170,1,102,0|8,0:0|0:1,0:0:0:0:
99,354,9358,5,0,0:0:0:0:
26,310,9535,1,0,0:0:0:0:
100,268,9711,2,0,L|202:288,1,102,8|0,0:1|0:0,0:0:0:0:
472,231,10417,1,8,0:1:0:0:
374,207,10593,1,0,0:0:0:0:
331,116,10770,6,0,L|340:51,1,51,0|0,0:0|0:0,0:0:0:0:
205,29,11123,2,0,L|212:80,1,51,8|0,0:1|0:0,0:0:0:0:
340,139,11476,6,0,L|349:74,1,51,0|0,0:0|0:0,0:0:0:0:
170,59,11829,2,0,L|177:110,1,51,8|0,0:1|0:0,0:0:0:0:
281,247,12182,5,0,3:0:0:0:
279,259,12270,1,0,3:0:0:0:
277,272,12358,1,0,3:0:0:0:
275,284,12446,1,0,3:0:0:0:
274,297,12535,2,0,B|272:318|272:318|316:303|353:328,1,102,8|0,3:1|3:0,0:0:0:0:
473,267,13005,6,0,P|435:262|405:242,1,68,0|0,3:0|3:0,0:0:0:0:
439,143,13240,6,0,P|451:109|458:74,1,51,8|0,0:1|0:0,0:0:0:0:
308,28,13593,6,0,P|306:66|296:138,1,102,4|0,3:0|0:0,0:0:0:0:
202,268,13946,1,8,0:1:0:0:
168,125,14123,1,0,0:0:0:0:
290,241,14299,1,0,0:0:0:0:
121,213,14476,1,0,0:0:0:0:
267,333,14652,2,0,P|322:323|351:323,1,76.5000029182435,8|0,0:1|0:0,0:0:0:0:
138,230,15005,6,0,P|83:240|54:240,1,76.5000029182435,0|0,0:0|0:0,0:0:0:0:
217,137,15358,1,8,0:1:0:0:
273,214,15535,1,0,0:0:0:0:
234,53,15711,1,0,0:0:0:0:
371,74,15888,1,0,0:0:0:0:
371,74,16064,2,0,L|357:181,1,76.5000029182435,8|0,0:1|0:0,0:0:0:0:
406,278,16417,5,0,0:0:0:0:
460,182,16593,1,0,0:0:0:0:
349,54,16770,2,0,L|366:141,1,76.5000029182435,8|0,0:1|0:0,0:0:0:0:
318,357,17123,1,0,0:0:0:0:
273,222,17299,1,0,0:0:0:0:
171,348,17476,1,8,0:1:0:0:
49,281,17652,1,0,0:0:0:0:
204,188,17829,5,0,0:0:0:0:
252,326,18005,1,0,0:0:0:0:
64,301,18182,2,0,P|38:301|13:306,2,51.0000019454957,8|0|0,3:1|0:0|0:0,0:0:0:0:
195,210,18535,2,0,P|247:213|293:208,1,76.5000029182435,0|0,3:0|0:0,0:0:0:0:
109,76,18887,2,0,P|91:128|76:157,1,76.5000029182435,8|0,0:1|0:0,0:0:0:0:
240,11,19240,6,0,L|256:115,1,76.5000029182435,0|0,3:0|3:0,0:0:0:0:
229,301,19593,1,8,3:1:0:0:
242,270,19681,1,0,3:0:0:0:
263,244,19769,1,0,3:0:0:0:
290,224,19857,1,0,3:0:0:0:
321,212,19945,1,0,3:0:0:0:
354,207,20034,1,0,3:0:0:0:
387,212,20122,1,0,3:0:0:0:
418,224,20210,1,0,3:0:0:0:
445,244,20299,2,0,L|461:317,1,45.8999985992432,8|0,3:1|3:0,0:0:0:0:
375,142,20476,2,0,L|384:97,1,45.8999985992432,0|0,3:0|3:0,0:0:0:0:
240,11,20652,6,0,L|256:115,1,76.5000029182435,0|0,3:0|0:0,0:0:0:0:
344,290,21005,1,8,3:1:0:0:
307,307,21093,1,0,3:0:0:0:
266,306,21181,1,0,3:0:0:0:
231,285,21269,1,0,3:0:0:0:
209,251,21357,1,0,3:0:0:0:
187,216,21446,1,0,3:0:0:0:
151,195,21534,1,0,3:0:0:0:
111,193,21622,1,0,3:0:0:0:
74,212,21711,2,0,P|54:264|53:272,1,45.8999985992432,8|0,3:1|3:0,0:0:0:0:
9,97,21887,2,0,L|71:109,1,45.8999985992432,0|0,3:0|3:0,0:0:0:0:
200,65,22064,5,0,3:0:0:0:
222,61,22152,1,0,3:0:0:0:
245,58,22240,1,0,3:0:0:0:
173,170,22417,5,8,3:1:0:0:
207,163,22505,1,0,3:0:0:0:
243,159,22593,1,0,3:0:0:0:
136,292,22770,5,0,3:0:0:0:
165,274,22858,1,0,3:0:0:0:
199,270,22946,1,0,3:0:0:0:
231,280,23034,1,0,3:0:0:0:
256,304,23123,5,8,3:1:0:0:
301,337,23211,1,0,3:0:0:0:
357,335,23299,1,0,3:0:0:0:
400,299,23387,1,0,3:0:0:0:
424,223,23476,6,0,L|406:120,1,91.7999971984864,4|0,3:0|0:0,0:0:0:0:
348,39,23740,2,0,L|330:142,1,91.7999971984864,4|0,3:0|0:0,0:0:0:0:
268,284,24005,6,0,L|250:181,1,91.7999971984864,4|0,3:0|0:0,0:0:0:0:
182,16,24270,2,0,L|164:119,1,91.7999971984864,4|0,3:0|0:0,0:0:0:0:
94,280,24535,6,0,P|64:274|19:266,1,51,4|0,3:0|0:0,0:0:0:0:
163,361,24711,2,0,P|193:355|238:347,1,51,4|0,3:0|0:0,0:0:0:0:
284,267,24887,6,0,L|264:161,1,102,4|0,3:0|0:0,0:0:0:0:
406,26,25240,2,0,B|427:73|427:73|409:135,1,102,8|0,0:1|0:0,0:0:0:0:
201,220,25593,2,0,B|180:173|180:173|198:111,1,102,0|0,0:0|0:0,0:0:0:0:
340,81,25946,1,8,0:1:0:0:
312,233,26123,1,0,0:0:0:0:
493,164,26299,6,0,P|437:168|374:152,1,102,0|0,0:0|0:0,0:0:0:0:
155,81,26652,2,0,P|211:85|274:69,1,102,8|0,0:1|0:0,0:0:0:0:
341,296,27005,2,0,P|307:237|302:180,1,102,0|0,0:0|0:0,0:0:0:0:
102,199,27358,2,0,P|153:203|201:221,1,102,8|0,0:1|0:0,0:0:0:0:
318,373,27711,6,0,P|374:370|386:233,1,204,0|8,0:0|0:1,0:0:0:0:
224,135,28240,1,0,0:0:0:0:
225,334,28416,1,0,0:0:0:0:
153,234,28593,1,0,0:0:0:0:
341,173,28770,1,8,0:1:0:0:
341,296,28946,1,0,0:0:0:0:
234,151,29123,6,0,L|251:43,1,102,0|0,0:0|3:0,0:0:0:0:
233,25,29387,1,0,3:0:0:0:
233,25,29476,1,8,3:1:0:0:
121,119,29652,2,0,P|91:117|66:97,2,51,0|0|0,3:0|3:0|3:0,0:0:0:0:
286,221,30005,2,0,L|351:203,2,51,0|0|8,3:0|3:0|3:1,0:0:0:0:
132,261,30358,1,0,3:0:0:0:
132,261,30446,1,0,3:0:0:0:
132,261,30535,6,0,B|241:239|212:331|331:297,1,204,0|8,3:0|0:1,0:0:0:0:
165,344,31064,1,0,0:0:0:0:
286,221,31240,2,0,P|288:163|276:118,1,102,0|0,0:0|0:0,0:0:0:0:
335,315,31593,1,8,0:1:0:0:
203,268,31770,1,0,0:0:0:0:
427,192,31946,6,0,L|412:315,1,102
203,168,32299,2,0,P|268:162|307:129,1,102,8|0,0:1|0:0,0:0:0:0:
55,67,32652,1,0,0:0:0:0:
79,176,32829,1,0,0:0:0:0:
164,43,33005,1,8,0:1:0:0:
188,152,33182,1,0,0:0:0:0:
38,51,33358,6,0,B|105:73|105:73|167:59|167:59|254:84,1,204,0|8,0:0|0:1,0:0:0:0:
394,133,33887,1,0,0:0:0:0:
247,174,34064,2,0,B|226:129|226:129|234:78,1,102,0|0,0:0|0:0,0:0:0:0:
394,133,34417,2,0,B|415:178|415:178|407:229,1,102,8|0,0:1|0:0,0:0:0:0:
284,321,34770,6,0,P|228:267|136:303,1,153,0|0,0:0|0:0,0:0:0:0:
90,343,35123,2,0,P|131:322|150:295,1,68,8|0,3:1|3:0,0:0:0:0:
197,202,35358,2,0,P|199:155|185:126,1,68,0|4,3:0|3:0,0:0:0:0:
450,55,35829,2,0,L|501:63,1,51,4|0,3:0|0:0,0:0:0:0:
335,211,36005,2,0,L|322:145,1,51,0|0,0:0|0:0,0:0:0:0:
231,21,36182,6,0,P|173:20|145:156,1,204,0|8,0:0|0:1,0:0:0:0:
233,190,36711,1,0,0:0:0:0:
107,316,36887,2,0,P|55:310|-1:320,1,102,0|0,0:0|0:0,0:0:0:0:
220,201,37240,2,0,P|299:221|404:196,1,153,8|0,0:1|0:0,0:0:0:0:
408,192,37593,6,0,P|390:251|390:313,1,102,0|0,0:0|0:0,0:0:0:0:
322,57,37946,2,0,P|248:54|198:154,1,153,8|0,0:1|0:0,0:0:0:0:
220,201,38299,1,0,3:0:0:0:
218,214,38387,1,0,3:0:0:0:
216,227,38475,1,0,3:0:0:0:
214,239,38563,1,0,3:0:0:0:
211,252,38652,2,0,L|225:363,1,102,8|0,3:1|0:0,0:0:0:0:
392,203,39005,5,0,0:0:0:0:
357,357,39182,1,0,0:0:0:0:
297,262,39359,1,8,0:1:0:0:
451,297,39535,1,0,0:0:0:0:
372,191,39711,2,0,P|371:154|379:123,2,68,0|0|0,3:0|3:0|3:0,0:0:0:0:
465,311,40064,2,0,B|414:292|414:292|300:311,1,153,8|0,3:1|0:0,0:0:0:0:
228,330,40417,5,0,0:0:0:0:
151,210,40593,2,0,P|146:168|156:140,2,51,0|0|8,3:0|3:0|3:1,0:0:0:0:
296,283,40946,2,0,P|321:283|354:295,2,51,0|0|0,3:0|3:0|3:0,0:0:0:0:
154,364,41299,2,0,P|124:377|96:378,2,51,0|0|8,3:0|3:0|3:1,0:0:0:0:
254,211,41652,1,0,3:0:0:0:
254,211,41740,1,0,3:0:0:0:
254,211,41829,6,0,B|268:163|268:163|249:85,1,102,0|0,3:0|0:0,0:0:0:0:
401,54,42182,1,8,0:1:0:0:
342,210,42358,1,0,0:0:0:0:
155,96,42535,2,0,L|255:112,1,102,0|0,0:0|0:0,0:0:0:0:
466,158,42887,2,0,P|454:103|462:56,1,102,8|0,0:1|0:0,0:0:0:0:
342,210,43240,6,0,L|363:326,1,102,0|0,0:0|0:0,0:0:0:0:
256,168,43593,1,8,0:1:0:0:
429,248,43770,1,0,0:0:0:0:
261,349,43946,1,0,3:0:0:0:
225,362,44034,1,0,3:0:0:0:
187,361,44122,1,0,3:0:0:0:
152,347,44210,1,0,3:0:0:0:
125,320,44298,1,8,3:1:0:0:
67,190,44476,1,0,0:0:0:0:
68,177,44564,1,0,0:0:0:0:
70,164,44652,6,0,L|86:58,1,102,0|0,0:0|0:0,0:0:0:0:
207,249,45005,2,0,L|191:142,1,102,8|0,0:1|0:0,0:0:0:0:
346,41,45358,1,0,0:0:0:0:
322,198,45535,1,0,0:0:0:0:
478,91,45711,2,0,L|466:14,1,51,8|0,0:1|0:0,0:0:0:0:
412,179,45887,2,0,L|420:230,1,51,0|0,0:0|0:0,0:0:0:0:
482,335,46064,6,0,P|436:322|381:323,1,102,0|0,0:0|0:0,0:0:0:0:
153,291,46417,2,0,P|203:292|252:278,1,102,8|0,0:1|0:0,0:0:0:0:
393,145,46770,6,0,P|419:166|453:170,2,68,0|0|0,3:0|3:0|3:0,0:0:0:0:
246,44,47123,2,0,L|263:123,2,68,8|0|0,3:1|3:0|3:0,0:0:0:0:
149,89,47476,6,0,B|90:113|32:77|32:77|178:211|-32:246|84:436|337:245|317:74|22:104|-73:203|85:278|-9:397|105:332|111:390,1,714,0|0,3:0|0:0,0:0:0:0:
233,285,48887,6,0,P|249:232|237:171,1,102,0|0,3:0|0:0,0:0:0:0:
326,272,49152,2,0,P|373:252|409:216,1,102,0|0,3:0|0:0,0:0:0:0:
416,327,49417,2,0,L|479:333,1,51,0|0,3:0|0:0,0:0:0:0:
510,226,49593,6,0,P|491:154|367:127,1,204,0|0,3:0|0:0,0:0:0:0:
192,208,50123,1,0,0:0:0:0:
101,149,50299,6,0,B|143:134|143:134|178:183|178:183|211:132|211:132|237:164|237:164|311:142,1,267.750010213852,0|0,0:0|0:0,0:0:0:0:
295,146,51005,6,0,L|311:77,1,51,0|0,3:0|0:0,0:0:0:0:
400,246,51182,2,0,L|383:177,1,51,0|0,3:0|0:0,0:0:0:0:
507,114,51358,2,0,P|454:85|372:128,1,153,0|0,3:0|0:0,0:0:0:0:
313,228,51711,5,0,0:0:0:0:
313,228,52064,6,0,L|307:258,1,17,0|0,0:0|0:0,0:0:0:0:
173,207,52240,2,0,L|179:237,1,17,0|0,0:0|0:0,0:0:0:0:
336,132,52417,6,0,L|330:162,1,17,0|0,0:0|0:0,0:0:0:0:
150,111,52593,2,0,L|156:141,1,17,0|0,0:0|0:0,0:0:0:0:
23,86,52770,5,0,3:0:0:0:
25,73,52858,1,0,3:0:0:0:
28,61,52946,1,0,3:0:0:0:
30,48,53034,1,0,3:0:0:0:
33,36,53123,6,0,P|116:39|66:180,1,267.750010213852,0|0,3:0|0:0,0:0:0:0:
23,242,53829,6,0,P|43:183|38:155,2,68,0|0|0,3:0|3:0|3:0,0:0:0:0:
95,323,54182,2,0,B|161:307|161:307|212:332|212:332|301:306,1,204,0|0,3:0|0:0,0:0:0:0:
486,351,54711,6,0,L|450:341,10,25.5,0|0|0|0|0|0|0|0|0|0|0,0:0|0:0|0:0|0:0|0:0|0:0|0:0|0:0|0:0|0:0|0:0,0:0:0:0:
365,289,55240,6,0,P|358:257|362:202,2,68,0|0|0,3:0|0:0|0:0,0:0:0:0:
316,355,55593,2,0,P|269:338|220:347,1,102,0|0,3:0|0:0,0:0:0:0:
458,199,55946,6,0,B|471:149|471:149|450:78,1,102,0|0,0:0|0:0,0:0:0:0:
388,60,56211,1,0,0:0:0:0:
388,60,56299,6,0,L|319:52,1,51,0|0,3:0|0:0,0:0:0:0:
339,204,56476,2,0,L|270:212,1,51,0|0,3:0|0:0,0:0:0:0:
160,112,56652,6,0,P|155:63|246:93,1,178.5,0|0,3:0|0:0,0:0:0:0:
210,218,57358,1,0,3:0:0:0:
109,209,57535,5,0,3:0:0:0:
92,207,57623,1,0,0:0:0:0:
75,206,57711,1,0,0:0:0:0:
252,309,57887,5,0,3:0:0:0:
259,325,57975,1,0,0:0:0:0:
267,340,58063,1,0,3:0:0:0:
268,136,58240,5,0,3:0:0:0:
278,122,58328,1,0,3:0:0:0:
287,108,58417,2,0,B|311:73|311:73|306:133|306:133|331:197,1,153,0|0,3:0|0:0,0:0:0:0:
346,253,58770,5,0,0:0:0:0:
404,116,58946,1,0,0:0:0:0:
461,299,59122,2,0,L|335:288,1,102,4|0,3:0|0:0,0:0:0:0:
116,207,59475,5,0,0:0:0:0:
271,174,59651,1,0,0:0:0:0:
124,326,59828,2,0,B|102:282|102:282|110:208,1,102,4|0,3:0|0:0,0:0:0:0:
291,36,60180,5,0,0:0:0:0:
291,36,60356,1,0,0:0:0:0:
439,146,60532,2,0,L|461:26,1,102,4|0,3:0|0:0,0:0:0:0:
194,145,60885,5,0,0:0:0:0:
248,306,61061,1,0,0:0:0:0:
436,196,61237,2,0,B|386:185|386:185|316:203,1,102,4|0,3:0|0:0,0:0:0:0:
56,270,61590,5,0,0:0:0:0:
248,306,61766,1,0,0:0:0:0:
56,270,61942,2,0,L|43:149,1,102,4|0,3:0|0:0,0:0:0:0:
196,40,62294,5,0,0:0:0:0:
131,215,62470,1,0,0:0:0:0:
277,332,62646,2,0,P|334:332|384:313,1,102,4|0,3:0|0:0,0:0:0:0:
166,128,62999,5,0,0:0:0:0:
145,308,63175,1,0,0:0:0:0:
300,139,63351,2,0,L|323:262,1,102,4|0,3:0|0:0,0:0:0:0:
80,91,63703,5,0,0:0:0:0:
231,211,63879,1,0,0:0:0:0:
40,304,64055,1,4,3:0:0:0:
182,116,64231,1,0,0:0:0:0:
222,357,64407,5,0,0:0:0:0:
133,203,64582,1,0,0:0:0:0:
336,298,64758,2,0,P|391:292|445:278,1,102,4|0,3:0|0:0,0:0:0:0:
227,256,65110,5,0,0:0:0:0:
316,102,65285,1,0,0:0:0:0:
113,197,65462,2,0,P|58:191|4:177,1,102,4|0,3:0|0:0,0:0:0:0:
374,28,65814,5,0,0:0:0:0:
413,183,65989,1,0,0:0:0:0:
194,173,66165,2,0,L|215:45,1,102,4|0,3:0|0:0,0:0:0:0:
266,256,66516,5,0,0:0:0:0:
118,115,66692,1,0,0:0:0:0:
118,115,66780,1,0,0:0:0:0:
118,115,66868,2,0,P|59:103|3:105,1,102,4|0,3:0|0:0,0:0:0:0:
278,23,67219,5,0,0:0:0:0:
191,189,67394,1,0,0:0:0:0:
390,122,67569,2,0,P|449:134|505:132,1,102,0|0,0:0|0:0,0:0:0:0:
343,312,67920,5,0,0:0:0:0:
275,148,68096,1,0,0:0:0:0:
275,148,68183,1,0,0:0:0:0:
275,148,68271,2,0,P|265:90|269:43,1,102,0|0,0:0|0:0,0:0:0:0:
431,218,68622,5,0,0:0:0:0:
356,368,68797,1,0,0:0:0:0:
205,228,68972,1,0,0:0:0:0:
370,284,69147,1,0,0:0:0:0:
244,132,69322,5,0,0:0:0:0:
283,318,69497,1,0,0:0:0:0:
363,78,69672,1,0,0:0:0:0:
203,245,69847,1,0,0:0:0:0:
203,245,69935,1,0,0:0:0:0:
203,245,70023,6,0,L|136:240,1,51
38,165,70197,2,0,P|21:110|21:89,1,51,0|0,0:0|0:0,0:0:0:0:
88,299,70372,6,0,L|58:373,1,51,0|0,3:0|3:0,0:0:0:0:
184,167,70546,2,0,L|234:163,1,51,0|0,3:0|3:0,0:0:0:0:
424,215,70721,6,0,L|373:211,1,51,0|0,3:0|0:0,0:0:0:0:
288,37,70896,2,0,L|291:87,1,51,0|0,3:0|3:0,0:0:0:0:
279,282,71070,2,0,L|281:308,7,25.5,0|0|0|0|0|0|0|0,3:0|3:0|3:0|3:0|3:0|3:0|3:0|3:0,0:0:0:0:
307,334,71419,6,0,P|359:347|426:340,1,102,4|0,3:0|0:0,0:0:0:0:
211,254,71680,2,0,P|159:267|92:260,1,102,4|0,3:0|0:0,0:0:0:0:
303,158,71941,2,0,L|322:92,1,51,4|0,3:0|0:0,0:0:0:0:
183,70,72115,6,0,L|197:119,1,51,4|4,0:0|3:0,0:0:0:0:
292,241,72289,2,0,P|341:234|363:224,1,51,0|0,0:0|0:0,0:0:0:0:
448,44,72463,2,0,L|461:146,1,102,4|4,3:0|3:0,0:0:0:0:
436,317,72811,5,4,0:0:0:0:
416,341,72897,1,0,0:0:0:0:
388,356,72984,1,0,0:0:0:0:
356,359,73071,1,0,0:0:0:0:
326,350,73157,1,6,3:0:0:0:
301,330,73244,1,0,3:0:0:0:
286,302,73331,1,0,3:0:0:0:
283,271,73417,1,0,3:0:0:0:
292,241,73504,5,4,3:0:0:0:
308,206,73590,1,0,3:0:0:0:
307,168,73677,1,0,3:0:0:0:
290,135,73764,1,0,3:0:0:0:
259,113,73850,1,6,3:0:0:0:
221,107,73937,1,0,3:0:0:0:
185,118,74024,1,0,3:0:0:0:
158,145,74110,1,0,3:0:0:0:
146,181,74198,6,0,L|171:339,1,153,4|0,3:0|0:0,0:0:0:0:
76,306,74545,6,0,L|86:231,1,51,4|0,3:0|3:0,0:0:0:0:
237,243,74718,2,0,L|226:168,1,51,2|0,3:1|3:0,0:0:0:0:
96,166,74891,6,0,L|106:91,1,51,4|0,3:0|3:0,0:0:0:0:
211,48,75065,2,0,P|261:43|281:46,1,51,2|0,3:1|3:0,0:0:0:0:
405,104,75238,6,0,L|428:37,1,51,4|0,3:0|3:0,0:0:0:0:
307,168,75412,2,0,L|314:218,1,51,2|0,3:1|0:0,0:0:0:0:
431,354,75585,5,4,3:0:0:0:
408,323,75671,1,0,0:0:0:0:
376,303,75758,1,0,3:0:0:0:
338,298,75845,1,0,0:0:0:0:
301,307,75931,1,6,3:0:0:0:
264,316,76019,1,0,3:0:0:0:
226,311,76106,1,0,3:0:0:0:
194,291,76193,1,0,3:0:0:0:
171,261,76279,5,4,3:0:0:0:
158,222,76365,1,0,3:0:0:0:
162,182,76452,1,0,3:0:0:0:
181,146,76539,1,0,3:0:0:0:
213,121,76625,1,6,3:0:0:0:
253,111,76712,1,0,3:0:0:0:
293,118,76799,1,0,3:0:0:0:
327,139,76886,1,0,3:0:0:0:
353,169,76972,6,0,L|361:229,1,51,4|0,3:0|0:0,0:0:0:0:
431,354,77146,2,0,L|375:330,1,51,2|0,0:1|0:0,0:0:0:0:
231,329,77319,6,0,L|278:292,1,51,4|0,0:0|0:0,0:0:0:0:
259,161,77493,2,0,L|253:111,1,51,2|0,0:1|0:0,0:0:0:0:
146,33,77666,6,0,P|109:17|59:8,1,51,4|0,0:0|0:0,0:0:0:0:
23,161,77839,2,0,P|81:153|103:143,1,51,2|0,0:1|0:0,0:0:0:0:
118,275,78013,6,0,P|111:298|107:330,1,51,4|0,0:0|0:0,0:0:0:0:
200,185,78186,2,0,L|193:134,1,51,2|0,0:1|0:0,0:0:0:0:
267,323,78360,5,4,3:0:0:0:
303,335,78446,1,0,0:0:0:0:
341,336,78533,1,0,0:0:0:0:
377,326,78620,1,0,0:0:0:0:
410,306,78706,1,6,3:0:0:0:
435,277,78793,1,0,3:0:0:0:
451,242,78880,1,0,3:0:0:0:
455,205,78966,1,0,3:0:0:0:
449,167,79053,5,4,3:0:0:0:
420,195,79139,1,0,3:0:0:0:
382,209,79226,1,0,3:0:0:0:
341,206,79313,1,0,3:0:0:0:
305,188,79399,1,6,3:0:0:0:
279,157,79486,1,0,3:0:0:0:
268,118,79573,1,0,3:0:0:0:
273,78,79659,1,0,3:0:0:0:
294,43,79747,6,0,L|463:27,1,153,4|0,3:0|0:0,0:0:0:0:
366,123,80094,6,0,L|416:116,1,51,4|0,0:0|0:0,0:0:0:0:
282,221,80267,2,0,L|269:160,1,51,2|0,0:1|0:0,0:0:0:0:
366,327,80441,6,0,L|379:266,1,51,4|0,0:0|0:0,0:0:0:0:
239,358,80614,2,0,P|205:346|176:340,1,51,2|0,0:1|0:0,0:0:0:0:
36,277,80787,6,0,P|60:270|84:261,1,51,4|0,0:0|0:0,0:0:0:0:
213,168,80961,2,0,P|176:148|156:124,1,51,2|0,0:1|0:0,0:0:0:0:
65,18,81134,6,0,L|46:130,1,102,4|0,3:0|0:0,0:0:0:0:
178,249,81481,1,6,3:0:0:0:
227,254,81567,1,0,3:0:0:0:
272,230,81654,1,0,3:0:0:0:
295,186,81741,1,0,3:0:0:0:
290,136,81828,5,4,3:0:0:0:
288,123,81914,1,0,3:0:0:0:
285,111,82001,1,0,3:0:0:0:
283,98,82088,1,0,3:0:0:0:
281,86,82174,1,6,3:0:0:0:
279,73,82261,1,0,3:0:0:0:
276,61,82348,1,0,3:0:0:0:
274,48,82434,1,0,3:0:0:0:
272,35,82521,6,0,L|201:22,1,51,4|0,3:0|0:0,0:0:0:0:
371,113,82695,2,0,L|426:99,1,51,2|0,0:1|0:0,0:0:0:0:
213,169,82868,6,0,L|201:97,1,51,4|0,0:0|0:0,0:0:0:0:
324,233,83042,2,0,L|392:258,1,51,2|0,0:1|0:0,0:0:0:0:
213,297,83215,6,0,L|156:343,1,51,4|0,0:0|0:0,0:0:0:0:
347,325,83389,2,0,L|415:350,1,51,2|0,0:1|0:0,0:0:0:0:
348,136,83562,6,0,L|279:161,1,51,4|0,0:0|0:0,0:0:0:0:
141,223,83735,2,0,L|129:151,1,51,4|0,0:1|0:0,0:0:0:0:
31,33,83909,5,4,3:0:0:0:
63,53,83995,1,0,0:0:0:0:
99,63,84082,1,0,0:0:0:0:
138,61,84169,1,0,0:0:0:0:
173,48,84255,1,4,3:0:0:0:
208,34,84342,1,0,3:0:0:0:
246,33,84429,1,0,3:0:0:0:
283,42,84516,1,0,3:0:0:0:
315,63,84602,5,4,3:0:0:0:
337,99,84688,1,0,3:0:0:0:
343,142,84775,1,0,3:0:0:0:
333,184,84862,1,0,3:0:0:0:
307,218,84948,1,4,3:0:0:0:
270,240,85035,1,0,3:0:0:0:
227,245,85122,1,0,3:0:0:0:
186,234,85208,1,0,3:0:0:0:
152,207,85296,6,0,L|141:80,1,102,4|0,3:0|0:0,0:0:0:0:
258,133,85643,6,0,L|253:158,1,25.5,4|0,3:0|0:0,0:0:0:0:
332,343,85816,2,0,L|311:325,1,25.5,6|2,3:1|0:1,0:0:0:0:
113,302,85990,6,0,L|139:292,1,25.5,4|0,3:3|0:3,0:0:0:0:
342,211,86163,2,0,L|347:186,1,25.5,2|0,3:1|0:0,0:0:0:0:
129,154,86337,6,0,L|134:179,1,25.5,2|0,3:1|0:0,0:0:0:0:
221,361,86510,2,0,L|226:336,1,25.5,2|0,3:1|0:0,0:0:0:0:
258,133,86683,5,4,3:0:0:0:
283,104,86769,1,0,0:0:0:0:
317,87,86856,1,0,0:0:0:0:
355,83,86943,1,0,0:0:0:0:
391,93,87029,1,4,0:0:0:0:
422,115,87116,1,0,0:0:0:0:
443,147,87203,1,0,0:0:0:0:
451,184,87289,1,0,0:0:0:0:
445,222,87376,5,4,0:0:0:0:
405,241,87464,1,0,0:0:0:0:
360,236,87550,1,0,0:0:0:0:
320,256,87637,1,0,0:0:0:0:
275,251,87725,1,4,0:0:0:0:
235,270,87811,1,0,0:0:0:0:
190,265,87897,1,0,0:0:0:0:
150,285,87984,1,0,0:0:0:0:
106,280,88071,6,0,L|96:318,1,25.5,4|0,0:0|0:0,0:0:0:0:
31,125,88244,2,0,L|41:163,1,25.5,2|0,0:1|0:0,0:0:0:0:
207,47,88417,6,0,L|197:85,1,25.5,2|0,0:1|0:0,0:0:0:0:
339,202,88591,2,0,L|382:190,1,25.5,2|0,0:1|0:0,0:0:0:0:
201,330,88764,6,0,L|158:318,1,25.5,4|0,0:0|0:0,0:0:0:0:
112,108,88938,2,0,L|105:83,1,25.5,2|0,0:1|0:0,0:0:0:0:
50,295,89111,6,0,L|93:283,1,25.5,4|0,0:0|0:0,0:0:0:0:
243,172,89284,2,0,L|286:184,1,25.5,2|0,0:1|0:0,0:0:0:0:
384,358,89458,5,4,0:0:0:0:
428,353,89544,1,0,0:0:0:0:
464,328,89631,1,0,0:0:0:0:
484,289,89718,1,0,0:0:0:0:
483,245,89804,1,4,0:0:0:0:
460,207,89891,1,0,0:0:0:0:
422,184,89978,1,0,0:0:0:0:
378,182,90064,1,0,0:0:0:0:
339,202,90152,5,4,0:0:0:0:
301,225,90238,1,0,0:0:0:0:
257,230,90325,1,0,0:0:0:0:
215,215,90412,1,0,0:0:0:0:
183,184,90498,1,4,0:0:0:0:
168,143,90585,1,0,0:0:0:0:
171,99,90672,1,0,0:0:0:0:
193,60,90758,1,0,0:0:0:0:
230,35,90845,6,0,L|353:53,1,102,4|0,0:0|0:0,0:0:0:0:
345,143,91192,6,0,L|351:168,1,25.5,4|0,0:0|0:0,0:0:0:0:
192,197,91365,2,0,L|186:221,1,25.5,2|0,0:1|0:0,0:0:0:0:
371,245,91539,6,0,L|377:270,1,25.5,4|0,0:0|0:0,0:0:0:0:
164,298,91712,2,0,L|158:322,1,25.5,4|0,0:3|0:0,0:0:0:0:
397,347,91886,6,0,L|403:372,1,25.5,2|0,0:1|0:0,0:0:0:0:
446,171,92059,2,0,L|451:146,1,25.5,2|0,0:1|0:0,0:0:0:0:
298,323,92232,5,4,0:0:0:0:
259,344,92318,1,0,0:0:0:0:
215,349,92405,1,0,0:0:0:0:
171,339,92492,1,0,0:0:0:0:
135,313,92578,1,4,0:0:0:0:
111,276,92665,1,0,0:0:0:0:
101,233,92752,1,0,0:0:0:0:
109,189,92838,1,0,0:0:0:0:
131,151,92926,5,4,0:0:0:0:
144,193,93012,1,0,0:0:0:0:
173,226,93099,1,0,0:0:0:0:
213,245,93186,1,0,0:0:0:0:
258,246,93272,1,4,0:0:0:0:
298,229,93359,1,0,0:0:0:0:
329,198,93446,1,0,0:0:0:0:
344,156,93532,1,0,0:0:0:0:
342,112,93620,6,0,L|212:86,1,102,4|0,0:0|0:0,0:0:0:0:
324,25,93967,6,0,L|371:18,1,25.5,4|0,0:0|0:0,0:0:0:0:
208,169,94140,2,0,L|161:162,1,25.5,2|0,0:1|0:0,0:0:0:0:
25,60,94313,2,0,L|16:18,1,25.5,4|0,0:0|0:0,0:0:0:0:
106,221,94487,2,0,L|100:245,1,25.5,2|0,0:1|0:0,0:0:0:0:
211,81,94660,2,0,L|202:39,1,25.5,2|0,0:1|0:0,0:0:0:0:
274,270,94834,2,0,L|279:294,1,25.5,2|0,0:1|0:0,0:0:0:0:
439,202,95007,5,4,0:0:0:0:
465,174,95093,1,0,0:0:0:0:
477,139,95180,1,0,0:0:0:0:
473,101,95267,1,0,0:0:0:0:
452,69,95353,1,4,0:0:0:0:
420,49,95440,1,0,0:0:0:0:
382,46,95527,1,0,0:0:0:0:
346,59,95613,1,0,0:0:0:0:
320,86,95701,5,4,0:0:0:0:
294,122,95787,1,0,0:0:0:0:
258,148,95874,1,0,0:0:0:0:
215,161,95961,1,0,0:0:0:0:
171,161,96047,1,4,0:0:0:0:
129,147,96134,1,0,0:0:0:0:
93,121,96221,1,0,0:0:0:0:
67,85,96307,1,0,0:0:0:0:
53,43,96394,6,0,L|34:173,1,102,4|0,0:0|0:0,0:0:0:0:
49,232,96741,6,0,L|56:273,1,25.5,2|0,0:1|0:0,0:0:0:0:
177,383,96915,2,0,L|187:342,1,25.5,2|0,0:1|0:0,0:0:0:0:
52,344,97088,6,0,L|91:356,1,25.5,4|0,0:0|0:0,0:0:0:0:
247,260,97262,2,0,L|294:255,1,25.5,2|0,0:1|0:0,0:0:0:0:
439,364,97435,6,0,L|432:328,1,25.5,2|0,0:1|0:0,0:0:0:0:
362,163,97609,2,0,L|369:122,1,25.5,2|0,0:1|0:0,0:0:0:0:
505,284,97782,5,4,0:0:0:0:
470,254,97868,1,0,0:0:0:0:
426,246,97955,1,0,0:0:0:0:
384,264,98042,1,0,0:0:0:0:
358,301,98128,1,4,0:0:0:0:
332,338,98215,1,0,0:0:0:0:
290,356,98302,1,0,0:0:0:0:
246,348,98389,1,0,0:0:0:0:
211,318,98475,5,4,0:0:0:0:
210,307,98561,1,0,0:0:0:0:
209,297,98648,1,0,0:0:0:0:
208,287,98735,1,0,0:0:0:0:
207,277,98821,1,4,0:0:0:0:
206,266,98909,1,0,0:0:0:0:
205,256,98996,1,0,0:0:0:0:
204,246,99083,1,0,0:0:0:0:
203,236,99169,6,0,L|210:193,1,25.5,4|0,0:0|0:0,0:0:0:0:
352,180,99342,2,0,L|345:137,1,25.5,2|0,0:1|0:0,0:0:0:0:
151,128,99516,6,0,L|158:85,1,25.5,2|0,0:1|0:0,0:0:0:0:
332,67,99689,2,0,L|325:24,1,25.5,2|0,0:1|0:0,0:0:0:0:
290,240,99863,6,0,L|285:265,1,25.5,4|0,0:0|0:0,0:0:0:0:
440,152,100036,2,0,L|476:143,1,25.5,2|0,0:1|0:0,0:0:0:0:
258,109,100209,6,0,L|222:100,1,25.5,2|0,0:1|0:0,0:0:0:0:
381,279,100383,2,0,L|411:273,1,25.5,2|0,0:1|0:0,0:0:0:0:
223,357,100556,6,0,P|182:300|77:342,1,153,4|0,0:2|0:0,0:0:0:0:
49,358,100903,5,4,0:0:0:0:
22,320,100989,1,0,0:0:0:0:
15,275,101076,1,0,0:0:0:0:
28,232,101163,1,0,0:0:0:0:
59,198,101249,1,4,0:0:0:0:
89,164,101336,1,0,0:0:0:0:
103,121,101423,1,0,0:0:0:0:
95,76,101510,1,0,0:0:0:0:
69,38,101597,5,4,0:0:0:0:
56,34,101683,1,0,0:0:0:0:
44,31,101770,1,0,0:0:0:0:
31,28,101857,1,0,0:0:0:0:
19,25,101943,6,0,B|5:42|5:42|22:151,1,102,4|0,0:2|0:0,0:0:0:0:
106,201,102290,6,0,L|113:164,1,25.5,4|0,0:0|0:0,0:0:0:0:
269,321,102464,2,0,L|273:346,1,25.5,2|0,0:1|0:0,0:0:0:0:
125,354,102637,6,0,L|78:345,1,25.5,4|0,0:0|0:0,0:0:0:0:
261,190,102811,2,0,L|268:153,1,25.5,2|0,0:1|0:0,0:0:0:0:
426,299,102984,6,0,L|430:324,1,25.5,2|0,0:1|0:0,0:0:0:0:
485,130,103157,2,0,L|489:104,1,25.5,2|0,0:1|0:0,0:0:0:0:
311,20,103331,5,4,0:0:0:0:
316,60,103417,1,0,1:0:0:0:
321,100,103504,1,4,0:3:0:0:
326,141,103591,1,0,1:0:0:0:
352,186,103678,5,4,0:0:0:0:
346,226,103764,1,0,1:0:0:0:
341,266,103851,1,4,0:3:0:0:
336,307,103938,1,0,1:0:0:0:
361,351,104024,5,4,0:3:0:0:
367,352,104110,1,0,1:0:0:0:
373,354,104197,1,0,1:0:0:0:
379,355,104284,1,0,1:0:0:0:
385,355,104370,1,4,0:0:0:0:
392,356,104457,1,0,1:0:0:0:
398,355,104544,1,0,1:0:0:0:
404,354,104630,1,0,1:0:0:0:
411,352,104718,6,0,P|455:329|476:293,1,51,4|0,0:0|0:0,0:0:0:0:
346,226,104891,2,0,P|364:180|357:139,1,51,4|0,0:0|0:0,0:0:0:0:
215,171,105065,6,0,P|199:123|168:96,1,51,4|8,0:0|0:0,0:0:0:0:
79,213,105238,2,0,P|37:186|-4:186,1,51,4|8,0:0|0:0,0:0:0:0:
226,344,105412,6,0,L|263:338,1,25.5,4|4,0:0|0:0,0:0:0:0:
234,329,105498,2,0,L|271:323,1,25.5,4|4,0:0|0:0,0:0:0:0:
242,314,105585,2,0,P|242:282|228:237,1,51,0|0,0:0|0:0,0:0:0:0:
129,149,105758,6,0,P|129:117|143:72,1,51,4|8,0:0|0:0,0:0:0:0:
95,298,105932,2,0,L|28:289,1,51,6|8,0:0|0:0,0:0:0:0:
295,199,106105,5,4,0:2:0:0:
256,192,106192,12,0,108880,0:0:0:0:
