osu file format v14

[General]
AudioFilename: Brain Power.mp3
AudioLeadIn: 0
PreviewTime: 71070
Countdown: 0
SampleSet: None
StackLeniency: 0.4
Mode: 0
LetterboxInBreaks: 0
EpilepsyWarning: 1
WidescreenStoryboard: 1

[Editor]
Bookmarks: 182,2299,24887,36182,47476,58770,67219,70023,72811,83909,95007,100556,103331,106105,108880
DistanceSpacing: 1.2
BeatDivisor: 8
GridSize: 4
TimelineZoom: 3.099999

[Metadata]
Title:Brain Power
TitleUnicode:Brain Power
Artist:NOMA
ArtistUnicode:ノマ
Creator:Jacob
Version:Cryptic's INFINITE
Source:SOUND VOLTEX II -infinite infection-
Tags:Yauxo Anxient Exote SnowNiNo_ Len Cryptic sdvx O-oooooooooo AAAAE-A-A-I-A-U- JO-oooooooooooo AAE-O-A-A-U-U-A- E-eee-ee-eee AAAAE-A-E-I-E-A- JO-ooo-oo-oo-oo EEEEO-A-AAA-AAAA
BeatmapID:1022252
BeatmapSetID:357777

[Difficulty]
HPDrainRate:6
CircleSize:3.5
OverallDifficulty:8.5
ApproachRate:9.4
SliderMultiplier:2
SliderTickRate:1

[Events]
//Background and Video events
0,0,"Brain Power.png",0,0
//Break Periods
//Storyboard Layer 0 (Background)
//Storyboard Layer 1 (Fail)
//Storyboard Layer 2 (Pass)
//Storyboard Layer 3 (Foreground)
//Storyboard Sound Samples

[TimingPoints]
888,352.941176470588,4,2,0,40,1,0
1946,-200,4,2,0,40,0,0
2123,-200,4,2,0,30,0,0
2211,-200,4,2,0,30,0,0
2299,-57.1428571428571,4,2,0,70,0,0
2387,-57.1428571428571,4,2,0,50,0,0
2652,-80,4,2,0,50,0,0
3358,-100,4,2,0,50,0,0
5123,-133.333333333333,4,2,0,45,0,0
5476,-80,4,2,0,45,0,0
5740,-80,4,2,0,45,0,0
5829,-200,4,2,0,40,0,0
6182,-100,4,2,0,40,0,0
6446,-100,4,2,0,40,0,0
6535,-133.333333333333,4,2,0,35,0,0
6887,-133.333333333333,4,2,0,30,0,0
7593,-133.333333333333,4,2,0,40,0,0
7946,-57.1428571428571,4,2,0,50,0,0
8211,-57.1428571428571,4,2,0,50,0,0
8299,-80,4,2,0,50,0,0
9005,-100,4,2,0,50,0,0
10770,-133.333333333333,4,2,0,45,0,0
11123,-133.333333333333,4,2,0,40,0,0
11476,-200,4,2,0,35,0,0
11829,-200,4,2,0,30,0,0
12799,-200,4,2,0,30,0,0
12887,-200,4,2,0,30,0,0
13240,-200,4,2,0,40,0,0
13417,-200,4,2,0,70,0,0
13593,-57.1428571428571,4,2,0,70,0,0
13770,-57.1428571428571,4,2,0,50,0,0
13858,-57.1428571428571,4,2,0,50,0,0
13946,-80,4,2,0,50,0,0
14652,-100,4,2,0,50,0,0
16417,-133.333333333333,4,2,0,45,0,0
16770,-80,4,2,0,45,0,0
17035,-80,4,2,0,45,0,0
17123,-200,4,2,0,40,0,0
17476,-100,4,2,0,40,0,0
17740,-100,4,2,0,40,0,0
17829,-133.333333333333,4,2,0,35,0,0
18535,-133.333333333333,4,2,0,30,0,0
19240,-100,4,2,0,50,0,0
23476,-66.6666666666667,4,2,0,70,0,0
23652,-66.6666666666667,4,2,0,70,0,0
23740,-66.6666666666667,4,2,0,70,0,0
23917,-66.6666666666667,4,2,0,70,0,0
24005,-66.6666666666667,4,2,0,70,0,0
24182,-66.6666666666667,4,2,0,70,0,0
24270,-66.6666666666667,4,2,0,70,0,0
24446,-66.6666666666667,4,2,0,70,0,0
24535,-66.6666666666667,4,2,0,70,0,0
24623,-66.6666666666667,4,2,0,70,0,0
24711,-66.6666666666667,4,2,0,70,0,0
24799,-66.6666666666667,4,2,0,70,0,0
24887,-80,4,2,0,70,0,0
24976,-80,4,2,0,40,0,0
26299,-100,4,2,0,40,0,0
27711,-80,4,2,0,40,0,0
31240,-100,4,2,0,40,0,0
32652,-66.6666666666667,4,2,0,40,0,0
34064,-100,4,2,0,40,0,0
34770,-133.333333333333,4,2,0,40,0,0
35035,-133.333333333333,4,2,0,40,0,0
35123,-133.333333333333,4,2,0,40,0,0
35476,-66.6666666666667,4,2,0,60,0,0
35740,-66.6666666666667,4,2,0,60,0,0
35829,-66.6666666666667,4,2,0,70,0,0
36093,-66.6666666666667,4,2,0,70,0,0
36182,-80,4,2,0,40,0,0
38652,-100,4,2,0,40,0,0
39005,-80,4,2,0,40,0,0
40064,-100,4,2,0,40,0,0
41829,-80,4,2,0,40,0,0
42535,-100,4,2,0,40,0,0
43946,-80,4,2,0,40,0,0
45358,-200,4,2,0,40,0,0
45623,-200,4,2,0,40,0,0
45711,-100,4,2,0,40,0,0
46064,-133.333333333333,4,2,0,40,0,0
47123,-200,4,2,0,40,0,0
47476,-200,4,2,0,70,0,0
47564,-200,4,2,0,40,0,0
48093,-200,4,2,0,40,0,0
48182,-200,4,2,0,40,0,0
48535,-133.333333333333,4,2,0,40,0,0
48623,-133.333333333333,4,2,0,40,0,0
48711,-133.333333333333,4,2,0,40,0,0
48799,-133.333333333333,4,2,0,40,0,0
48887,-80,4,2,0,40,0,0
49064,-80,4,2,0,40,0,0
49152,-80,4,2,0,40,0,0
49329,-80,4,2,0,40,0,0
49417,-80,4,2,0,40,0,0
49505,-80,4,2,0,40,0,0
49593,-133.333333333333,4,2,0,40,0,0
50211,-133.333333333333,4,2,0,40,0,0
50299,-133.333333333333,4,2,0,40,0,0
50917,-133.333333333333,4,2,0,40,0,0
51005,-200,4,2,0,40,0,0
51093,-200,4,2,0,40,0,0
51182,-200,4,2,0,40,0,0
51270,-200,4,2,0,40,0,0
51358,-100,4,2,0,40,0,0
51623,-100,4,2,0,40,0,0
51711,-100,4,2,0,40,0,0
51799,-100,4,2,0,40,0,0
51887,-100,4,2,0,40,0,0
51976,-100,4,2,0,40,0,0
52064,-133.333333333333,4,2,0,40,0,0
52152,-133.333333333333,4,2,0,40,0,0
52240,-133.333333333333,4,2,0,40,0,0
52329,-133.333333333333,4,2,0,40,0,0
52417,-100,4,2,0,40,0,0
53123,-113.636363636364,4,2,0,40,0,0
53740,-113.636363636364,4,2,0,40,0,0
53829,-133.333333333333,4,2,0,40,0,0
54182,-80,4,2,0,40,0,0
54270,-80,4,2,0,40,0,0
54358,-80,4,2,0,40,0,0
54446,-80,4,2,0,40,0,0
54535,-200,4,2,0,40,0,0
55152,-200,4,2,0,40,0,0
55240,-200,4,2,0,40,0,0
55858,-200,4,2,0,40,0,0
55946,-133.333333333333,4,2,0,40,0,0
56211,-133.333333333333,4,2,0,40,0,0
56299,-133.333333333333,4,2,0,40,0,0
56387,-133.333333333333,4,2,0,40,0,0
56476,-133.333333333333,4,2,0,40,0,0
56564,-133.333333333333,4,2,0,40,0,0
56652,-100,4,2,0,40,0,0
57093,-100,4,2,0,40,0,0
57182,-66.6666666666667,4,2,0,40,0,0
57402,-66.6666666666667,4,2,0,40,0,0
57490,-66.6666666666667,4,2,0,40,0,0
57535,-66.6666666666667,4,2,0,40,0,0
57579,-66.6666666666667,4,2,0,40,0,0
57623,-80,4,2,0,40,0,0
58064,-100,4,2,0,40,0,0
58152,-100,4,2,0,40,0,0
58240,-100,4,2,0,40,0,0
58770,352.733686067019,4,2,0,60,1,0
58770,-80,4,2,0,60,0,0
59122,-66.6666666666667,4,2,0,60,0,0
60180,352.526439482961,4,2,0,60,1,0
60180,-80,4,2,0,60,0,0
60532,-66.6666666666667,4,2,0,60,0,0
61590,352.319436288902,4,2,0,60,1,0
61590,-80,4,2,0,60,0,0
61942,-66.6666666666667,4,2,0,60,0,0
62999,352.071353127567,4,2,0,60,1,0
62999,-80,4,2,0,60,0,0
63351,-66.6666666666667,4,2,0,60,0,0
64143,-66.6666666666667,4,2,0,60,0,0
64231,-66.6666666666667,4,2,0,60,0,0
64319,-66.6666666666667,4,2,0,60,0,0
64407,351.802990325418,4,2,0,60,1,0
64758,-66.6666666666667,4,2,0,60,0,0
65814,351.493848857645,4,2,0,60,1,0
66165,-66.6666666666667,4,2,0,60,0,0
67219,350.877192982456,4,2,0,40,1,0
67219,-133.333333333333,4,2,0,40,0,0
67569,-80,4,2,0,40,0,0
67833,-80,4,2,0,40,0,0
67920,-200,4,2,0,40,0,0
68271,-100,4,2,0,40,0,0
68534,-100,4,2,0,40,0,0
68622,350.262697022767,4,2,0,50,1,0
70023,349.243306169965,4,2,0,50,1,0
70765,-100,4,2,0,50,0,0
70852,-100,4,2,0,50,0,0
70896,-80,4,2,0,50,0,0
71070,-100,4,2,0,50,0,0
71419,348.027842227378,4,2,0,60,1,0
71419,-66.6666666666667,4,2,0,60,0,0
71593,-66.6666666666667,4,2,0,60,0,0
71680,-66.6666666666667,4,2,0,60,0,0
71854,-66.6666666666667,4,2,0,60,0,0
71941,-66.6666666666667,4,2,0,60,0,0
72115,-66.6666666666667,4,2,0,60,0,0
72202,-66.6666666666667,4,2,0,60,0,0
72376,-66.6666666666667,4,2,0,60,0,0
72463,-66.6666666666667,4,2,0,60,0,0
72550,-66.6666666666667,4,2,0,60,0,0
72637,-66.6666666666667,4,2,0,60,0,0
72724,-66.6666666666667,4,2,0,60,0,0
72811,346.820809248555,4,3,0,70,1,1
72811,-66.6666666666667,4,3,0,70,0,1
73071,-66.6666666666667,4,3,0,70,0,1
73157,-66.6666666666667,4,3,0,70,0,1
75845,-66.6666666666667,4,3,0,70,0,1
75932,-66.6666666666667,4,3,0,70,0,1
78620,-66.6666666666667,4,3,0,70,0,1
78706,-66.6666666666667,4,3,0,70,0,1
81394,-66.6666666666667,4,3,0,70,0,1
81481,-66.6666666666667,4,3,0,70,0,1
84169,-66.6666666666667,4,3,0,70,0,1
84256,-66.6666666666667,4,3,0,70,0,1
85730,-66.6666666666667,4,3,0,70,0,1
85816,-66.6666666666667,4,3,0,70,0,1
85903,-66.6666666666667,4,3,0,70,0,1
85990,-66.6666666666667,4,3,0,70,0,1
86076,-66.6666666666667,4,3,0,70,0,1
86163,-66.6666666666667,4,3,0,70,0,1
86250,-66.6666666666667,4,3,0,70,0,1
86337,-66.6666666666667,4,3,0,70,0,1
86423,-66.6666666666667,4,3,0,70,0,1
86510,-66.6666666666667,4,3,0,70,0,1
86597,-66.6666666666667,4,3,0,70,0,1
86683,-66.6666666666667,4,3,0,70,0,1
86943,-66.6666666666667,4,3,0,70,0,1
87030,-66.6666666666667,4,3,0,70,0,1
88504,-66.6666666666667,4,3,0,70,0,1
88591,-66.6666666666667,4,3,0,70,0,1
88678,-66.6666666666667,4,3,0,70,0,1
88764,-66.6666666666667,4,3,0,70,0,1
88851,-66.6666666666667,4,3,0,70,0,1
88938,-66.6666666666667,4,3,0,70,0,1
89024,-66.6666666666667,4,3,0,70,0,1
89111,-66.6666666666667,4,3,0,70,0,1
89198,-66.6666666666667,4,3,0,70,0,1
89284,-66.6666666666667,4,3,0,70,0,1
89371,-66.6666666666667,4,3,0,70,0,1
89458,-66.6666666666667,4,3,0,70,0,1
89718,-66.6666666666667,4,3,0,70,0,1
89805,-66.6666666666667,4,3,0,70,0,1
91279,-66.6666666666667,4,3,0,70,0,1
91365,-66.6666666666667,4,3,0,70,0,1
91452,-66.6666666666667,4,3,0,70,0,1
91539,-66.6666666666667,4,3,0,70,0,1
91626,-66.6666666666667,4,3,0,70,0,1
91712,-66.6666666666667,4,3,0,70,0,1
91799,-66.6666666666667,4,3,0,70,0,1
91886,-66.6666666666667,4,3,0,70,0,1
91972,-66.6666666666667,4,3,0,70,0,1
92059,-66.6666666666667,4,3,0,70,0,1
92146,-66.6666666666667,4,3,0,70,0,1
92232,-66.6666666666667,4,3,0,70,0,1
92493,-66.6666666666667,4,3,0,70,0,1
92579,-66.6666666666667,4,3,0,70,0,1
94053,-66.6666666666667,4,3,0,70,0,1
94140,-66.6666666666667,4,3,0,70,0,1
94227,-66.6666666666667,4,3,0,70,0,1
94313,-66.6666666666667,4,3,0,70,0,1
94574,-66.6666666666667,4,3,0,70,0,1
94660,-66.6666666666667,4,3,0,70,0,1
95267,-66.6666666666667,4,3,0,70,0,1
95354,-66.6666666666667,4,3,0,70,0,1
96828,-66.6666666666667,4,3,0,70,0,1
96915,-66.6666666666667,4,3,0,70,0,1
97001,-66.6666666666667,4,3,0,70,0,1
97088,-66.6666666666667,4,3,0,70,0,1
97175,-66.6666666666667,4,3,0,70,0,1
97261,-66.6666666666667,4,3,0,70,0,1
97348,-66.6666666666667,4,3,0,70,0,1
97435,-66.6666666666667,4,3,0,70,0,1
97521,-66.6666666666667,4,3,0,70,0,1
97608,-66.6666666666667,4,3,0,70,0,1
97695,-66.6666666666667,4,3,0,70,0,1
97782,-66.6666666666667,4,3,0,70,0,1
98042,-66.6666666666667,4,3,0,70,0,1
98128,-66.6666666666667,4,3,0,70,0,1
99429,-66.6666666666667,4,3,0,70,0,1
99516,-66.6666666666667,4,3,0,70,0,1
99602,-66.6666666666667,4,3,0,70,0,1
99689,-66.6666666666667,4,3,0,70,0,1
99776,-66.6666666666667,4,3,0,70,0,1
99863,-66.6666666666667,4,3,0,70,0,1
99949,-66.6666666666667,4,3,0,70,0,1
100036,-66.6666666666667,4,3,0,70,0,1
100123,-66.6666666666667,4,3,0,70,0,1
100209,-66.6666666666667,4,3,0,70,0,1
100296,-66.6666666666667,4,3,0,70,0,1
100383,-66.6666666666667,4,3,0,70,0,1
100469,-66.6666666666667,4,3,0,70,0,1
100556,-66.6666666666667,4,3,0,70,0,1
100816,-66.6666666666667,4,3,0,70,0,1
100903,-66.6666666666667,4,3,0,70,0,1
102377,-66.6666666666667,4,3,0,70,0,1
102464,-66.6666666666667,4,3,0,70,0,1
102550,-66.6666666666667,4,3,0,70,0,1
102637,-66.6666666666667,4,3,0,70,0,1
102724,-66.6666666666667,4,3,0,70,0,1
102811,-66.6666666666667,4,3,0,70,0,1
102897,-66.6666666666667,4,3,0,70,0,1
102984,-66.6666666666667,4,3,0,70,0,1
103071,-66.6666666666667,4,3,0,70,0,1
103157,-66.6666666666667,4,3,0,70,0,1
103244,-66.6666666666667,4,3,0,70,0,1
103331,-66.6666666666667,4,3,0,70,0,1
106105,-66.6666666666667,4,3,0,70,0,0

[Colours]
Combo1 : 245,137,237
Combo2 : 47,16,103
Combo3 : 145,37,233
Combo4 : 226,4,251

[HitObjects]
141,265,1946,6,0,P|106:276|69:273,1,75,0|0,0:0|0:0,0:0:0:0:
69,273,2299,6,0,B|105:280|135:264|160:242|165:204|165:204|163:165|163:165|180:140|180:140|188:128|219:147|201:177,1,262.500002503395,4|0,0:1|0:0,0:0:0:0:
85,194,2652,6,0,B|83:144|83:144|129:70,1,125,8|0,0:0|0:0,0:0:0:0:
282,138,3005,2,0,B|284:188|284:188|238:262,1,125,0|0,0:0|0:0,0:0:0:0:
73,190,3358,6,0,B|71:140|71:140|110:77,1,100,8|0,0:0|0:0,0:0:0:0:
294,142,3711,2,0,B|296:192|296:192|257:255,1,100,0|0,0:0|0:0,0:0:0:0:
225,38,4064,5,8,0:0:0:0:
299,13,4240,1,0,0:0:0:0:
373,41,4416,1,0,0:0:0:0:
213,30,4593,5,0,0:0:0:0:
300,0,4770,1,8,0:0:0:0:
385,34,4946,1,0,0:0:0:0:
433,112,5123,6,0,L|437:207,1,75.0000028610231,0|0,0:0|0:0,0:0:0:0:
294,142,5476,6,0,P|364:115|437:198,1,187.5,8|0,0:0|0:0,0:0:0:0:
338,243,5829,6,0,L|356:197,1,50,0|0,0:0|0:0,0:0:0:0:
363,346,6182,6,0,L|355:196,1,150,8|0,0:0|0:0,0:0:0:0:
227,230,6535,5,4,0:3:0:0:
470,299,6712,1,4,0:3:0:0:
472,329,6800,1,0,0:0:0:0:
474,359,6887,1,4,0:3:0:0:
464,201,7064,1,4,0:3:0:0:
363,346,7240,5,4,0:3:0:0:
344,349,7329,1,4,0:3:0:0:
270,333,7417,5,4,0:3:0:0:
251,336,7506,1,4,0:3:0:0:
177,320,7593,5,4,3:0:0:0:
338,243,7770,1,4,3:0:0:0:
116,217,7946,6,0,B|28:207|28:207|28:124|120:100|165:137,1,262.500002503395,4|0,0:0|0:0,0:0:0:0:
221,220,8299,6,0,P|265:244|345:241,1,125,8|0,0:0|0:0,0:0:0:0:
371,78,8652,2,0,P|327:54|247:57,1,125,0|0,0:0|0:0,0:0:0:0:
217,232,9005,6,0,P|261:256|329:258,1,100,8|0,0:0|0:0,0:0:0:0:
375,66,9358,2,0,P|331:42|263:40,1,100,0|0,0:0|0:0,0:0:0:0:
417,185,9711,5,8,0:0:0:0:
479,137,9887,1,0,0:0:0:0:
500,61,10063,1,0,0:0:0:0:
420,196,10240,5,0,0:0:0:0:
490,143,10417,1,8,0:0:0:0:
512,57,10593,1,0,0:0:0:0:
375,66,10770,6,0,P|391:102|423:125,1,75.0000028610231,0|0,0:0|0:0,0:0:0:0:
282,36,11123,2,0,L|290:125,1,75.0000028610231,8|0,0:0|0:0,0:0:0:0:
128,190,11476,6,0,P|112:154|88:135,1,50,0|0,0:0|0:0,0:0:0:0:
221,220,11829,2,0,L|215:157,1,50,8|0,0:0|0:0,0:0:0:0:
148,285,12182,5,4,0:3:0:0:
166,301,12270,1,4,0:3:0:0:
188,313,12358,1,4,0:3:0:0:
212,319,12446,1,4,0:3:0:0:
237,318,12534,1,4,0:3:0:0:
286,305,12623,1,4,3:0:0:0:
335,306,12711,2,0,P|354:309|366:316,1,25,4|4,3:0|3:0,0:0:0:0:
469,384,12887,5,4,0:3:0:0:
490,300,13004,5,4,0:3:0:0:
455,221,13122,5,4,0:3:0:0:
379,181,13240,6,0,P|399:154|431:141,1,50,8|4,0:0|0:0,0:0:0:0:
335,306,13593,6,0,B|289:290|264:259|251:221|251:221|245:200|229:194|229:194|209:190|193:203|193:203|181:218|189:235|189:235|196:249|217:252,1,262.500002503395,4|0,0:1|0:0,0:0:0:0:
111,194,13946,6,0,B|151:243|151:243|222:253,1,125,8|0,0:0|0:0,0:0:0:0:
290,103,14299,2,0,B|250:54|250:54|179:44,1,125,0|0,0:0|0:0,0:0:0:0:
109,208,14652,6,0,B|145:254|145:254|209:263,1,100,8|0,0:0|0:0,0:0:0:0:
292,89,15005,2,0,B|256:43|256:43|214:37,1,100,0|0,0:0|0:0,0:0:0:0:
359,176,15358,5,8,0:0:0:0:
403,108,15535,1,0,0:0:0:0:
447,40,15711,1,0,0:0:0:0:
362,189,15887,5,0,0:0:0:0:
415,115,16064,1,8,0:0:0:0:
460,36,16240,1,0,0:0:0:0:
505,114,16417,6,0,B|496:151|496:151|472:182,1,75.0000028610231,0|0,0:0|0:0,0:0:0:0:
342,78,16770,6,0,P|431:99|473:180,1,187.5,8|0,0:0|0:0,0:0:0:0:
333,230,17123,6,0,L|362:189,1,50,0|0,0:0|0:0,0:0:0:0:
212,204,17476,6,0,L|362:189,1,150,8|0,0:0|0:0,0:0:0:0:
426,281,17829,6,0,L|352:289,1,75.0000028610231,0|0,0:0|0:0,0:0:0:0:
201,303,18182,2,0,L|151:308,2,50.0000019073487,8|0|0,1:2|1:0|1:0,0:0:0:0:
212,204,18535,5,0,0:0:0:0:
281,362,18711,1,0,0:0:0:0:
361,189,18887,1,8,0:0:0:0:
489,375,19064,1,8,0:0:0:0:
473,180,19240,5,4,0:0:0:0:
469,155,19328,1,0,0:0:0:0:
459,132,19416,1,0,0:0:0:0:
445,111,19504,1,0,0:0:0:0:
426,95,19592,1,8,0:0:0:0:
404,83,19681,1,0,0:0:0:0:
380,76,19769,1,0,0:0:0:0:
355,75,19857,1,0,0:0:0:0:
331,79,19946,5,0,0:0:0:0:
296,84,20034,1,0,0:0:0:0:
262,81,20122,1,0,0:0:0:0:
229,68,20210,1,0,0:0:0:0:
201,48,20299,6,0,P|194:71|196:103,3,50,0|0|0|0,3:3|3:3|3:3|3:3,3:0:0:0:
212,204,20652,5,4,0:0:0:0:
187,205,20740,1,0,0:0:0:0:
162,201,20828,1,0,0:0:0:0:
139,191,20916,1,0,0:0:0:0:
119,177,21005,1,8,0:0:0:0:
98,162,21093,1,0,0:0:0:0:
76,152,21181,1,0,0:0:0:0:
51,148,21269,1,0,0:0:0:0:
26,150,21358,5,0,0:0:0:0:
21,184,21446,1,0,0:0:0:0:
29,218,21534,1,0,0:0:0:0:
49,246,21622,1,0,0:0:0:0:
79,265,21711,5,0,3:0:0:0:
194,96,21887,1,0,3:0:0:0:
230,312,22064,5,4,0:0:0:0:
263,301,22152,1,0,0:0:0:0:
291,280,22240,1,0,0:0:0:0:
311,252,22328,1,0,0:0:0:0:
320,218,22417,5,4,0:0:0:0:
361,236,22505,1,0,0:0:0:0:
405,234,22593,1,0,0:0:0:0:
445,214,22681,1,0,0:0:0:0:
472,179,22770,6,0,L|515:202,1,25,4|0,0:0|0:0,0:0:0:0:
493,229,22858,2,0,L|512:273,1,25,0|0,0:0|0:0,0:0:0:0:
480,281,22946,2,0,L|471:328,1,25,0|0,0:0|0:0,0:0:0:0:
438,316,23035,2,0,L|405:348,1,25,0|0,0:0|0:0,0:0:0:0:
384,320,23123,5,4,3:0:0:0:
332,283,23211,1,4,3:0:0:0:
318,221,23299,1,4,3:0:0:0:
348,166,23387,1,4,3:0:0:0:
409,145,23476,6,0,P|469:175|491:258,1,150.000005722046,4|0,0:0|0:0,0:0:0:0:
438,316,23740,6,0,B|366:293|366:293|293:313,1,150.000005722046,4|0,0:0|0:0,0:0:0:0:
220,365,24005,6,0,L|386:322,1,150.000005722046,4|0,0:0|0:0,0:0:0:0:
211,274,24270,6,0,P|202:197|239:134,1,150.000005722046,4|0,0:0|0:0,0:0:0:0:
220,47,24535,6,0,P|255:60|306:59,1,75.0000028610231,4|0,0:0|0:0,0:0:0:0:
325,31,24711,6,0,P|291:48|255:54,1,75.0000028610231,0|0,0:0|0:0,0:0:0:0:
115,31,24887,5,4,0:1:0:0:
85,212,25064,1,0,0:0:0:0:
255,147,25240,1,8,0:0:0:0:
48,113,25417,1,0,0:0:0:0:
189,229,25593,2,0,L|312:250,1,125,0|0,0:0|0:0,0:0:0:0:
220,47,25946,2,0,P|171:79|151:152,1,125,8|0,0:0|0:0,0:0:0:0:
173,327,26299,6,0,L|189:229,1,100,0|0,0:0|0:0,0:0:0:0:
197,340,26652,2,0,L|196:240,1,100,8|0,0:0|0:0,0:0:0:0:
335,163,27005,6,0,L|319:261,1,100,0|0,0:0|0:0,0:0:0:0:
310,150,27358,2,0,L|311:249,1,100,8|0,0:0|0:0,0:0:0:0:
422,340,27711,5,0,0:0:0:0:
335,163,27887,1,0,0:0:0:0:
226,327,28064,1,8,0:0:0:0:
430,225,28240,1,0,0:0:0:0:
240,101,28417,2,0,P|221:153|242:229,1,125,0|0,0:0|0:0,0:0:0:0:
344,45,28770,2,0,P|284:58|240:101,1,125,8|0,0:0|0:0,0:0:0:0:
444,107,29123,5,0,0:0:0:0:
235,219,29299,1,0,0:0:0:0:
224,225,29387,1,0,0:0:0:0:
213,231,29476,1,8,0:0:0:0:
69,166,29652,5,0,0:0:0:0:
91,154,29741,1,0,0:0:0:0:
113,142,29829,1,0,0:0:0:0:
269,229,30005,5,0,0:0:0:0:
236,247,30093,1,0,0:0:0:0:
203,265,30182,1,8,0:0:0:0:
35,156,30358,5,0,0:0:0:0:
79,132,30447,1,0,0:0:0:0:
123,108,30535,6,0,B|179:79|179:79|245:88,1,125,0|0,0:0|0:0,0:0:0:0:
269,229,30887,2,0,B|213:258|213:258|147:249,1,125,8|0,0:0|0:0,0:0:0:0:
343,192,31240,6,0,P|354:243|328:289,1,100,0|0,0:0|0:0,0:0:0:0:
340,169,31593,2,0,P|363:215|358:268,1,100,8|0,0:0|0:0,0:0:0:0:
238,110,31946,6,0,P|227:161|253:207,1,100,0|0,0:0|0:0,0:0:0:0:
240,87,32299,2,0,P|216:133|222:185,1,100,8|0,0:0|0:0,0:0:0:0:
343,28,32652,5,0,0:0:0:0:
343,192,32829,1,0,0:0:0:0:
137,146,33005,1,8,0:0:0:0:
405,110,33182,1,0,0:0:0:0:
281,274,33358,2,0,P|238:205|255:133,1,150.000005722046,0|0,0:0|0:0,0:0:0:0:
384,287,33711,2,0,P|345:358|276:378,1,150.000005722046,8|0,0:0|0:0,0:0:0:0:
92,324,34064,6,0,L|192:329,1,100,0|0,0:0|0:0,0:0:0:0:
71,293,34417,2,0,L|169:315,1,100,8|0,0:0|0:0,0:0:0:0:
104,219,34770,6,0,P|65:188|60:119,1,112.500004291535,4|0,0:3|0:0,0:0:0:0:
137,146,35123,5,0,1:0:0:0:
180,75,35240,5,0,1:0:0:0:
125,12,35358,5,0,1:0:0:0:
48,44,35476,6,0,B|179:75|179:75|293:35,1,225.000008583069,4|0,0:0|0:0,0:0:0:0:
404,109,35829,6,0,P|306:139|264:45,1,225.000008583069,4|0,0:0|0:0,0:0:0:0:
422,32,36182,6,0,L|393:158,1,125,0|0,0:0|0:0,0:0:0:0:
220,110,36535,2,0,L|360:60,1,125,8|0,0:0|0:0,0:0:0:0:
512,2,36887,5,4,0:3:0:0:
445,306,37064,1,4,0:3:0:0:
422,32,37240,1,8,0:0:0:0:
376,227,37417,1,0,0:0:0:0:
509,110,37593,6,0,L|392:153,1,125,0|0,0:0|0:0,0:0:0:0:
220,110,37946,2,0,B|283:114|283:114|353:88,1,125,8|0,0:0|0:0,0:0:0:0:
169,49,38299,5,4,0:3:0:0:
140,121,38387,1,4,0:3:0:0:
188,182,38476,1,4,0:3:0:0:
216,254,38564,1,4,0:3:0:0:
168,315,38652,2,0,P|117:321|65:280,1,100,8|0,0:0|0:0,0:0:0:0:
264,193,39005,6,0,L|405:211,1,125,0|0,0:0|0:0,0:0:0:0:
220,110,39358,2,0,L|79:128,1,125,8|0,0:0|0:0,0:0:0:0:
308,276,39711,5,4,0:3:0:0:
357,194,39828,5,4,0:3:0:0:
312,110,39946,5,4,0:3:0:0:
220,110,40064,6,0,L|109:124,1,100,8|0,0:0|0:0,0:0:0:0:
357,194,40417,5,0,0:0:0:0:
274,32,40593,1,0,0:0:0:0:
268,21,40681,1,0,0:0:0:0:
262,10,40770,1,8,0:0:0:0:
110,156,40946,5,0,0:0:0:0:
122,178,41035,1,0,0:0:0:0:
134,200,41123,1,0,0:0:0:0:
264,66,41299,5,0,0:0:0:0:
246,33,41387,1,0,0:0:0:0:
228,0,41476,1,8,0:0:0:0:
120,122,41652,5,0,0:0:0:0:
144,166,41741,1,0,0:0:0:0:
168,210,41829,6,0,B|198:266|198:266|182:338,1,125,0|0,0:0|0:0,0:0:0:0:
68,208,42182,2,0,L|101:64,1,125,8|0,0:0|0:0,0:0:0:0:
264,66,42535,5,4,0:3:0:0:
208,309,42711,1,4,0:3:0:0:
59,194,42887,2,0,L|87:77,1,100,8|0,0:0|0:0,0:0:0:0:
274,225,43240,6,0,L|297:322,1,100,0|0,0:0|0:0,0:0:0:0:
296,208,43593,2,0,L|301:306,1,100,8|0,0:0|0:0,0:0:0:0:
362,124,43946,5,4,0:3:0:0:
289,101,44034,1,4,0:3:0:0:
220,131,44122,1,4,0:3:0:0:
189,201,44210,1,4,0:3:0:0:
211,273,44299,2,0,P|259:310|336:306,1,125,8|0,0:0|0:0,0:0:0:0:
220,131,44652,6,0,L|74:138,1,125,0|0,0:0|0:0,0:0:0:0:
296,208,45005,2,0,L|442:214,1,125,8|0,0:0|0:0,0:0:0:0:
428,40,45358,6,0,P|394:20|342:22,1,75,2|0,0:3|0:0,0:0:0:0:
362,124,45711,6,0,L|468:129,1,100,8|0,0:0|0:0,0:0:0:0:
296,208,46064,6,0,P|268:181|257:127,1,75.0000028610231,0|0,0:0|0:0,0:0:0:0:
362,292,46417,2,0,P|390:265|401:211,1,75.0000028610231,8|0,0:0|0:0,0:0:0:0:
296,376,46770,6,0,P|268:349|258:315,2,50.0000019073487,4|4|4,0:3|0:3|0:3,0:0:0:0:
176,336,47123,6,0,P|177:316|198:286,2,33.3333333333333,4|4|4,0:3|0:3|0:3,0:0:0:0:
150,212,47476,6,0,B|174:200|209:205|233:220|233:220|240:178|291:179|298:214,1,175,4|0,0:1|0:0,0:0:0:0:
205,131,48182,5,8,0:0:0:0:
285,111,48299,5,0,0:0:0:0:
356,155,48417,5,0,0:0:0:0:
436,135,48535,6,0,P|427:112|409:93,1,37.5000014305115
296,208,48711,2,0,P|305:231|323:250,1,37.5000014305115,0|0,0:0|0:0,0:0:0:0:
452,140,48887,6,0,P|428:84|361:56,1,125,4|0,0:3|0:0,0:0:0:0:
285,111,49152,6,0,B|205:131|205:131|152:97,1,125,0|0,0:0|0:0,0:0:0:0:
67,124,49417,6,0,L|134:141,1,62.5,0|0,0:0|0:0,0:0:0:0:
67,32,49593,6,0,P|65:127|7:155,1,150.000005722046,8|0,0:0|0:0,0:0:0:0:
77,18,50123,2,0,P|87:37|95:70,1,37.5000014305115,0|0,0:0|0:0,0:0:0:0:
29,196,50299,6,0,B|17:213|13:230|13:230|37:241|77:250|121:229|121:229|151:216|191:208|231:230,1,262.500010013581,4|0,0:3|0:0,0:0:0:0:
176,336,51005,6,0,L|172:298,1,25,8|0,0:0|0:0,0:0:0:0:
248,212,51182,2,0,L|244:250,1,25,0|0,0:0|0:0,0:0:0:0:
320,336,51358,6,0,B|316:298|316:298|327:178,1,150,0|0,0:0|0:0,0:0:0:0:
436,265,51711,6,0,P|421:285|401:299,1,50,4|0,0:3|0:0,0:0:0:0:
457,261,51887,2,0,P|447:284|431:302,1,50,0|0,0:0|0:0,0:0:0:0:
326,186,52064,6,0,P|340:205|355:217,1,37.5000014305115,0|0,0:0|0:0,0:0:0:0:
305,181,52240,2,0,P|314:204|325:219,1,37.5000014305115,0|0,0:0|0:0,0:0:0:0:
436,106,52417,5,8,0:0:0:0:
457,101,52505,1,0,0:0:0:0:
474,91,52593,1,0,0:0:0:0:
487,76,52682,1,0,0:0:0:0:
425,33,52770,5,0,0:0:0:0:
386,44,52858,1,0,0:0:0:0:
348,55,52946,1,0,0:0:0:0:
309,66,53034,1,0,0:0:0:0:
272,0,53123,6,0,P|299:108|150:95,1,308.000009399414,4|0,0:3|0:0,0:0:0:0:
228,68,53829,6,0,P|234:91|233:116,2,50.0000019073487,8|0|0,0:0|0:0|0:0,0:0:0:0:
74,68,54182,6,0,P|67:98|83:141,1,62.5,0|0,0:0|0:0,0:0:0:0:
239,125,54358,2,0,P|246:94|239:64,1,62.5,0|0,0:0|0:0,0:0:0:0:
62,64,54535,6,0,B|48:94|50:127|77:157|77:157|70:199|70:199|89:238|89:238,1,175,4|0,0:3|0:0,0:0:0:0:
180,201,55240,6,0,L|135:180,2,33.3333333333333,8|0|0,0:0|0:0|0:0,0:0:0:0:
158,202,55593,2,0,L|226:235,1,75
338,160,55946,6,0,P|294:127|239:125,1,112.500004291535,4|0,0:3|0:0,0:0:0:0:
205,141,56299,6,0,P|221:130|239:124,1,37.5000014305115
434,220,56476,2,0,P|415:218|397:213,1,37.5000014305115
314,120,56652,6,0,P|365:218|276:313,1,250,8|0,0:0|0:0,0:0:0:0:
190,299,57182,1,0,0:0:0:0:
150,296,57270,1,0,0:0:0:0:
114,311,57358,6,0,P|96:327|85:350,7,37.5000014305115
89,338,57711,6,0,L|-8:329,2,83.3333333333333
166,384,58064,6,0,L|220:379,3,50
89,338,58417,5,0,0:0:0:0:
302,360,58593,1,0,0:0:0:0:
127,144,58770,6,0,L|153:267,1,125
8,83,59122,2,0,P|55:139|142:139,1,150.000005722046,4|0,0:0|0:0,0:0:0:0:
297,115,59475,1,0,0:0:0:0:
103,44,59651,1,0,0:0:0:0:
139,248,59828,2,0,L|308:217,1,150.000005722046,4|0,0:0|0:0,0:0:0:0:
398,348,60180,6,0,L|250:321,1,125
297,115,60532,2,0,P|360:142|391:234,1,150.000005722046,4|0,0:0|0:0,0:0:0:0:
199,158,60885,1,0,0:0:0:0:
307,9,61061,1,0,0:0:0:0:
434,248,61237,2,0,L|265:217,1,150.000005722046,4|0,0:0|0:0,0:0:0:0:
197,47,61590,6,0,B|258:68|258:68|297:115,1,125
210,295,61942,2,0,P|178:228|199:158,1,150.000005722046,4|0,0:0|0:0,0:0:0:0:
395,72,62294,1,0,0:0:0:0:
286,220,62470,1,0,0:0:0:0:
49,74,62646,2,0,L|218:43,1,150.000005722046,4|0,0:0|0:0,0:0:0:0:
183,192,62999,6,0,L|59:170,1,125,0|0,0:0|0:0,0:0:0:0:
210,295,63351,2,0,P|270:253|286:168,1,150.000005722046,4|0,0:0|0:0,0:0:0:0:
107,266,63703,1,0,0:0:0:0:
313,324,63879,1,0,0:0:0:0:
183,192,64055,6,0,L|91:171,1,75.0000028610231,4|0,0:0|0:0,0:0:0:0:
34,283,64231,2,0,L|106:265,1,75.0000028610231,0|0,0:0|0:0,0:0:0:0:
286,220,64407,5,0,0:0:0:0:
156,89,64582,1,0,0:0:0:0:
210,295,64758,2,0,L|373:340,1,150.000005722046,4|0,0:0|0:0,0:0:0:0:
362,145,65110,5,0,0:0:0:0:
169,196,65286,1,0,0:0:0:0:
403,244,65462,2,0,P|455:201|459:97,1,150.000005722046,4|0,0:0|0:0,0:0:0:0:
255,131,65814,5,0,0:0:0:0:
325,336,65989,1,0,0:0:0:0:
34,283,66165,2,0,B|89:230|89:230|171:248,1,150.000005722046,4|0,0:0|0:0,0:0:0:0:
59,375,66516,5,0,0:0:0:0:
0,154,66692,1,0,0:0:0:0:
218,320,66868,2,0,L|258:175,1,150.000005722046,4|0,0:0|0:0,0:0:0:0:
97,55,67219,6,0,L|122:150,1,75.0000028610231,0|0,0:0|0:0,0:0:0:0:
258,175,67569,6,0,P|202:106|116:127,1,187.5,0|0,0:0|0:0,0:0:0:0:
160,233,67920,6,0,L|176:186,1,50,0|0,0:0|0:0,0:0:0:0:
213,331,68271,6,0,L|175:185,1,150,0|0,0:0|0:0,0:0:0:0:
46,218,68622,5,0,0:0:0:0:
83,363,68797,1,0,0:0:0:0:
168,155,68972,5,0,0:0:0:0:
213,331,69147,1,0,0:0:0:0:
290,92,69322,5,0,0:0:0:0:
343,299,69497,1,0,0:0:0:0:
412,29,69672,5,0,0:0:0:0:
473,267,69847,2,0,L|411:247,1,50
251,203,70023,5,4,0:3:0:0:
512,68,70197,1,4,0:3:0:0:
343,299,70372,5,4,0:3:0:0:
301,326,70459,1,4,0:3:0:0:
252,336,70546,1,4,0:3:0:0:
203,327,70633,1,4,0:3:0:0:
156,310,70721,2,0,P|137:308|117:311,3,25,0|0|0|0,3:0|3:0|3:0|3:0,3:0:0:0:
115,302,70896,6,0,P|143:294|177:305,1,62.5
42,373,71070,6,0,L|1:349,1,25,0|0,3:0|3:0,3:0:0:0:
13,318,71158,2,0,L|-5:277,1,25,0|0,3:0|3:0,3:0:0:0:
22,257,71245,2,0,L|30:216,1,25,0|0,3:0|3:0,3:0:0:0:
64,212,71332,2,0,L|95:183,1,25,0|0,3:0|3:0,3:0:0:0:
124,199,71419,6,0,B|195:217|195:217|284:194,1,150.000005722046,4|0,0:0|0:0,0:0:0:0:
341,144,71680,6,0,L|195:182,1,150.000005722046,4|0,0:0|0:0,0:0:0:0:
137,113,71941,6,0,P|203:115|195:183,1,150.000005722046,4|0,0:0|0:0,0:0:0:0:
148,25,72202,6,0,P|209:27|282:96,1,150.000005722046,4|0,0:0|0:0,0:0:0:0:
341,144,72463,6,0,P|363:108|361:67,1,75.0000028610231,4|0,0:0|0:0,0:0:0:0:
394,37,72637,6,0,P|378:76|387:116,1,75.0000028610231,0|0,0:0|0:0,0:0:0:0:
394,251,72811,6,0,P|373:303|385:238,1,225.000008583069,4|0,0:1|0:0,0:0:0:0:
474,292,73157,5,0,0:0:0:0:
459,334,73244,1,0,0:0:0:0:
426,365,73331,1,0,0:0:0:0:
385,383,73417,1,0,0:0:0:0:
295,369,73504,5,4,0:0:0:0:
255,348,73590,1,0,0:0:0:0:
211,340,73677,1,0,0:0:0:0:
166,346,73764,1,0,0:0:0:0:
123,360,73851,5,0,0:0:0:0:
78,359,73937,1,0,0:0:0:0:
40,337,74024,1,0,0:0:0:0:
17,298,74111,1,0,0:0:0:0:
24,253,74198,6,0,B|56:272|56:272|68:313,3,75.0000028610231,4|0|0|0,0:0|0:0|0:0|0:0,0:0:0:0:
126,201,74545,2,0,L|166:346,1,150.000005722046,0|0,0:0|0:0,0:0:0:0:
228,149,74891,5,0,0:0:0:0:
166,346,75065,1,2,0:2:0:0:
86,56,75238,1,0,0:0:0:0:
370,242,75412,1,2,0:2:0:0:
126,201,75585,6,0,B|85:56|85:56|59:129,1,225.000008583069,4|0,0:0|0:0,0:0:0:0:
30,234,75932,5,0,0:0:0:0:
74,227,76019,1,0,0:0:0:0:
118,220,76105,1,0,0:0:0:0:
162,213,76192,1,0,0:0:0:0:
239,166,76279,5,4,0:0:0:0:
283,173,76366,1,0,0:0:0:0:
327,180,76452,1,0,0:0:0:0:
371,187,76539,1,0,0:0:0:0:
415,186,76625,5,0,0:0:0:0:
450,159,76712,1,0,0:0:0:0:
464,117,76799,1,0,0:0:0:0:
451,75,76885,1,0,0:0:0:0:
416,48,76972,6,0,P|387:75|381:118,1,75.0000028610231,4|0,0:0|0:0,0:0:0:0:
451,264,77146,1,2,0:2:0:0:
451,264,77319,5,0,0:0:0:0:
429,31,77493,1,2,0:2:0:0:
239,166,77666,1,0,0:0:0:0:
501,187,77839,1,2,0:2:0:0:
189,89,78013,1,0,0:0:0:0:
339,320,78186,1,2,0:2:0:0:
379,108,78360,6,0,L|135:82,1,225.000008583069,4|0,0:0|0:0,0:0:0:0:
203,9,78706,5,0,0:0:0:0:
233,41,78792,1,0,0:0:0:0:
244,84,78879,1,0,0:0:0:0:
232,127,78966,1,0,0:0:0:0:
202,160,79053,2,0,P|172:174|117:168,1,75.0000028610231,4|0,0:0|0:0,0:0:0:0:
105,261,79227,1,0,0:0:0:0:
105,261,79313,2,0,P|70:246|33:247,1,75.0000028610231,0|0,0:0|0:0,0:0:0:0:
58,336,79487,1,0,0:0:0:0:
103,332,79573,1,0,0:0:0:0:
147,327,79660,1,0,0:0:0:0:
192,322,79747,6,0,L|275:314,3,75.0000028610231,4|0|0|0,0:0|0:0|0:0|0:0,0:0:0:0:
385,379,80094,2,0,P|402:302|366:225,1,150.000005722046,0|0,0:0|0:0,0:0:0:0:
202,160,80441,5,0,0:0:0:0:
385,379,80614,1,2,0:2:0:0:
483,111,80787,1,0,0:0:0:0:
266,314,80961,1,2,0:2:0:0:
473,275,81134,6,0,B|483:110|483:110|425:165,1,225.000008583069,4|0,0:0|0:0,0:0:0:0:
358,229,81481,5,0,0:0:0:0:
344,210,81568,1,0,0:0:0:0:
334,189,81654,2,0,P|327:149|336:107,1,75.0000028610231,0|0,0:0|0:0,0:0:0:0:
225,79,81828,1,4,0:0:0:0:
225,79,81915,2,0,L|225:0,1,75.0000028610231,0|0,0:0|0:0,0:0:0:0:
116,189,82088,1,0,0:0:0:0:
116,189,82175,2,0,P|123:149|114:107,1,75.0000028610231,0|0,0:0|0:0,0:0:0:0:
10,150,82348,1,0,0:0:0:0:
4,194,82434,1,0,0:0:0:0:
15,237,82521,6,0,P|37:268|85:290,3,75.0000028610231,4|0|2|0,0:0|0:0|0:2|0:0,0:0:0:0:
162,383,82868,2,0,L|194:224,1,150.000005722046,0|2,0:0|0:2,0:0:0:0:
225,79,83215,6,0,L|241:155,1,75.0000028610231,0|0,0:0|0:0,0:0:0:0:
283,330,83389,1,2,0:2:0:0:
472,155,83562,6,0,L|398:130,1,75.0000028610231,0|0,0:0|0:0,0:0:0:0:
225,79,83735,2,0,L|298:54,1,75.0000028610231,2|0,0:2|0:0,0:0:0:0:
282,183,83909,6,0,P|195:193|256:155,1,225.000008583069,4|0,0:1|0:0,0:0:0:0:
353,151,84256,5,0,0:0:0:0:
362,194,84342,1,0,0:0:0:0:
355,238,84429,1,0,0:0:0:0:
333,277,84516,1,0,0:0:0:0:
254,319,84602,5,4,0:0:0:0:
209,317,84688,1,0,0:0:0:0:
168,299,84775,1,0,0:0:0:0:
136,267,84862,1,0,0:0:0:0:
117,227,84950,5,0,0:0:0:0:
115,183,85036,1,0,0:0:0:0:
97,142,85123,1,0,0:0:0:0:
65,110,85210,1,0,0:0:0:0:
25,91,85297,6,0,P|9:124|11:168,3,75.0000028610231,4|0|0|0,0:0|0:0|0:0|0:0,0:0:0:0:
88,229,85643,6,0,P|124:226|161:202,1,75.0000028610231,0|0,0:0|0:0,0:0:0:0:
177,106,85816,2,0,P|213:108|250:132,1,75.0000028610231,4|0,0:2|0:0,0:0:0:0:
254,317,85990,6,0,L|269:244,1,75.0000028610231,0|0,0:0|0:0,0:0:0:0:
177,106,86163,2,0,L|191:179,1,75.0000028610231,4|0,0:2|0:0,0:0:0:0:
348,179,86337,6,0,P|321:154|285:143,1,75.0000028610231,0|0,0:0|0:0,0:0:0:0:
97,41,86510,2,0,P|124:16|160:4,1,75.0000028610231,4|0,0:2|0:0,0:0:0:0:
273,69,86683,6,0,P|268:156|136:202,1,225.000008583069,4|0,0:0|0:0,0:0:0:0:
44,178,87030,5,0,0:0:0:0:
63,137,87116,1,0,0:0:0:0:
97,108,87203,1,0,0:0:0:0:
139,95,87290,1,0,0:0:0:0:
214,146,87377,5,4,0:0:0:0:
254,164,87463,1,0,0:0:0:0:
299,162,87550,1,0,0:0:0:0:
338,140,87637,1,0,0:0:0:0:
363,103,87724,5,0,0:0:0:0:
403,84,87810,1,0,0:0:0:0:
448,86,87897,1,0,0:0:0:0:
487,108,87984,1,0,0:0:0:0:
510,146,88071,6,0,L|500:235,1,75.0000028610231,4|0,0:0|0:0,0:0:0:0:
461,285,88244,2,0,L|469:210,1,75.0000028610231,4|0,0:2|0:0,0:0:0:0:
446,287,88417,6,0,L|454:212,1,75.0000028610231,0|0,0:0|0:0,0:0:0:0:
363,103,88591,2,0,L|371:178,1,75.0000028610231,4|0,0:2|0:0,0:0:0:0:
392,357,88764,6,0,P|422:373|462:372,1,75.0000028610231,0|0,0:0|0:0,0:0:0:0:
300,192,88938,2,0,P|330:176|370:177,1,75.0000028610231,4|0,0:2|0:0,0:0:0:0:
203,354,89111,6,0,L|195:279,1,75.0000028610231,0|0,0:0|0:0,0:0:0:0:
97,117,89284,2,0,L|89:192,1,75.0000028610231,4|0,0:2|0:0,0:0:0:0:
74,330,89458,6,0,L|297:305,1,225.000008583069,4|0,0:0|0:0,0:0:0:0:
392,357,89805,5,0,0:0:0:0:
405,314,89891,1,0,0:0:0:0:
400,270,89978,1,0,0:0:0:0:
377,231,90065,1,0,0:0:0:0:
341,205,90152,2,0,P|305:196|254:207,1,75.0000028610231,4|0,0:0|0:0,0:0:0:0:
237,97,90325,1,0,0:0:0:0:
237,97,90412,2,0,P|201:106|150:95,1,75.0000028610231,0|0,0:0|0:0,0:0:0:0:
133,205,90585,1,0,0:0:0:0:
93,185,90671,1,0,0:0:0:0:
64,150,90758,1,0,0:0:0:0:
53,107,90845,6,0,P|57:69|85:28,3,75.0000028610231,4|0|0|0,0:0|0:0|0:0|0:0,0:0:0:0:
213,1,91192,6,0,L|234:74,1,75.0000028610231,0|0,0:0|0:0,0:0:0:0:
133,205,91365,2,0,L|154:132,1,75.0000028610231,4|0,0:2|0:0,0:0:0:0:
297,55,91539,6,0,P|271:82|237:97,1,75.0000028610231,0|0,0:0|0:0,0:0:0:0:
337,281,91712,2,0,P|311:254|276:239,1,75.0000028610231,4|0,0:2|0:0,0:0:0:0:
99,347,91886,6,0,B|138:352|138:352|173:345,1,75.0000028610231,0|0,0:0|0:0,0:0:0:0:
227,134,92059,2,0,B|191:127|191:127|153:132,1,75.0000028610231,4|0,0:2|0:0,0:0:0:0:
337,281,92232,6,0,B|486:262|486:262|408:252,1,225.000008583069,4|0,0:0|0:0,0:0:0:0:
335,169,92579,5,0,0:0:0:0:
312,165,92665,1,0,0:0:0:0:
290,162,92753,2,0,L|208:151,1,75.0000028610231,0|0,0:0|0:0,0:0:0:0:
58,215,92926,1,4,0:0:0:0:
58,215,93013,2,0,L|140:203,1,75.0000028610231,0|0,0:0|0:0,0:0:0:0:
160,39,93186,1,0,0:0:0:0:
160,39,93273,2,0,P|149:74|127:104,1,75.0000028610231,0|0,0:0|0:0,0:0:0:0:
261,215,93446,1,0,0:0:0:0:
306,222,93533,1,0,0:0:0:0:
351,229,93620,6,0,L|425:238,3,75.0000028610231,4|0|4|0,0:0|0:0|0:2|0:0,0:0:0:0:
512,140,93967,6,0,L|438:149,1,75.0000028610231,0|0,0:0|0:0,0:0:0:0:
291,82,94140,2,0,L|365:91,1,75.0000028610231,4|0,0:2|0:0,0:0:0:0:
261,215,94313,6,0,P|226:204|184:165,1,75.0000028610231,0|0,0:0|0:0,0:0:0:0:
40,157,94487,2,0,P|75:146|117:107,1,75.0000028610231,4|0,0:2|0:0,0:0:0:0:
259,27,94660,6,0,L|277:115,1,75.0000028610231,0|0,0:0|0:0,0:0:0:0:
163,271,94834,2,0,L|178:197,1,75.0000028610231,4|0,0:2|0:0,0:0:0:0:
377,247,95007,6,0,P|358:297|363:228,1,225.000008583069,4|0,0:1|0:0,0:0:0:0:
455,265,95354,5,0,0:0:0:0:
446,309,95440,1,0,0:0:0:0:
420,345,95527,1,0,0:0:0:0:
383,370,95614,1,0,0:0:0:0:
293,372,95701,5,4,0:0:0:0:
255,348,95787,1,0,0:0:0:0:
210,340,95874,1,0,0:0:0:0:
165,346,95961,1,0,0:0:0:0:
126,366,96047,5,0,0:0:0:0:
81,369,96133,1,0,0:0:0:0:
42,348,96220,1,0,0:0:0:0:
21,309,96307,1,0,0:0:0:0:
0,279,96394,6,0,L|7:189,3,75.0000028610231,4|0|0|0,0:0|0:0|0:0|0:0,0:0:0:0:
105,122,96741,6,0,L|99:196,1,75.0000028610231
194,337,96915,2,0,L|188:262,1,75.0000028610231,4|0,0:2|0:0,0:0:0:0:
171,61,97088,6,0,P|140:37|96:33,1,75.0000028610231,0|0,0:0|0:0,0:0:0:0:
0,279,97261,2,0,P|31:303|75:307,1,75.0000028610231,4|0,0:2|0:0,0:0:0:0:
262,168,97435,6,0,L|190:148,1,75.0000028610231,0|0,0:0|0:0,0:0:0:0:
13,14,97608,2,0,L|85:34,1,75.0000028610231,4|0,0:2|0:0,0:0:0:0:
256,87,97782,6,0,P|277:178|190:147,1,225.000008583069,4|0,0:0|0:0,0:0:0:0:
152,43,98128,5,0,0:0:0:0:
109,29,98214,1,0,0:0:0:0:
65,37,98301,1,0,0:0:0:0:
31,66,98388,1,0,0:0:0:0:
19,155,98475,5,4,0:0:0:0:
43,192,98561,1,0,0:0:0:0:
82,212,98648,1,0,0:0:0:0:
127,211,98735,1,0,0:0:0:0:
168,193,98822,5,0,0:0:0:0:
212,186,98908,1,0,0:0:0:0:
255,196,98995,1,0,0:0:0:0:
292,221,99082,1,0,0:0:0:0:
317,258,99169,6,0,L|241:288,1,75.0000028610231,4|0,0:0|0:0,0:0:0:0:
196,340,99342,2,0,L|266:313,1,75.0000028610231,4|0,0:2|0:0,0:0:0:0:
195,353,99516,6,0,L|265:326,1,75.0000028610231,0|0,0:0|0:0,0:0:0:0:
237,166,99689,2,0,L|167:193,1,75.0000028610231,4|0,0:2|0:0,0:0:0:0:
356,142,99863,6,0,P|366:106|367:67,1,75.0000028610231,0|0,0:0|0:0,0:0:0:0:
137,14,100036,2,0,P|138:51|148:87,1,75.0000028610231,4|0,0:2|0:0,0:0:0:0:
292,221,100209,6,0,B|326:238|326:238|369:241,1,75.0000028610231,0|0,0:0|0:0,0:0:0:0:
445,23,100383,2,0,B|408:25|408:25|374:42,1,75.0000028610231,4|0,0:2|0:0,0:0:0:0:
216,241,100556,6,0,B|360:202|360:202|446:224,1,225.000008583069,4|0,0:0|0:0,0:0:0:0:
363,309,100903,5,0,0:0:0:0:
328,260,100989,1,0,0:0:0:0:
323,201,101076,1,0,0:0:0:0:
348,148,101163,1,0,0:0:0:0:
398,116,101250,5,4,0:0:0:0:
345,89,101336,1,0,0:0:0:0:
286,93,101423,1,0,0:0:0:0:
237,126,101510,1,0,0:0:0:0:
210,179,101597,5,0,0:0:0:0:
167,220,101683,1,0,0:0:0:0:
110,237,101770,1,0,0:0:0:0:
51,227,101857,1,0,0:0:0:0:
3,193,101943,6,0,L|0:118,3,75.0000028610231,4|0|0|0,0:0|0:0|0:0|0:0,0:0:0:0:
104,21,102290,6,0,L|101:97,1,75.0000028610231
207,254,102464,2,0,L|210:178,1,75.0000028610231,4|0,0:2|0:0,0:0:0:0:
0,118,102637,6,0,P|37:127|83:119,1,75.0000028610231
266,0,102811,2,0,P|228:-4|192:4,1,75.0000028610231,4|0,0:2|0:0,0:0:0:0:
110,237,102984,6,0,B|111:276|111:276|127:315,1,75.0000028610231,0|0,0:0|0:0,0:0:0:0:
377,381,103157,2,0,B|376:342|376:342|360:303,1,75.0000028610231,4|0,0:2|0:0,0:0:0:0:
209,179,103331,5,4,0:3:0:0:
144,211,103417,1,4,0:3:0:0:
137,283,103504,1,4,0:3:0:0:
194,327,103591,1,4,0:3:0:0:
262,303,103678,1,4,0:3:0:0:
318,255,103764,1,4,0:3:0:0:
391,242,103851,1,4,0:3:0:0:
460,269,103938,1,4,0:3:0:0:
505,327,104024,5,4,0:3:0:0:
432,340,104110,1,4,0:3:0:0:
363,314,104197,1,4,0:3:0:0:
318,255,104284,1,4,0:3:0:0:
310,182,104370,1,4,0:3:0:0:
341,115,104457,1,4,0:3:0:0:
403,73,104545,2,0,L|490:87,1,75.0000028610231,4|4,0:3|0:3,0:0:0:0:
209,179,104718,5,4,0:3:0:0:
186,182,104804,1,4,0:3:0:0:
164,186,104891,1,4,0:3:0:0:
142,189,104978,1,4,0:3:0:0:
53,205,105065,5,4,0:3:0:0:
119,217,105151,1,4,0:3:0:0:
185,229,105238,1,4,0:3:0:0:
252,242,105325,1,4,0:3:0:0:
318,255,105412,6,0,L|372:265,3,37.5000014305115,4|0|0|0,0:3|0:0|0:0|0:0,0:0:0:0:
427,235,105585,2,0,L|390:241,2,37.5000014305115
389,339,105758,5,4,0:3:0:0:
312,364,105844,1,4,0:3:0:0:
239,330,105931,1,4,0:3:0:0:
209,255,106018,1,4,0:3:0:0:
238,180,106104,1,4,0:1:0:0:
